osu file format v14

[General]
AudioFilename: audio.mp3
AudioLeadIn: 0
PreviewTime: 21274
Countdown: 0
SampleSet: Drum
StackLeniency: 0.7
Mode: 0
LetterboxInBreaks: 0
WidescreenStoryboard: 1

[Editor]
Bookmarks: 10774,21441,74774
DistanceSpacing: 1
BeatDivisor: 4
GridSize: 16
TimelineZoom: 1

[Metadata]
Title:Play Poker Remix (w/Maple) (Cut Ver.)
TitleUnicode:Play Poker Remix (w/Maple) (Cut Ver.)
Artist:SEBii
ArtistUnicode:SEBii
Creator:Vanchanical
Version:Normal
Source:
Tags:english hip hop hip-hop rap hyperpop wafer KAMI NO KOTOBA goopert ancel ancelysia bitchgirl404
BeatmapID:2873300
BeatmapSetID:1391589

[Difficulty]
HPDrainRate:3
CircleSize:3.8
OverallDifficulty:4.5
ApproachRate:5.5
SliderMultiplier:1
SliderTickRate:1

[Events]
//Background and Video events
0,0,"daniel-OiqLGw2tawo-unsplash.jpg",0,0
//Break Periods
2,10981,20107
//Storyboard Layer 0 (Background)
//Storyboard Layer 1 (Fail)
//Storyboard Layer 2 (Pass)
//Storyboard Layer 3 (Foreground)
//Storyboard Layer 4 (Overlay)
//Storyboard Sound Samples

[TimingPoints]
115,333.333333333333,4,3,0,50,1,0
115,-111.111111111111,4,3,0,50,0,0
5114,-111.111111111111,4,3,10,50,0,0
5198,-111.111111111111,4,3,0,50,0,0
10448,-111.111111111111,4,3,10,50,0,0
10531,-111.111111111111,4,3,0,50,0,0
12108,333.333333333333,4,3,0,50,1,0
17441,-100,4,3,9,50,0,0
18774,-100,4,3,9,60,0,0
20107,-100,4,3,9,65,0,0
21441,-100,4,3,9,80,0,0
32107,-100,4,3,0,80,0,0
42774,-100,4,3,2,80,0,1
52107,-100,4,3,2,80,0,0
53107,-100,4,3,0,80,0,0

[Colours]
Combo1 : 107,188,103
Combo2 : 200,145,255
Combo3 : 158,190,139
Combo4 : 155,111,210

[HitObjects]
31,85,115,5,4,0:0:0:0:
86,155,448,1,0,0:0:0:0:
35,229,781,2,0,P|21:286|41:331,1,89.9999972534181,8|2,0:1|0:0,0:0:0:0:
104,365,1448,5,8,0:0:0:0:
184,324,1781,1,0,0:0:0:0:
263,366,2114,2,0,L|368:363,1,89.9999972534181,8|2,0:2|0:0,0:0:0:0:
423,307,2781,6,0,L|415:187,1,89.9999972534181,8|0,0:0|0:0,0:0:0:0:
446,131,3448,2,0,L|326:139,1,89.9999972534181,8|4,0:1|0:0,0:0:0:0:
280,184,4114,2,0,L|160:176,1,89.9999972534181,0|4,0:0|0:0,0:0:0:0:
109,217,4781,1,8,0:1:0:0:
44,153,5114,1,2,0:2:0:0:
72,67,5448,6,0,P|115:44|176:69,1,89.9999972534181,4|0,0:0|0:0,0:0:0:0:
240,73,6114,1,8,0:1:0:0:
318,29,6448,1,4,0:0:0:0:
402,58,6781,2,0,P|419:113|394:166,1,89.9999972534181,0|2,0:0|0:2,0:0:0:0:
333,189,7448,2,0,P|319:236|337:282,1,89.9999972534181,8|2,0:1|0:0,0:0:0:0:
367,356,8114,6,0,L|252:352,1,89.9999972534181,8|2,0:0|0:2,0:0:0:0:
188,368,8781,2,0,L|191:268,1,89.9999972534181,8|4,0:1|0:0,0:0:0:0:
218,192,9448,2,0,P|171:206|126:187,1,89.9999972534181,0|4,0:0|1:3,0:0:0:0:
115,157,9948,1,4,1:3:0:0:
115,157,10114,2,0,P|67:138|15:160,1,89.9999972534181,8|2,1:0|0:2,0:0:0:0:
5,227,10781,1,2,2:0:0:0:
0,68,21441,5,2,0:2:0:0:
75,129,21774,1,8,0:2:0:0:
150,63,22107,2,0,L|267:58,1,100,2|8,0:0|0:2,0:0:0:0:
331,118,22774,6,0,P|348:167|331:214,1,100,0|8,0:0|0:2,0:0:0:0:
300,248,23274,1,2,0:2:0:0:
300,248,23441,2,0,L|197:243,1,100,2|8,0:0|0:2,0:0:0:0:
117,187,24107,5,4,0:0:0:0:
28,234,24441,1,8,0:2:0:0:
31,333,24774,1,2,0:0:0:0:
120,376,25107,1,8,0:2:0:0:
189,306,25441,6,0,L|291:309,1,100,4|8,0:0|0:2,0:0:0:0:
330,345,25941,1,2,0:2:0:0:
330,345,26107,2,0,L|432:342,1,100,2|8,0:2|0:2,0:0:0:0:
501,272,26774,5,4,0:0:0:0:
430,200,27107,1,8,0:2:0:0:
495,124,27441,2,0,L|485:19,1,100,2|8,0:0|0:2,0:0:0:0:
389,10,28107,6,0,L|286:18,1,100,4|8,0:0|0:2,0:0:0:0:
249,48,28607,1,2,0:2:0:0:
249,48,28774,2,0,P|244:109|266:149,1,100,2|8,0:0|2:0,0:0:0:0:
330,214,29441,6,0,L|396:208,2,50,6|2|8,0:0|0:0|0:2,0:0:0:0:
260,285,30107,2,0,L|194:279,2,50,2|6|8,0:0|0:0|0:2,0:0:0:0:
329,356,30774,1,0,0:0:0:0:
329,356,32107,6,0,L|215:348,1,100,4|8,1:3|1:2,0:0:0:0:
129,355,32774,2,0,L|137:241,1,100,2|8,0:0|1:2,0:0:0:0:
177,225,33274,1,2,3:2:0:0:
177,225,33441,2,0,L|169:111,1,100,4|8,1:3|1:2,0:0:0:0:
137,30,34107,1,2,0:0:0:0:
37,41,34441,1,8,1:2:0:0:
10,137,34774,6,0,P|-2:181|18:239,1,100,8|8,1:3|1:2,0:0:0:0:
106,267,35441,2,0,P|120:314|108:362,1,100,2|8,3:0|1:2,0:0:0:0:
205,381,36107,2,0,L|311:374,1,100,8|8,1:3|1:2,0:0:0:0:
331,333,36607,1,8,1:3:0:0:
331,333,36774,2,0,L|437:326,1,100,0|0,0:0|1:0,0:0:0:0:
492,247,37441,6,0,L|484:137,1,100,4|8,1:3|1:2,0:0:0:0:
507,49,38107,2,0,L|397:57,1,100,2|8,0:0|1:2,0:0:0:0:
370,89,38607,1,2,0:0:0:0:
370,89,38774,2,0,L|260:81,1,100,4|8,1:3|1:2,0:0:0:0:
198,11,39441,1,2,0:0:0:0:
105,48,39774,1,8,1:2:0:0:
42,126,40107,6,0,P|26:183|49:233,1,100,8|8,1:3|1:2,0:0:0:0:
120,278,40774,2,0,L|227:272,1,100,2|8,0:0|1:2,0:0:0:0:
265,249,41274,1,0,0:0:0:0:
265,249,41441,1,2,2:0:0:0:
512,322,42774,6,0,L|454:325,1,50,4|0,1:3|0:0,0:0:0:0:
431,285,43107,2,0,L|373:282,1,50,8|0,1:2|0:0,0:0:0:0:
346,318,43440,2,0,B|301:314|301:314|281:325|281:325|236:320,1,100,0|8,0:0|1:2,0:0:0:0:
181,247,44107,6,0,P|175:222|179:198,1,50,4|0,1:3|0:0,0:0:0:0:
172,148,44440,2,0,P|190:131|213:122,1,50,8|4,1:2|1:3,0:0:0:0:
232,75,44774,2,0,P|281:74|327:93,1,100,2|8,0:0|1:2,0:0:0:0:
408,151,45440,5,8,1:3:0:0:
464,233,45774,1,8,1:2:0:0:
399,309,46107,1,2,0:0:0:0:
303,277,46441,1,8,1:2:0:0:
262,185,46774,6,0,P|215:169|161:193,1,100,8|8,1:3|1:2,0:0:0:0:
134,220,47274,1,8,1:3:0:0:
134,220,47440,2,0,P|87:236|33:212,1,100,0|2,0:0|1:2,0:0:0:0:
11,124,48107,6,0,L|47:78,1,50,4|0,1:3|0:0,0:0:0:0:
34,34,48441,2,0,L|91:42,1,50,8|0,1:2|0:2,0:0:0:0:
128,21,48774,2,8,L|165:113,1,100,8|8,0:2|1:2,0:0:0:0:
184,212,49441,6,0,L|251:207,1,50,4|0,1:3|0:0,0:0:0:0:
270,174,49774,2,0,L|337:179,1,50,8|4,1:2|1:3,0:0:0:0:
353,215,50107,2,0,B|395:212|395:212|417:221|417:221|463:217,1,100,2|8,0:0|1:2,0:0:0:0:
512,142,50774,5,8,1:3:0:0:
481,46,51107,1,8,1:2:0:0:
381,31,51441,1,8,1:2:0:0:
325,114,51774,1,8,1:2:0:0:
229,86,52107,1,4,1:3:0:0:
60,98,53441,6,0,L|65:208,1,100,4|2,1:2|0:2,0:0:0:0:
29,291,54107,1,8,1:2:0:0:
107,352,54441,2,0,L|177:347,1,50,2|2,0:2|0:2,0:0:0:0:
188,309,54774,6,0,L|300:317,1,100,8|2,1:3|0:2,0:0:0:0:
368,375,55441,1,2,1:3:0:0:
437,303,55774,2,0,P|441:267|433:244,1,50,4|2,1:3|0:2,0:0:0:0:
407,214,56107,6,0,P|392:165|417:108,1,100,8|2,1:3|0:2,0:0:0:0:
467,40,56774,2,0,L|364:35,1,100,8|2,1:2|0:2,0:0:0:0:
292,101,57441,6,0,P|245:120|185:95,1,100,8|2,1:3|0:2,0:0:0:0:
165,77,57941,1,8,1:3:0:0:
165,77,58107,2,0,P|118:58|58:83,1,100,2|2,1:3|0:2,0:0:0:0:
17,154,58774,6,0,P|0:206|20:255,1,100,4|2,1:3|0:2,0:0:0:0:
80,322,59441,1,8,1:2:0:0:
143,244,59774,2,0,P|147:211|139:185,1,50,2|2,0:2|0:2,0:0:0:0:
111,153,60107,6,0,P|97:103|121:47,1,100,8|2,1:3|0:2,0:0:0:0:
198,9,60774,1,2,1:3:0:0:
279,66,61107,2,0,L|330:71,1,50,4|2,1:3|0:2,0:0:0:0:
357,112,61441,6,0,L|460:104,1,100,8|2,1:3|0:2,0:0:0:0:
449,203,62107,2,0,L|457:306,1,100,8|2,1:2|0:2,0:0:0:0:
373,358,62774,2,0,P|325:377|273:357,1,100,8|2,1:3|0:2,0:0:0:0:
247,332,63274,1,8,1:3:0:0:
247,332,63441,2,0,P|199:313|147:333,1,100,2|2,1:3|0:2,0:0:0:0:
65,372,64107,6,0,L|56:254,1,100,4|2,1:3|0:2,0:0:0:0:
14,181,64774,2,0,L|132:172,1,100,8|2,1:2|0:2,0:0:0:0:
190,109,65441,6,0,P|232:89|282:100,1,100,8|2,1:3|0:2,0:0:0:0:
326,135,65941,1,4,1:3:0:0:
326,135,66107,2,0,P|368:154|418:143,1,100,2|2,1:3|0:2,0:0:0:0:
498,203,66774,5,8,1:3:0:0:
484,301,67107,1,2,0:2:0:0:
399,354,67441,1,8,1:2:0:0:
315,299,67774,1,2,0:2:0:0:
233,356,68107,6,0,L|131:355,1,100,8|2,1:3|0:2,0:0:0:0:
92,335,68607,1,8,1:3:0:0:
92,335,68774,2,0,P|76:287|99:237,1,100,2|2,1:3|0:2,0:0:0:0:
191,223,69441,6,0,L|194:114,1,100,4|2,1:3|0:2,0:0:0:0:
232,30,70107,2,0,L|123:27,1,100,8|2,1:2|0:2,0:0:0:0:
45,78,70774,6,0,P|29:117|46:176,1,100,8|2,1:3|0:2,0:0:0:0:
90,198,71274,1,4,1:3:0:0:
90,198,71441,2,0,P|104:245|87:291,1,100,2|2,1:3|0:2,0:0:0:0:
162,356,72107,5,8,1:3:0:0:
259,379,72441,1,2,0:2:0:0:
335,315,72774,1,8,1:2:0:0:
291,224,73107,1,2,0:2:0:0:
326,130,73441,6,0,L|221:127,1,100,8|2,1:3|0:2,0:0:0:0:
195,94,73941,1,8,1:3:0:0:
195,94,74107,2,0,L|90:97,1,100,2|2,1:3|0:2,0:0:0:0:
19,162,74774,1,2,2:0:0:0:
