osu file format v14

[General]
AudioFilename: audio.mp3
AudioLeadIn: 0
PreviewTime: 21274
Countdown: 0
SampleSet: Drum
StackLeniency: 0.7
Mode: 0
LetterboxInBreaks: 0
WidescreenStoryboard: 0

[Editor]
Bookmarks: 10774,21441,74774
DistanceSpacing: 1
BeatDivisor: 4
GridSize: 16
TimelineZoom: 1

[Metadata]
Title:Play Poker Remix (w/Maple) (Cut Ver.)
TitleUnicode:Play Poker Remix (w/Maple) (Cut Ver.)
Artist:SEBii
ArtistUnicode:SEBii
Creator:Vanchanical
Version:Insane
Source:
Tags:english hip hop hip-hop rap hyperpop wafer KAMI NO KOTOBA goopert ancel ancelysia bitchgirl404
BeatmapID:2873299
BeatmapSetID:1391589

[Difficulty]
HPDrainRate:5
CircleSize:4
OverallDifficulty:8
ApproachRate:9
SliderMultiplier:1.4
SliderTickRate:1

[Events]
//Background and Video events
0,0,"daniel-OiqLGw2tawo-unsplash.jpg",0,0
//Break Periods
2,10981,19507
//Storyboard Layer 0 (Background)
//Storyboard Layer 1 (Fail)
//Storyboard Layer 2 (Pass)
//Storyboard Layer 3 (Foreground)
//Storyboard Layer 4 (Overlay)
//Storyboard Sound Samples

[TimingPoints]
115,333.333333333333,4,3,0,50,1,0
115,-125,4,3,0,50,0,0
1614,-125,4,3,10,50,0,0
1698,-125,4,3,0,50,0,0
4281,-125,4,3,10,50,0,0
4364,-125,4,3,0,50,0,0
5114,-125,4,3,10,50,0,0
5198,-125,4,3,0,50,0,0
6614,-125,4,3,10,50,0,0
6698,-125,4,3,0,50,0,0
6948,-125,4,3,10,50,0,0
7031,-125,4,3,0,50,0,0
9614,-125,4,3,10,50,0,0
9698,-125,4,3,0,50,0,0
10448,-125,4,3,10,50,0,0
10531,-125,4,3,0,50,0,0
10614,-125,4,3,10,50,0,0
10698,-125,4,3,0,50,0,0
12108,333.333333333333,4,3,0,50,1,0
17441,-100,4,3,9,50,0,0
18774,-100,4,3,9,60,0,0
20107,-100,4,3,9,65,0,0
21441,-100,4,3,9,80,0,0
32107,-71.4285714285714,4,3,0,80,0,0
41441,-76.9230769230769,4,3,0,80,0,0
42441,-71.4285714285714,4,3,0,80,0,0
42524,-71.4285714285714,4,3,0,5,0,0
42607,-71.4285714285714,4,3,0,80,0,0
42691,-71.4285714285714,4,3,0,5,0,0
42774,-66.6666666666667,4,3,2,80,0,1
52107,-66.6666666666667,4,3,2,80,0,0
53107,-66.6666666666667,4,3,0,80,0,0
53441,-83.3333333333333,4,3,0,80,0,0
64107,-76.9230769230769,4,3,0,80,0,0

[Colours]
Combo1 : 107,188,103
Combo2 : 200,145,255
Combo3 : 158,190,139
Combo4 : 155,111,210

[HitObjects]
512,288,115,5,4,0:0:0:0:
512,288,281,1,0,0:0:0:0:
434,368,448,2,0,P|426:331|438:301,1,56,0|2,0:0|0:2,0:0:0:0:
355,202,781,2,0,P|363:239|351:269,1,56,8|0,0:1|0:2,0:0:0:0:
254,293,1114,2,0,P|283:309|297:353,1,56,2|0,0:0|0:0,0:0:0:0:
216,382,1448,5,8,0:0:0:0:
216,382,1614,1,2,0:2:0:0:
139,335,1781,2,0,L|145:273,1,56,0|0,0:0|0:0,0:0:0:0:
22,222,2114,6,0,B|25:255,2,28,8|8|8,0:2|0:2|0:2,0:0:0:0:
139,120,2448,2,0,L|133:182,1,56,2|0,0:0|0:0,0:0:0:0:
0,58,2781,6,0,L|117:42,1,112,8|0,0:0|0:0,0:0:0:0:
179,0,3281,2,0,L|296:16,1,112,4|0,0:0|0:0,0:0:0:0:
413,51,3781,6,0,P|371:85|367:155,1,112,2|0,0:2|0:0,0:0:0:0:
304,213,4281,1,2,0:2:0:0:
304,213,4448,2,0,P|323:243|365:258,1,56,4|0,0:0|0:0,0:0:0:0:
401,319,4781,1,8,0:1:0:0:
401,319,5114,1,2,0:2:0:0:
224,373,5448,5,4,0:0:0:0:
224,373,5614,1,0,0:0:0:0:
158,309,5781,2,0,P|124:292|95:291,1,56,0|2,0:0|0:2,0:0:0:0:
0,239,6114,2,0,P|27:234|51:220,1,56,8|2,0:1|0:2,0:0:0:0:
140,183,6448,2,0,P|149:156|149:128,1,56,4|2,0:0|0:2,0:0:0:0:
83,55,6781,5,0,0:0:0:0:
83,55,6948,1,2,0:2:0:0:
13,121,7114,2,0,L|17:183,1,56,2|2,0:2|0:2,0:0:0:0:
25,276,7448,1,8,0:1:0:0:
25,276,7781,1,2,0:0:0:0:
147,194,8114,6,0,B|208:185|200:237|267:225,1,112,8|2,0:0|0:2,0:0:0:0:
286,310,8614,2,0,B|347:319|339:267|406:279,1,112,8|2,0:0|0:2,0:0:0:0:
481,331,9114,2,0,P|437:295|426:223,1,112,4|0,0:0|0:0,0:0:0:0:
356,176,9614,1,2,0:2:0:0:
356,176,9781,2,0,P|375:146|417:131,1,56,4|4,1:3|1:3,0:0:0:0:
512,79,10114,6,0,L|442:72,1,56,8|8,1:0|1:3,0:0:0:0:
385,9,10448,2,0,L|315:16,1,56,2|2,0:2|0:2,0:0:0:0:
238,26,10781,1,2,2:0:0:0:
256,192,20107,12,0,21274,0:0:0:0:
34,159,21441,6,0,B|87:139|84:185|153:154,1,105,2|0,0:2|0:0,0:0:0:0:
147,158,21774,2,0,P|101:185|97:220,1,70,8|0,0:2|0:0,0:0:0:0:
199,363,22107,2,0,P|210:282|211:242,1,105,2|0,0:0|0:0,0:0:0:0:
210,250,22441,2,0,P|199:284|221:315,1,70,8|0,0:2|0:0,0:0:0:0:
324,371,22774,5,0,0:0:0:0:
324,371,22941,1,2,0:0:0:0:
420,355,23107,1,8,0:2:0:0:
481,278,23274,1,2,0:2:0:0:
457,182,23441,2,0,P|448:145|446:108,1,70,2|4,0:0|0:0,0:0:0:0:
309,28,23774,2,0,P|306:62|297:96,1,70,8|2,0:2|0:2,0:0:0:0:
35,83,24107,6,0,P|61:58|101:48,1,70,4|0,0:0|0:0,0:0:0:0:
273,167,24441,2,0,P|247:142|207:132,1,70,8|2,0:2|0:2,0:0:0:0:
24,239,24774,2,0,P|28:275|30:315,1,70,2|4,0:0|0:0,0:0:0:0:
198,275,25107,2,0,P|199:240|203:205,1,70,10|0,0:2|0:0,0:0:0:0:
39,201,25441,6,0,P|43:237|45:277,1,70,4|0,0:0|0:0,0:0:0:0:
27,370,25774,1,8,0:2:0:0:
27,370,25941,1,2,0:2:0:0:
219,372,26107,6,0,P|185:379|147:384,1,70,2|4,0:2|0:0,0:0:0:0:
241,253,26441,2,0,P|275:257|309:264,1,70,8|2,0:2|0:2,0:0:0:0:
463,356,26774,5,4,0:0:0:0:
409,280,26941,1,2,0:0:0:0:
512,186,27107,2,0,P|500:231|497:259,1,70,8|2,0:2|0:0,0:0:0:0:
306,100,27441,2,0,P|322:162|326:201,1,105,2|0,0:0|0:0,0:0:0:0:
324,219,27774,2,0,P|321:177|349:161,1,70,8|2,0:2|0:0,0:0:0:0:
479,115,28107,5,4,0:0:0:0:
479,115,28274,1,2,0:2:0:0:
411,43,28441,1,8,0:2:0:0:
315,62,28607,1,2,0:2:0:0:
265,146,28774,2,0,P|215:130|187:129,1,70,2|4,0:0|0:0,0:0:0:0:
399,234,29107,2,0,P|449:218|477:217,1,70,8|2,2:0|0:2,0:0:0:0:
306,311,29441,6,0,L|255:318,3,35,6|2|2|2,0:0|0:0|0:0|0:0,0:0:0:0:
183,384,29774,2,0,L|132:377,3,35,8|2|2|2,0:2|0:0|0:0|0:0,0:0:0:0:
34,328,30107,5,2,0:0:0:0:
34,328,30191,1,2,0:0:0:0:
34,328,30274,2,0,L|27:281,1,35,6|2,0:0|0:0,0:0:0:0:
169,184,30441,1,8,0:2:0:0:
169,184,30525,1,2,0:0:0:0:
169,184,30608,2,0,L|162:231,1,35,2|2,0:0|0:0,0:0:0:0:
37,88,30774,5,0,0:0:0:0:
37,88,31441,6,0,L|81:83,1,35,2|0,0:2|2:0,0:0:0:0:
176,160,31607,6,0,L|132:155,1,35,2|0,0:2|2:0,0:0:0:0:
40,71,31774,6,0,L|84:66,1,35,2|0,0:2|2:0,0:0:0:0:
179,143,31940,6,0,L|135:138,1,35,2|0,0:2|2:0,0:0:0:0:
242,3,32107,6,0,B|316:-3|298:67|392:43,1,146.999995513916,4|0,1:3|0:0,0:0:0:0:
388,37,32441,2,0,P|331:58|313:105,1,97.9999970092774,8|2,1:2|0:2,0:0:0:0:
418,302,32774,2,0,P|422:236|432:143,1,146.999995513916,2|0,0:0|0:0,0:0:0:0:
444,148,33107,2,0,P|436:179|419:195,1,48.9999985046387,8|0,1:2|0:0,0:0:0:0:
368,246,33274,2,0,P|337:254|314:247,1,48.9999985046387,2|0,3:2|0:0,0:0:0:0:
204,200,33441,5,4,1:3:0:0:
204,200,33607,1,0,0:0:0:0:
310,45,33774,1,8,1:2:0:0:
329,156,33941,1,4,1:3:0:0:
93,46,34107,2,0,P|120:42|189:19,1,97.9999970092774,2|0,0:0|0:0,0:0:0:0:
329,156,34441,2,0,P|302:152|233:129,1,97.9999970092774,8|0,1:2|0:0,0:0:0:0:
426,36,34774,6,0,B|398:89|449:109|429:117|476:139|446:193,1,146.999995513916,8|0,1:3|0:0,0:0:0:0:
442,190,35107,2,0,P|447:158|513:136,1,97.9999970092774,8|0,1:2|3:0,0:0:0:0:
403,329,35441,2,0,P|339:316|252:306,1,146.999995513916,2|0,3:0|0:0,0:0:0:0:
248,315,35774,2,0,P|302:296|298:249,1,97.9999970092774,8|0,1:2|0:0,0:0:0:0:
99,161,36107,2,0,P|112:196|126:263,1,97.9999970092774,8|0,1:3|0:0,0:0:0:0:
302,76,36441,5,8,1:2:0:0:
260,186,36607,1,8,1:3:0:0:
113,39,36774,2,0,P|159:24|208:17,1,97.9999970092774,0|8,0:0|1:2,0:0:0:0:
95,173,37107,2,0,P|48:159|0:152,1,97.9999970092774,0|0,1:0|0:0,0:0:0:0:
166,316,37441,6,0,P|241:293|320:282,1,146.999995513916,4|0,1:3|0:0,0:0:0:0:
323,287,37774,2,0,P|275:295|237:241,1,97.9999970092774,8|0,1:2|0:0,0:0:0:0:
262,42,38107,2,0,B|247:114|322:97|304:177,1,146.999995513916,2|0,0:0|0:0,0:0:0:0:
302,185,38441,2,0,P|285:162|284:140,1,48.9999985046387,8|0,1:2|0:0,0:0:0:0:
334,87,38607,2,0,P|345:60|363:48,1,48.9999985046387,2|0,0:0|0:0,0:0:0:0:
476,79,38774,5,4,1:3:0:0:
476,79,38941,1,0,0:0:0:0:
396,264,39107,1,8,1:2:0:0:
371,156,39274,1,4,1:3:0:0:
506,230,39441,2,0,P|491:277|486:326,1,97.9999970092774,2|0,0:0|0:0,0:0:0:0:
314,384,39774,2,0,P|309:335|294:289,1,97.9999970092774,8|0,1:2|0:0,0:0:0:0:
412,165,40107,5,8,1:3:0:0:
307,263,40274,1,0,0:0:0:0:
183,141,40441,2,0,P|239:128|286:109,1,97.9999970092774,8|0,1:2|0:0,0:0:0:0:
98,277,40774,2,0,P|42:264|-5:245,1,97.9999970092774,2|8,0:0|1:3,0:0:0:0:
211,384,41107,5,8,1:2:0:0:
312,321,41274,1,0,0:0:0:0:
178,198,41441,2,0,P|198:253|207:303,1,90.9999958343508,2|0,2:0|0:0,0:0:0:0:
298,115,41774,1,2,2:0:0:0:
189,76,41941,1,2,2:0:0:0:
357,213,42107,2,0,P|407:192|487:181,1,90.9999958343508
429,384,42441,6,0,P|412:355|392:343,1,48.9999985046387,0|0,0:0|2:0,0:0:0:0:
340,290,42607,2,0,P|307:289|286:301,1,48.9999985046387,0|0,0:0|2:0,0:0:0:0:
168,368,42774,6,0,P|124:318|36:295,1,157.500006008148,4|0,1:3|0:0,0:0:0:0:
14,313,43107,2,0,P|62:334|110:286,1,105.000004005432,8|0,1:2|0:0,0:0:0:0:
197,164,43441,6,0,P|285:179|365:238,1,157.500006008148,2|2,0:0|0:2,0:0:0:0:
351,224,43774,2,0,P|317:216|294:191,1,52.5000020027161,8|2,1:2|0:2,0:0:0:0:
286,130,43941,2,0,P|275:96|285:64,1,52.5000020027161,2|2,0:0|0:2,0:0:0:0:
401,0,44107,5,4,1:3:0:0:
401,0,44191,1,0,0:0:0:0:
401,0,44274,2,0,L|404:58,1,52.5000020027161,0|0,0:0|0:0,0:0:0:0:
429,206,44441,5,10,1:2:0:0:
502,147,44608,1,4,1:3:0:0:
512,320,44774,6,0,P|435:287|349:309,1,157.500006008148,2|0,0:0|0:0,0:0:0:0:
353,309,45107,2,0,P|401:287|385:225,1,105.000004005432,8|0,1:2|0:0,0:0:0:0:
302,141,45441,6,0,B|247:137|259:183|183:174,1,105.000004005432,8|2,1:3|0:2,0:0:0:0:
47,27,45774,2,0,B|102:23|90:69|166:60,1,105.000004005432,8|2,1:2|0:2,0:0:0:0:
15,326,46107,6,0,P|10:258|-4:215,1,105.000004005432,2|8,0:0|1:3,0:0:0:0:
198,159,46441,2,0,P|184:209|182:261,1,105.000004005432,8|2,1:2|0:2,0:0:0:0:
78,66,46774,5,8,1:3:0:0:
78,66,46857,1,0,0:0:0:0:
78,66,46941,2,0,L|134:61,1,52.5000020027161,0|0,0:0|0:0,0:0:0:0:
301,104,47107,5,8,1:2:0:0:
260,3,47274,1,8,1:3:0:0:
424,0,47441,6,0,P|388:59|384:100,1,105.000004005432,2|10,0:2|1:2,0:0:0:0:
512,226,47774,1,2,1:2:0:0:
477,114,47941,1,2,3:2:0:0:
407,255,48107,6,0,B|318:242|335:316|244:292,1,157.500006008148,4|0,1:3|0:0,0:0:0:0:
253,285,48441,2,0,P|297:316|271:376,1,105.000004005432,8|2,1:2|0:2,0:0:0:0:
49,384,48774,2,0,P|70:317|69:222,1,157.500006008148,2|2,0:2|0:2,0:0:0:0:
63,218,49107,2,0,P|70:250|100:274,1,52.5000020027161,8|2,1:2|0:2,0:0:0:0:
122,332,49274,2,0,P|153:341|189:327,1,52.5000020027161,2|2,0:0|0:2,0:0:0:0:
275,265,49441,5,4,1:3:0:0:
275,265,49524,1,0,0:0:0:0:
275,265,49607,2,0,L|272:199,1,52.5000020027161,0|0,0:0|0:0,0:0:0:0:
129,49,49774,5,10,1:2:0:0:
191,150,49940,1,4,1:3:0:0:
271,0,50107,6,0,P|374:23|404:70,1,157.500006008148,2|0,0:0|0:0,0:0:0:0:
401,80,50441,2,0,P|352:45|376:-4,1,105.000004005432,8|0,1:2|0:0,0:0:0:0:
511,121,50774,6,0,B|522:173|480:188|498:240,1,105.000004005432,8|2,1:3|0:2,0:0:0:0:
295,309,51107,2,0,B|306:257|264:242|282:190,1,105.000004005432,8|2,1:2|0:2,0:0:0:0:
503,324,51441,6,0,P|446:335|391:356,1,105.000004005432,2|8,0:2|1:3,0:0:0:0:
273,125,51774,2,0,P|322:142|374:151,1,105.000004005432,8|2,1:2|0:2,0:0:0:0:
219,11,52107,6,0,P|160:41|16:80,1,210.000008010865,4|0,1:3|0:0,0:0:0:0:
42,172,52607,2,0,P|144:148|238:103,1,210.000008010865,4|0,1:3|0:0,0:0:0:0:
320,38,53107,1,2,2:0:0:0:
320,38,53274,1,2,2:0:0:0:
449,78,53441,6,0,B|505:163|419:201|433:175|343:248|420:324,1,251.999992309571,4|2,1:2|0:2,0:0:0:0:
496,261,54107,1,8,1:2:0:0:
367,124,54274,2,0,P|307:142|195:171,1,167.999994873047,4|2,1:3|0:2,0:0:0:0:
119,238,54774,6,0,P|164:207|156:94,1,167.999994873047,8|0,1:3|0:0,0:0:0:0:
69,70,55274,2,0,P|24:101|32:214,1,167.999994873047,4|0,1:3|0:0,0:0:0:0:
150,269,55774,2,0,P|109:280|71:297,1,83.9999974365235,4|2,1:3|0:2,0:0:0:0:
189,372,56107,6,0,B|329:382|266:252|431:278,1,251.999992309571,8|2,1:3|0:2,0:0:0:0:
390,369,56774,1,8,1:2:0:0:
220,271,56941,2,0,P|232:207|253:98,1,167.999994873047,8|8,1:3|1:2,0:0:0:0:
353,121,57441,6,0,P|305:186|212:195,1,167.999994873047,8|0,1:3|0:0,0:0:0:0:
247,314,57941,2,0,P|166:304|112:228,1,167.999994873047,8|0,1:3|0:0,0:0:0:0:
32,155,58441,1,2,0:2:0:0:
32,155,58607,1,0,0:0:0:0:
131,52,58774,6,0,B|273:15|196:142|388:91,1,251.999992309571,4|2,1:3|0:2,0:0:0:0:
315,8,59441,1,8,1:2:0:0:
169,134,59607,2,0,P|184:214|195:303,1,167.999994873047,4|2,1:3|0:2,0:0:0:0:
330,384,60107,6,0,P|389:363|483:302,1,167.999994873047,8|0,1:3|0:0,0:0:0:0:
438,226,60607,2,0,P|368:272|290:303,1,167.999994873047,4|0,1:3|0:0,0:0:0:0:
304,201,61107,2,0,P|322:241|334:292,1,83.9999974365235,4|2,1:3|0:2,0:0:0:0:
148,228,61441,6,0,P|169:167|198:46,1,167.999994873047,8|2,1:3|0:2,0:0:0:0:
100,1,61941,1,2,0:2:0:0:
100,1,62107,1,8,1:2:0:0:
4,145,62274,6,0,B|97:121|82:192|168:177,1,167.999994873047,8|2,1:3|1:3,0:0:0:0:
319,253,62774,2,0,B|226:229|241:300|155:285,1,167.999994873047,8|0,1:3|0:0,0:0:0:0:
171,384,63274,2,0,P|89:358|125:200,1,251.999992309571,8|2,1:3|0:2,0:0:0:0:
231,165,63941,1,2,0:2:0:0:
163,58,64107,6,0,B|88:38|99:98|21:72,1,136.499993751526,4|0,1:3|0:0,0:0:0:0:
25,68,64441,2,0,P|62:75|79:138,1,90.9999958343508,2|2,0:2|0:2,0:0:0:0:
26,237,64774,5,8,1:2:0:0:
123,317,64941,2,0,B|227:330|187:228|312:262,1,181.999991668702,4|2,1:3|0:2,0:0:0:0:
372,361,65441,5,8,1:3:0:0:
372,361,65524,1,0,0:0:0:0:
372,361,65607,2,0,L|377:301,1,45.4999979171754,0|0,0:0|0:0,0:0:0:0:
417,175,65774,5,2,0:2:0:0:
489,241,65940,1,4,1:3:0:0:
458,73,66107,6,0,P|384:87|297:111,1,136.499993751526,2|0,1:3|0:0,0:0:0:0:
317,111,66441,2,0,P|351:96|327:32,1,90.9999958343508,4|0,1:3|0:0,0:0:0:0:
173,0,66774,6,0,P|190:51|211:197,1,181.999991668702,8|2,1:3|0:2,0:0:0:0:
149,302,67274,1,2,0:2:0:0:
25,207,67441,6,0,B|69:176|82:215|137:171,1,90.9999958343508,8|8,1:2|1:3,0:0:0:0:
283,334,67774,2,0,B|238:303|225:342|170:298,1,90.9999958343508,2|8,0:2|1:2,0:0:0:0:
364,171,68107,5,8,1:3:0:0:
364,171,68191,1,0,0:0:0:0:
364,171,68274,2,0,L|369:223,1,45.4999979171754,0|0,0:0|0:0,0:0:0:0:
195,353,68441,5,0,0:0:0:0:
284,283,68608,1,8,1:3:0:0:
164,210,68774,6,0,B|90:188|102:250|32:233,1,136.499993751526,2|0,1:3|0:0,0:0:0:0:
25,227,69107,2,0,P|67:239|77:291,1,90.9999958343508,2|2,0:2|0:2,0:0:0:0:
192,383,69441,6,0,B|264:398|251:338|321:348,1,136.499993751526,4|0,1:3|0:0,0:0:0:0:
334,358,69774,2,0,P|298:347|285:275,1,90.9999958343508,0|2,0:0|0:2,0:0:0:0:
424,205,70107,5,8,1:2:0:0:
358,79,70274,2,0,P|288:100|164:131,1,181.999991668702,4|2,1:3|0:2,0:0:0:0:
28,42,70774,5,8,1:3:0:0:
28,42,70857,1,0,0:0:0:0:
28,42,70941,2,0,L|32:95,1,45.4999979171754,0|0,0:0|0:0,0:0:0:0:
102,260,71107,5,0,0:0:0:0:
22,205,71274,1,4,1:3:0:0:
0,375,71441,6,0,P|72:352|162:349,1,136.499993751526,2|0,1:3|0:0,0:0:0:0:
142,353,71774,2,0,P|92:355|79:298,1,90.9999958343508,4|2,1:3|0:2,0:0:0:0:
247,153,72107,6,0,P|231:203|217:288,1,136.499993751526,8|0,1:3|0:0,0:0:0:0:
218,297,72441,2,0,P|234:247|204:222,1,90.9999958343508,2|2,0:2|0:2,0:0:0:0:
23,119,72774,6,0,P|34:157|45:218,1,90.9999958343508,8|8,1:2|1:3,0:0:0:0:
159,42,73107,1,0,0:0:0:0:
52,0,73274,1,8,1:2:0:0:
177,131,73441,6,0,B|239:199|278:102|367:188,1,181.999991668702,8|0,1:3|0:0,0:0:0:0:
512,243,73941,2,0,B|449:311|411:215|322:300,1,181.999991668702,8|0,1:3|0:0,0:0:0:0:
268,358,74441,1,2,0:2:0:0:
268,358,74607,1,2,0:2:0:0:
192,321,74774,5,2,2:0:0:0:
