osu file format v14

[General]
AudioFilename: audio.mp3
AudioLeadIn: 0
PreviewTime: 35265
Countdown: 0
SampleSet: Soft
StackLeniency: 0.4
Mode: 0
LetterboxInBreaks: 0
WidescreenStoryboard: 0

[Editor]
Bookmarks: 9765,22565,35365,48165,64165,86565,99365,112165,126565,137765,150565
DistanceSpacing: 0.8
BeatDivisor: 4
GridSize: 32
TimelineZoom: 2.599999

[Metadata]
Title:Butterfly Bankai
TitleUnicode:Butterfly Bankai
Artist:SEBii
ArtistUnicode:SEBii
Creator:wafer
Version:Insane
Source:
Tags:featured artist fa mpg mappers' guild hyperpop hyper pop hip-hop hip hop english kami no kotoba goopert chompy ginseng
BeatmapID:3211500
BeatmapSetID:1572863

[Difficulty]
HPDrainRate:5
CircleSize:4
OverallDifficulty:8
ApproachRate:8.6
SliderMultiplier:1.4
SliderTickRate:1

[Events]
//Background and Video events
0,0,"xuan-nguyen-l0IPVqjNWNo-unsplash.jpg",0,0
//Break Periods
2,9765,21906
2,86765,92306
2,121165,124306
//Storyboard Layer 0 (Background)
//Storyboard Layer 1 (Fail)
//Storyboard Layer 2 (Pass)
//Storyboard Layer 3 (Foreground)
//Storyboard Layer 4 (Overlay)
//Storyboard Sound Samples

[TimingPoints]
165,600,4,2,1,40,1,0
8865,-100,4,2,1,38,0,0
9015,-100,4,2,1,35,0,0
9765,400,4,2,1,50,1,0
22565,-100,4,2,1,60,0,0
22965,-80,4,2,1,60,0,0
29765,-100,4,2,1,60,0,0
30965,-80,4,2,1,60,0,0
31365,-100,4,2,1,60,0,0
31765,-71.4285714285714,4,2,1,60,0,0
32565,-80,4,2,1,60,0,0
35365,-68.9655172413793,4,2,1,70,0,0
38565,-83.3333333333333,4,2,1,40,0,0
39365,-60.6060606060606,4,2,1,70,0,0
41765,-68.9655172413793,4,2,1,70,0,0
43365,-100,4,2,1,70,0,0
43765,-68.9655172413793,4,2,1,70,0,0
48165,-133.333333333333,4,2,1,45,0,0
48231,-133.333333333333,4,2,1,35,0,0
51365,-100,4,2,1,50,0,0
62965,-100,4,2,1,30,0,0
63965,-100,4,2,1,40,0,0
64165,-83.3333333333333,4,2,1,50,0,0
70165,-133.333333333333,4,2,1,50,0,0
70565,-83.3333333333333,4,2,1,50,0,0
86565,-83.3333333333333,4,2,1,45,0,0
92965,-133.333333333333,4,2,1,45,0,0
99365,-200,4,2,1,40,0,0
112165,-100,4,2,1,60,0,0
112565,-80,4,2,1,60,0,0
119365,-100,4,2,1,60,0,0
120565,-80,4,2,1,60,0,0
121065,-80,4,2,1,30,0,0
121365,-71.4285714285714,4,2,1,30,0,0
122165,-80,4,2,1,30,0,0
124965,-133.333333333333,4,2,1,30,0,0
126565,-133.333333333333,4,2,1,35,0,0
137765,-200,4,2,1,30,0,0
150565,-200,4,2,1,5,0,0

[Colours]
Combo1 : 166,185,162
Combo2 : 185,164,173
Combo3 : 122,124,136
Combo4 : 119,87,127

[HitObjects]
44,66,165,6,0,L|36:37,3,23.3333333333333,2|2|2|2,0:3|0:3|0:3|0:3,0:0:0:0:
100,115,765,2,0,L|91:185,1,70,2|2,0:3|3:3,0:0:0:0:
113,194,1115,2,0,L|124:191,2,11.6666666666667,2|2|2,0:3|0:3|0:3,0:3:0:0:
7,322,1365,6,0,P|29:283|124:279,1,140,8|2,0:2|3:3,0:0:0:0:
194,337,2115,2,0,P|176:328|153:333,1,35,0|8,0:0|0:2,0:0:0:0:
246,279,2565,6,0,P|243:244|239:209,2,70,2|8|2,0:3|0:2|0:3,0:0:0:0:
309,328,3465,2,0,L|331:332,3,11.6666666666667,2|2|2|0,0:3|0:3|0:3|0:0,0:0:0:0:
455,278,3765,6,0,P|420:282|385:284,1,70,8|2,0:2|0:3,0:0:0:0:
385,284,4365,1,8,0:2:0:0:
409,211,4515,1,8,0:2:0:0:
430,135,4665,1,8,0:2:0:0:
509,50,4965,6,0,L|518:12,2,35,2|2|2,3:3|0:3|0:3,0:0:0:0:
437,60,5565,2,0,L|367:69,1,70,2|2,0:3|3:3,0:0:0:0:
271,149,6165,1,8,0:2:0:0:
271,149,6315,1,2,0:3:0:0:
205,110,6765,6,0,L|200:83,3,23.3333333333333,2|2|2|2,3:3|0:3|0:3|0:3,0:0:0:0:
154,170,7365,6,0,P|121:180|102:208,1,70,2|8,0:3|0:2,0:0:0:0:
40,253,7965,6,0,L|45:265,2,11.6666666666667,2|2|2,0:3|0:3|0:3,0:0:0:0:
89,349,8265,6,0,L|84:361,2,11.6666666666667,2|2|2,0:3|0:3|0:3,0:0:0:0:
168,250,8565,5,8,3:2:0:0:
38,161,8865,1,2,0:3:0:0:
38,161,9015,1,8,0:2:0:0:
470,58,22565,6,0,L|476:24,3,23.3333333333333,6|2|2|2,3:3|0:3|0:3|0:3,0:0:0:0:
371,95,22965,2,0,L|414:107,1,43.75,2|2,0:2|0:2,0:0:0:0:
468,185,23165,2,0,L|465:164,2,21.875,2|2|2,3:3|0:3|0:3,0:0:0:0:
485,294,23365,6,0,P|458:237|377:235,1,131.25,10|0,0:0|0:0,0:0:0:0:
261,314,23765,1,2,3:2:0:0:
271,306,23865,2,0,P|242:301|221:276,1,43.75,2|8,0:0|0:0,0:0:0:0:
50,332,24165,6,0,P|107:315|118:262,1,87.5,2|10,0:2|0:2,0:0:0:0:
162,226,24565,1,2,0:2:0:0:
118,161,24765,2,0,L|124:136,2,21.875,2|2|2,0:3|0:3|0:3,0:0:0:0:
182,346,24965,5,10,0:0:0:0:
182,346,25365,1,8,0:0:0:0:
204,351,25465,1,8,0:0:0:0:
216,367,25565,1,8,0:0:0:0:
54,257,25765,6,0,P|46:231|26:199,2,43.75,2|0|2,3:2|0:0|0:3,0:0:0:0:
196,156,26165,2,0,P|200:134|207:113,1,43.75,2|0,0:0|0:0,0:0:0:0:
206,113,26365,1,2,3:3:0:0:
101,85,26565,6,0,P|128:80|154:68,1,43.75,10|2,0:0|0:0,0:0:0:0:
173,3,26765,1,0,0:0:0:0:
51,140,26965,6,0,P|38:133|6:127,3,29.1666666666667,2|2|2|2,3:3|0:3|0:3|0:3,0:0:0:0:
182,225,27365,6,0,P|214:199|279:191,1,87.5,2|10,0:2|0:2,0:0:0:0:
337,137,27765,2,0,L|342:107,2,21.875,2|2|2,0:3|0:3|0:3,0:0:0:0:
411,206,27965,2,0,L|416:236,2,21.875,2|2|2,0:3|0:3|0:3,0:0:0:0:
263,116,28165,5,10,0:2:0:0:
490,189,28365,1,0,3:0:0:0:
490,189,28565,5,2,0:2:0:0:
485,167,28665,1,8,0:2:0:0:
469,155,28765,1,8,0:2:0:0:
250,266,28965,6,0,B|202:244|146:301|192:289|153:354|93:322,1,175,2|2,3:3|0:0,0:0:0:0:
44,283,29465,1,2,0:0:0:0:
44,283,29565,2,0,L|16:277,2,21.875,2|2|2,3:3|0:3|0:3,0:0:0:0:
162,108,29765,6,0,P|199:225|242:390,1,280,8|2,0:0|0:3,0:0:0:0:
298,238,30765,2,0,P|292:258|289:272,1,35,8|0,0:2|0:0,0:0:0:0:
348,319,30965,6,0,B|381:305|422:347|389:338|417:386|461:362,1,131.25,2|2,0:2|0:3,0:0:0:0:
488,296,31365,6,0,P|482:206|317:121,1,280,10|2,0:0|3:3,0:0:0:0:
263,159,32265,1,2,0:3:0:0:
263,159,32365,1,2,0:3:0:0:
86,73,32565,6,0,P|54:93|49:115,1,43.75,2|2,0:2|0:2,0:0:0:0:
122,136,32765,1,2,3:2:0:0:
6,237,32965,6,0,P|50:209|53:157,1,87.5,10|2,0:0|0:0,0:0:0:0:
163,43,33365,2,0,L|158:72,2,29.1666666666667,2|2|2,3:2|0:3|0:3,0:0:0:0:
228,4,33565,1,8,0:0:0:0:
272,101,33765,6,0,P|240:81|235:53,1,43.75,2|2,0:2|0:2,0:0:0:0:
237,76,33965,1,10,0:2:0:0:
354,148,34165,2,0,L|359:178,2,21.875,2|2|2,0:3|0:3|0:3,0:0:0:0:
417,76,34365,2,0,L|422:46,2,21.875,2|2|2,0:3|0:3|0:3,0:0:0:0:
275,178,34565,5,10,0:0:0:0:
499,34,34765,5,2,3:2:0:0:
431,157,34965,5,2,0:2:0:0:
107,116,35365,6,0,P|29:140|10:214,1,152.250004646301,6|0,3:2|0:0,0:0:0:0:
71,307,35765,2,0,P|65:282|57:258,1,50.7500015487671,2|2,0:3|0:2,0:0:0:0:
138,356,35965,2,0,P|142:336|148:316,2,25.3750007743836,2|2|2,3:3|0:3|0:3,0:0:0:0:
268,296,36165,6,0,P|189:272|170:197,1,152.250004646301,10|0,0:0|0:0,0:0:0:0:
216,152,36565,1,2,3:2:0:0:
324,379,36765,2,0,P|332:337|338:321,1,50.7500015487671,10|0,0:2|0:0,0:0:0:0:
388,271,36965,5,2,0:2:0:0:
490,198,37165,1,10,0:2:0:0:
393,100,37365,6,0,P|400:124|403:149,1,50.7500015487671,2|0,0:2|0:0,0:0:0:0:
478,328,37565,2,0,P|482:308|488:288,2,25.3750007743836,2|2|2,0:3|0:3|0:3,0:0:0:0:
247,222,37765,5,10,3:2:0:0:
478,114,38165,6,0,L|492:62,1,50.7500015487671,8|0,3:2|0:0,0:0:0:0:
491,64,38565,1,2,0:3:0:0:
191,278,39365,6,0,P|104:297|35:350,1,173.250001652241,2|0,3:1|0:0,0:0:0:0:
254,200,39765,6,0,P|167:180|98:127,1,173.250001652241,2|0,3:1|0:0,0:0:0:0:
254,329,40165,6,0,P|304:300|361:291,1,115.500001101494,2|8,3:1|0:0,0:0:0:0:
405,209,40565,6,0,P|314:152|317:36,1,231.000002202988,2|10,3:1|3:2,0:0:0:0:
315,38,41065,1,2,0:3:0:0:
512,0,41365,5,0,0:0:0:0:
230,131,41765,6,0,B|186:114|140:161|170:161|140:198|80:184,1,152.250004646301,4|0,3:2|0:0,0:0:0:0:
34,150,42165,2,0,P|28:125|20:101,1,50.7500015487671,2|2,0:3|0:2,0:0:0:0:
30,255,42365,2,0,P|34:235|40:215,2,25.3750007743836,2|2|2,3:3|0:3|0:3,0:0:0:0:
110,110,42565,6,0,B|157:109|184:168|156:158|171:203|232:211,1,152.250004646301,10|0,0:0|0:0,0:0:0:0:
287,178,42965,1,0,3:3:0:0:
416,203,43165,2,0,P|470:222|485:226,1,50.7500015487671,2|0,0:3|0:0,0:0:0:0:
463,104,43365,6,0,P|383:131|361:137,1,105,2|0,0:2|0:0,0:0:0:0:
206,12,43765,6,0,P|226:82|296:103,1,152.250004646301,2|2,0:3|0:3,0:0:0:0:
180,141,44165,6,0,P|85:178|4:238,2,203.000006195069,8|2|2,3:2|0:0|3:2,0:0:0:0:
252,186,45065,1,2,0:3:0:0:
252,186,45165,1,2,0:3:0:0:
154,254,45365,6,0,P|174:222|196:217,1,50.7500015487671,2|0,0:3|0:0,0:0:0:0:
250,105,45565,1,2,3:2:0:0:
298,334,45765,6,0,P|254:306|251:254,1,101.500003097534,10|2,0:2|0:2,0:0:0:0:
315,143,46165,2,0,L|349:137,2,33.8333343658448,2|2|2,3:3|0:3|0:3,0:0:0:0:
250,105,46365,1,2,0:3:0:0:
358,249,46565,6,0,P|326:229|321:201,1,50.7500015487671,2|0,0:0|0:0,0:0:0:0:
321,218,46765,1,8,3:2:0:0:
386,77,46965,2,0,L|391:47,2,25.3750007743836,2|2|2,0:3|0:3|0:3,0:0:0:0:
464,65,47165,2,0,L|460:91,2,25.3750007743836,2|2|2,0:3|0:3|0:3,0:0:0:0:
315,143,47365,5,2,3:2:0:0:
159,164,47565,5,2,3:2:0:0:
89,287,47765,5,2,0:0:0:0:
89,287,48165,6,0,L|36:280,3,52.5000020027161
56,282,50565,5,8,0:0:0:0:
56,282,50765,1,2,0:3:0:0:
145,239,50965,6,0,L|138:188,1,52.5,2|0,0:2|0:0,0:0:0:0:
14,158,51365,5,6,3:2:0:0:
14,158,51465,1,2,0:3:0:0:
14,158,51565,2,0,B|66:147|66:147|90:122|90:122|161:105,1,140,2|0,0:3|3:2,0:0:0:0:
225,142,52165,1,10,0:0:0:0:
310,174,52365,1,2,0:2:0:0:
397,198,52565,2,0,L|406:177,3,23.3333333333333,2|2|2|2,3:3|0:3|0:3|0:3,0:0:0:0:
441,308,52965,6,0,P|410:252|331:246,1,140,2|2,0:2|0:3,0:0:0:0:
264,293,53565,2,0,L|239:285,2,17.5,2|2|2,0:3|0:3|0:3,0:0:0:0:
198,358,53765,6,0,L|158:370,1,35,10|2,0:0|0:3,0:0:0:0:
125,304,53965,2,0,L|165:291,1,35,0|0,3:3|0:0,0:0:0:0:
198,230,54165,2,0,P|202:204|223:115,1,105,2|0,0:3|0:0,0:0:0:0:
122,47,54565,6,0,P|59:67|45:133,1,140,2|2,3:2|0:2,0:0:0:0:
45,133,55165,1,2,3:2:0:0:
99,195,55365,6,0,P|128:187|144:182,1,35,10|0,0:2|0:0,0:0:0:0:
198,230,55565,1,2,0:2:0:0:
289,99,55765,6,0,P|318:107|334:112,1,35,2|0,3:2|0:0,0:0:0:0:
322,108,55965,1,2,0:3:0:0:
433,169,56165,6,0,P|340:194|289:210,1,140,2|2,0:2|0:2,0:0:0:0:
220,279,56765,2,0,L|195:271,2,17.5,2|2|2,0:3|0:3|0:3,0:0:0:0:
273,384,56965,2,0,P|286:325|304:255,1,105,10|0,0:2|0:0,0:0:0:0:
366,246,57365,1,2,0:2:0:0:
366,246,57465,1,0,0:0:0:0:
200,125,57765,6,0,B|152:100|90:173|135:158|97:249|3:200,1,210,2|0,3:2|3:2,0:0:0:0:
101,68,58565,5,10,0:0:0:0:
139,207,58765,1,2,0:2:0:0:
160,341,58965,2,0,L|151:362,3,23.3333333333333,2|2|2|2,3:3|0:3|0:3|0:3,0:0:0:0:
29,210,59365,6,0,B|68:173|147:227|100:225|160:303|238:231,1,210,2|2,0:2|0:3,0:0:0:0:
354,178,60165,2,0,P|340:212|335:226,1,35,10|0,0:0|0:0,0:0:0:0:
443,273,60365,2,0,P|429:239|420:195,1,70,0|2,3:3|0:3,0:0:0:0:
460,142,60765,1,0,0:0:0:0:
363,283,60965,6,0,P|300:298|278:320,1,70,2|0,3:2|0:0,0:0:0:0:
133,335,61365,2,0,P|165:351|200:352,1,70,2|2,0:2|3:2,0:0:0:0:
78,238,61765,6,0,P|85:222|91:205,1,35,10|0,0:2|0:0,0:0:0:0:
52,142,61965,1,2,0:2:0:0:
133,335,62165,6,0,P|165:351|200:352,1,70,2|2,3:2|0:3,0:0:0:0:
363,283,62566,2,0,P|328:284|296:300,1,70,2|2,0:2|0:3,0:0:0:0:
433,238,62965,6,0,P|426:222|421:205,1,35,2|0,0:2|0:0,0:0:0:0:
460,142,63165,1,0,0:0:0:0:
363,283,63365,6,0,P|328:284|296:300,1,70,2|0,0:2|0:0,0:0:0:0:
200,352,63766,2,0,P|165:351|133:335,1,70,2|0,0:2|3:2,0:0:0:0:
275,207,64165,6,0,P|255:226|252:262,1,41.9999987182618,4|0,3:2|0:0,0:0:0:0:
297,299,64365,1,2,0:0:0:0:
140,211,64565,6,0,P|171:238|182:278,1,83.9999974365235,2|0,0:2|3:2,0:0:0:0:
293,126,64965,6,0,P|258:130|241:145,1,41.9999987182618,8|0,0:0|0:0,0:0:0:0:
252,133,65165,1,2,0:0:0:0:
71,182,65365,6,0,L|35:173,3,27.9999991455078,2|2|2|2,3:3|0:3|0:3|0:3,0:0:0:0:
276,43,65765,6,0,P|351:75|372:173,1,167.999994873047,2|2,0:2|0:3,0:0:0:0:
320,203,66565,1,2,0:2:0:0:
65,23,66965,6,0,L|29:37,1,20.9999993591309,2|0,3:1|0:0,0:0:0:0:
200,99,67365,6,0,L|122:67,1,83.9999974365235,2|2,3:2|0:0,0:0:0:0:
259,145,67765,2,0,L|302:127,1,41.9999987182618,2|0,0:2|0:0,0:0:0:0:
367,51,67965,2,0,L|376:15,2,20.9999993591309,2|2|2,3:3|0:3|0:3,0:0:0:0:
436,87,68165,5,8,0:0:0:0:
290,54,68365,1,2,0:0:0:0:
488,137,68565,6,0,L|497:182,1,41.9999987182618,2|0,3:2|0:0,0:0:0:0:
466,249,68765,1,2,0:3:0:0:
315,217,68965,6,0,P|392:242|424:317,1,167.999994873047,2|2,0:2|0:2,0:0:0:0:
424,317,69765,1,2,0:2:0:0:
273,280,70165,6,0,P|268:256|247:191,1,91.8750035047532
178,172,70565,6,0,P|185:145|201:137,1,41.9999987182618,0|0,3:2|0:0,0:0:0:0:
306,141,70765,1,2,0:0:0:0:
114,208,70965,6,0,P|87:201|79:185,1,41.9999987182618,2|0,0:2|0:0,0:0:0:0:
84,118,71165,1,0,3:2:0:0:
185,261,71365,6,0,P|110:270|79:361,1,167.999994873047,8|2,0:0|3:3,0:0:0:0:
153,368,71831,2,0,P|186:358|204:358,2,27.9999991455078,2|2|2,0:3|0:3|0:3,0:0:0:0:
375,286,72165,6,0,P|433:303|466:303,1,83.9999974365235,2|0,0:2|0:0,0:0:0:0:
486,147,72565,2,0,L|477:127,2,20.9999993591309,2|2|2,0:3|0:3|0:3,0:0:0:0:
411,158,72765,2,0,L|419:177,2,20.9999993591309,2|2|2,0:3|0:3|0:3,0:0:0:0:
345,123,72965,1,2,0:2:0:0:
345,123,73365,6,0,P|296:147|235:90,1,146.999995513916
188,22,73765,6,0,P|131:49|68:54,1,125.999996154785,6|0,3:2|0:0,0:0:0:0:
6,132,74165,1,2,0:0:0:0:
172,189,74365,1,2,3:2:0:0:
81,253,74565,1,10,0:2:0:0:
197,302,74765,1,2,0:0:0:0:
128,358,74965,1,2,3:2:0:0:
128,358,75165,1,8,0:0:0:0:
237,234,75365,6,0,L|276:227,1,20.9999993591309,2|0,0:0|0:0,0:0:0:0:
95,176,75765,6,0,L|48:167,1,41.9999987182618,2|0,0:0|0:0,0:0:0:0:
8,109,75965,2,0,L|0:89,2,20.9999993591309,2|2|2,0:3|0:3|0:3,0:0:0:0:
107,252,76165,6,0,P|141:241|162:238,1,41.9999987182618,10|0,0:0|0:0,0:0:0:0:
197,302,76365,1,2,0:0:0:0:
351,210,76565,1,8,0:0:0:0:
351,210,76665,1,8,0:0:0:0:
351,210,76765,2,0,P|342:248|317:268,1,41.9999987182618,8|0,0:0|0:0,0:0:0:0:
254,379,76965,6,0,P|310:352|373:347,1,125.999996154785,2|0,3:2|0:0,0:0:0:0:
436,269,77365,1,2,0:0:0:0:
270,212,77565,1,2,3:2:0:0:
349,125,77765,1,10,0:2:0:0:
245,99,77965,1,2,0:0:0:0:
314,43,78165,1,2,3:2:0:0:
314,43,78365,1,2,0:2:0:0:
196,161,78565,6,0,P|154:167|113:177,1,83.9999974365235,2|8,0:0|3:2,0:0:0:0:
8,109,78965,2,0,L|0:89,2,20.9999993591309,2|2|2,0:0|0:3|0:3,0:0:0:0:
76,82,79165,2,0,L|67:62,2,20.9999993591309,2|2|2,0:3|0:3|0:3,0:0:0:0:
149,95,79365,5,10,0:0:0:0:
48,222,79565,1,10,0:0:0:0:
271,146,79765,5,2,0:0:0:0:
266,124,79865,1,8,0:0:0:0:
250,112,79965,1,8,0:0:0:0:
90,161,80165,6,0,P|168:180|266:249,1,167.999994873047,6|2,3:2|0:0,0:0:0:0:
371,311,80765,2,0,P|384:304|399:298,2,20.9999993591309,2|2|2,3:3|0:3|0:3,0:0:0:0:
289,364,80965,6,0,P|297:316|295:298,1,41.9999987182618,10|0,0:2|0:0,0:0:0:0:
318,253,81165,1,10,0:0:0:0:
151,296,81365,6,0,P|143:248|145:230,1,41.9999987182618,2|0,3:2|0:0,0:0:0:0:
142,255,81565,1,2,0:0:0:0:
369,180,81765,6,0,P|388:216|426:232,1,83.9999974365235,2|8,0:0|0:0,0:0:0:0:
496,195,82165,1,2,0:0:0:0:
462,123,82365,2,0,L|476:93,2,20.9999993591309,2|2|2,0:3|0:3|0:3,0:0:0:0:
301,154,82565,6,0,P|253:162|235:160,1,41.9999987182618,10|0,0:0|0:0,0:0:0:0:
190,128,82765,1,2,0:0:0:0:
82,164,82965,6,0,P|34:156|16:158,1,41.9999987182618,8|0,0:0|0:0,0:0:0:0:
40,155,83165,1,2,0:0:0:0:
90,352,83365,6,0,P|109:274|178:176,1,167.999994873047,2|2,3:2|0:0,0:0:0:0:
256,87,83965,1,2,3:2:0:0:
119,46,84165,6,0,P|127:94|125:112,1,41.9999987182618,10|0,0:2|0:0,0:0:0:0:
190,128,84365,1,2,0:0:0:0:
231,243,84565,6,0,P|226:231|228:210,2,27.9999991455078,2|2|2,3:2|0:3|0:3,0:0:0:0:
301,283,84765,1,10,0:2:0:0:
166,357,84965,6,0,P|211:323|250:321,1,83.9999974365235,2|8,0:0|3:2,0:0:0:0:
450,213,85365,2,0,L|469:221,2,20.9999993591309,2|2|2,0:0|0:3|0:3,0:0:0:0:
498,153,85565,2,0,L|478:144,2,20.9999993591309,2|2|2,0:3|0:3|0:3,0:0:0:0:
436,78,85765,5,8,3:2:0:0:
505,289,85965,1,0,3:2:0:0:
505,289,86165,5,2,0:0:0:0:
439,335,86365,1,0,0:0:0:0:
256,192,86565,5,2,0:0:0:0:
256,192,92965,6,0,L|249:169,3,17.500000667572,2|2|2|2,0:3|0:3|0:3|0:3,0:0:0:0:
285,266,93365,1,2,0:3:0:0:
201,266,93565,6,0,L|208:243,2,13.125000500679,2|2|2,0:3|0:3|0:3,0:0:0:0:
172,340,93765,1,8,0:2:0:0:
172,340,93965,1,2,0:3:0:0:
105,298,94165,1,2,0:3:0:0:
33,327,94365,1,8,0:2:0:0:
246,328,94565,6,0,P|255:360|263:384,2,52.5000020027161,2|8|2,0:3|0:2|0:3,0:0:0:0:
204,253,95165,2,0,L|199:271,2,13.125000500679,2|2|2,0:3|0:3|0:3,0:0:0:0:
250,188,95365,1,8,0:2:0:0:
33,149,95765,5,8,0:2:0:0:
49,145,95865,1,8,0:2:0:0:
57,134,95965,1,8,0:2:0:0:
105,33,96165,6,0,L|97:7,2,26.2500010013581,2|2|2,0:3|0:3|0:3,0:0:0:0:
174,67,96565,1,0,0:3:0:0:
174,67,97365,6,0,L|168:85,3,17.500000667572,2|2|2|2,0:3|0:3|0:3|0:3,0:0:0:0:
221,9,97765,1,2,0:3:0:0:
338,67,98165,1,2,0:3:0:0:
338,67,98565,5,8,0:2:0:0:
252,131,98765,1,8,0:2:0:0:
338,67,99065,1,8,0:2:0:0:
348,64,99165,1,8,0:2:0:0:
176,151,99365,6,0,P|142:141|107:138,2,70,2|2|10,3:2|0:2|0:2,0:0:0:0:
240,192,100565,1,2,3:2:0:0:
315,167,100965,1,2,0:2:0:0:
358,93,101365,1,2,0:2:0:0:
305,13,101765,1,10,0:2:0:0:
305,13,102165,2,0,L|310:29,2,17.5,10|8|8,0:2|0:2|0:2,0:0:0:0:
370,161,102565,6,0,P|360:127|357:92,2,70,2|2|10,3:2|0:2|0:2,0:0:0:0:
410,225,103765,1,2,3:2:0:0:
385,300,104165,1,2,0:2:0:0:
311,343,104565,1,2,0:2:0:0:
231,290,104965,2,0,L|202:298,1,17.5,10|0,0:2|0:0,0:0:0:0:
195,301,105165,1,0,0:0:0:0:
134,250,105365,2,0,L|105:242,2,17.5,10|8|8,0:2|0:2|0:2,0:0:0:0:
225,153,105765,6,0,P|211:185|201:218,3,70,2|2|10|2,3:2|0:2|0:2|3:2,0:0:0:0:
36,64,107765,6,0,P|49:96|59:129,2,70,2|10|2,0:2|0:2|0:2,0:0:0:0:
36,64,108765,1,2,0:2:0:0:
74,215,108965,6,0,P|40:205|5:202,2,70,2|2|10,3:2|0:0|0:2,0:0:0:0:
137,255,110165,1,2,3:2:0:0:
212,230,110565,1,2,0:2:0:0:
255,156,110965,1,2,0:2:0:0:
202,76,111365,1,10,0:2:0:0:
202,76,111765,2,0,L|199:100,1,17.5,2|0,0:2|0:0,0:0:0:0:
42,326,112165,6,0,L|36:360,3,23.3333333333333,6|2|2|2,3:3|0:3|0:3|0:3,0:0:0:0:
141,289,112565,2,0,L|98:277,1,43.75,2|2,0:2|0:2,0:0:0:0:
44,199,112765,2,0,L|47:220,2,21.875,2|2|2,3:3|0:3|0:3,0:0:0:0:
27,90,112965,6,0,P|54:147|135:149,1,131.25,10|0,0:0|0:0,0:0:0:0:
241,78,113365,1,2,3:2:0:0:
241,78,113465,2,0,P|270:83|291:108,1,43.75,2|8,0:0|0:0,0:0:0:0:
462,52,113765,6,0,P|405:69|394:122,1,87.5,2|10,0:2|0:2,0:0:0:0:
350,158,114165,1,2,0:2:0:0:
394,223,114365,2,0,L|388:248,2,21.875,2|2|2,0:3|0:3|0:3,0:0:0:0:
330,38,114565,5,10,0:0:0:0:
330,38,114965,1,8,0:0:0:0:
308,33,115065,1,8,0:0:0:0:
296,17,115165,1,8,0:0:0:0:
458,127,115365,6,0,P|466:153|486:185,2,43.75,2|0|2,3:2|0:0|0:3,0:0:0:0:
316,228,115765,2,0,P|312:250|305:271,1,43.75,2|0,0:0|0:0,0:0:0:0:
305,271,115965,1,2,3:3:0:0:
411,299,116165,6,0,P|384:304|358:316,1,43.75,10|2,0:0|0:0,0:0:0:0:
339,381,116365,1,0,0:0:0:0:
461,244,116565,6,0,P|474:251|506:257,3,29.1666666666667,2|2|2|2,3:3|0:3|0:3|0:3,0:0:0:0:
330,159,116965,6,0,P|298:185|233:193,1,87.5,2|10,0:2|0:2,0:0:0:0:
175,247,117365,2,0,L|170:277,2,21.875,2|2|2,0:3|0:3|0:3,0:0:0:0:
101,178,117565,2,0,L|96:148,2,21.875,2|2|2,0:3|0:3|0:3,0:0:0:0:
249,268,117765,5,10,0:2:0:0:
22,195,117965,1,0,3:0:0:0:
22,195,118165,5,2,0:2:0:0:
27,217,118265,1,8,0:2:0:0:
43,229,118365,1,8,0:2:0:0:
262,118,118565,6,0,B|310:140|366:83|320:95|359:30|419:62,1,175,2|2,3:3|0:0,0:0:0:0:
476,102,119065,1,2,0:0:0:0:
476,102,119165,2,0,L|504:108,2,21.875,2|2|2,3:3|0:3|0:3,0:3:0:0:
350,276,119365,6,0,P|313:159|270:-6,1,280,8|2,0:0|0:3,0:0:0:0:
214,146,120365,2,0,P|220:126|223:112,1,35,8|0,0:2|0:0,0:0:0:0:
164,65,120565,6,0,B|131:79|90:37|123:46|95:-2|51:22,1,131.25,2|2,0:2|0:3,0:0:0:0:
9,79,120965,5,2,0:2:0:0:
256,192,124965,6,0,B|232:135|279:72|373:86|402:156|406:198|406:198|436:180|432:103|366:75,1,406.87501552105
376,79,126565,6,0,P|367:117|354:187,1,105.000004005432,2|2,0:0|0:0,0:0:0:0:
465,289,127365,1,2,3:2:0:0:
465,289,127565,1,2,0:0:0:0:
465,289,127765,1,2,0:0:0:0:
386,260,128165,6,0,P|334:269|283:281,1,105.000004005432,0|2,3:2|0:0,0:0:0:0:
283,281,128965,1,2,0:0:0:0:
197,329,129165,1,2,0:0:0:0:
109,293,129365,1,2,3:2:0:0:
109,293,130165,6,0,L|104:260,1,26.2500010013581,2|0,0:0|0:0,0:0:0:0:
165,183,130565,1,2,3:2:0:0:
165,183,130765,1,2,3:2:0:0:
165,183,130965,1,2,0:0:0:0:
38,64,131365,6,0,L|47:105,1,26.2500010013581,0|0,3:2|0:0,0:0:0:0:
100,138,131565,1,2,0:0:0:0:
229,103,131765,5,2,0:3:0:0:
229,103,132165,1,10,0:0:0:0:
315,151,132365,1,2,0:0:0:0:
403,115,132565,2,0,L|460:125,1,52.5000020027161,2|8,3:2|0:0,0:0:0:0:
454,124,133165,1,8,0:0:0:0:
507,226,133765,1,10,0:0:0:0:
507,226,133965,1,2,0:0:0:0:
507,226,134165,5,10,0:0:0:0:
502,246,134265,1,10,0:0:0:0:
498,265,134365,1,10,0:0:0:0:
384,352,134565,5,0,3:2:0:0:
384,352,134965,2,0,L|394:304,1,26.2500010013581,2|0,0:0|0:0,0:0:0:0:
330,280,135165,2,0,L|320:232,1,26.2500010013581,2|0,0:0|0:0,0:0:0:0:
363,195,135365,1,8,0:0:0:0:
363,195,135765,1,0,3:2:0:0:
275,140,136165,1,2,0:0:0:0:
275,140,136265,1,2,0:0:0:0:
116,190,136965,5,10,0:0:0:0:
116,190,137165,1,10,0:0:0:0:
116,190,137365,5,2,0:0:0:0:
100,203,137465,1,8,0:0:0:0:
85,218,137565,1,8,0:0:0:0:
104,81,137765,6,0,B|99:52|129:30|129:30|62:38|27:183|157:225|233:109|270:56|374:55|434:196|434:196|434:200|362:123|293:135|264:171,1,770
267,168,142965,6,0,L|271:197,1,17.5,2|0,0:0|0:0,0:0:0:0:
330,236,143365,1,0,0:0:0:0:
330,236,143765,1,0,0:0:0:0:
334,315,144165,6,0,B|266:341|238:233|238:233|218:138|145:123|145:123|12:140|12:140|85:131|119:190,1,560
120,190,147765,6,0,L|142:179,1,17.5,2|0,0:0|0:0,0:0:0:0:
285,112,148165,5,0,0:0:0:0:
285,112,149365,6,0,L|274:134,1,17.5,2|0,0:0|0:0,0:0:0:0:
245,329,149765,6,0,P|238:265|224:187,1,140
