osu file format v14

[General]
AudioFilename: audio.mp3
AudioLeadIn: 0
PreviewTime: 23597
Countdown: 0
SampleSet: Drum
StackLeniency: 0.3
Mode: 0
LetterboxInBreaks: 0
WidescreenStoryboard: 1

[Editor]
Bookmarks: 11837,35541,47393,59244,71096,82948,94800
DistanceSpacing: 1
BeatDivisor: 4
GridSize: 32
TimelineZoom: 2.4

[Metadata]
Title:BONErr
TitleUnicode:BONErr
Artist:SEBii
ArtistUnicode:SEBii
Creator:Mokobe
Version:Normal
Source:
Tags:log_on_now hyperpop trap upbeat hip hop hip-hop english male vocalist 808 hiphop kimj vvspipes rap vvss youngkimj
BeatmapID:2876873
BeatmapSetID:1393604

[Difficulty]
HPDrainRate:3.5
CircleSize:3.2
OverallDifficulty:3.5
ApproachRate:5.6
SliderMultiplier:0.999999999999999
SliderTickRate:1

[Events]
//Background and Video events
0,0,"tatata.jpg",0,0
//Break Periods
2,47407,58134
//Storyboard Layer 0 (Background)
//Storyboard Layer 1 (Fail)
//Storyboard Layer 2 (Pass)
//Storyboard Layer 3 (Foreground)
//Storyboard Layer 4 (Overlay)
//Storyboard Sound Samples

[TimingPoints]
10356,370.37037037037,4,3,1,55,1,0
11467,-100,4,3,1,25,0,0
11837,-100,4,3,1,25,0,0
23689,-100,4,3,1,55,0,0
24059,-100,4,3,1,55,0,0
26652,-100,4,3,1,55,0,0
27022,-100,4,3,1,55,0,0
29615,-100,4,3,1,55,0,0
31096,-100,4,3,1,55,0,0
32022,-100,4,3,1,55,0,0
33318,-100,4,3,1,55,0,0
34985,-100,4,3,1,55,0,0
35911,-100,4,3,1,55,0,0
38874,-100,4,3,1,55,0,0
39244,-100,4,3,1,55,0,0
41096,-100,4,3,1,55,0,0
42948,-100,4,3,1,55,0,0
43874,-100,4,3,1,55,0,0
47022,-100,4,3,1,55,0,0
59244,-100,4,3,1,55,0,0
59985,-100,4,3,1,55,0,0
62207,-100,4,3,1,55,0,0
62948,-100,4,3,1,55,0,0
64430,-100,4,3,1,55,0,0
66652,-100,4,3,1,55,0,0
68133,-100,4,3,1,55,0,0
71096,-100,4,3,1,25,0,0
82948,-100,4,3,1,25,0,0
94244,-100,4,3,1,45,0,0

[Colours]
Combo1 : 255,197,74
Combo2 : 79,200,200
Combo3 : 78,181,245
Combo4 : 209,116,39

[HitObjects]
45,63,11467,6,0,L|110:56,1,50,2|2,0:0|0:0,0:0:0:0:
126,19,11837,2,0,L|236:34,1,99.9999999999999,2|2,0:0|0:0,0:0:0:0:
319,66,12578,1,2,0:0:0:0:
413,32,12948,1,2,0:0:0:0:
491,93,13318,2,0,P|509:129|477:194,1,99.9999999999999,2|2,0:0|0:0,0:0:0:0:
409,240,14059,1,2,0:0:0:0:
471,318,14430,1,2,0:0:0:0:
393,380,14800,6,0,B|283:363,1,99.9999999999999,2|2,0:0|0:0,0:0:0:0:
230,287,15541,2,0,B|120:304,1,99.9999999999999,2|2,0:0|0:0,0:0:0:0:
45,353,16281,1,2,0:0:0:0:
4,261,16652,1,2,0:0:0:0:
68,184,17022,1,2,0:0:0:0:
0,109,17393,1,2,0:0:0:0:
71,38,17763,6,0,B|130:0|160:47|162:54|165:62|199:112|260:75,1,200,2|2,0:0|0:0,0:0:0:0:
331,27,18874,1,2,0:0:0:0:
427,51,19244,2,0,L|388:257,1,200,2|2,0:0|0:0,0:0:0:0:
353,340,20355,1,2,0:0:0:0:
275,276,20726,6,0,P|233:259|172:286,1,99.9999999999999,2|2,0:0|0:0,0:0:0:0:
105,339,21467,1,2,0:0:0:0:
34,268,21837,1,2,0:0:0:0:
96,190,22207,2,0,P|94:158|84:123,1,50,2|2,0:0|0:0,0:0:0:0:
55,103,22578,1,2,0:0:0:0:
120,27,22948,1,2,0:0:0:0:
319,20,23689,6,0,L|220:31,1,99.9999999999999,6|2,0:0|0:0,0:0:0:0:
210,80,24244,1,2,0:0:0:0:
210,80,24430,2,0,P|225:137|198:182,1,99.9999999999999,10|2,0:0|0:0,0:0:0:0:
112,199,25170,2,0,L|109:82,1,99.9999999999999,2|2,0:0|0:0,0:0:0:0:
68,79,25726,1,2,0:0:0:0:
68,79,25911,2,0,P|20:92|-5:151,1,99.9999999999999,10|2,0:0|0:0,0:0:0:0:
30,226,26652,6,0,L|34:331,1,99.9999999999999,6|2,0:0|0:0,0:0:0:0:
73,364,27207,1,2,0:0:0:0:
73,364,27393,2,0,L|195:347,1,99.9999999999999,10|2,0:0|0:0,0:0:0:0:
258,300,28133,2,0,P|334:320|343:339,1,99.9999999999999,2|2,0:0|0:0,0:0:0:0:
446,365,28874,2,0,P|453:330|459:297,1,50,10|4,0:0|0:0,0:0:0:0:
433,271,29244,2,0,P|426:236|420:203,1,50,6|6,0:0|0:0,0:0:0:0:
469,201,29615,6,0,P|465:132|423:108,1,99.9999999999999,6|2,0:0|0:0,0:0:0:0:
418,79,30170,1,6,0:0:0:0:
418,79,30355,2,0,L|486:57,2,50,10|2|2,0:0|0:0|0:0,0:0:0:0:
327,121,31096,2,0,P|298:122|271:114,1,50,2|2,0:0|0:0,0:0:0:0:
260,69,31467,2,0,P|231:68|204:76,1,50,2|2,0:0|0:0,0:0:0:0:
162,86,31837,1,10,0:0:0:0:
81,146,32207,1,6,0:0:0:0:
125,235,32578,6,0,L|104:342,1,99.9999999999999,6|2,0:0|0:0,0:0:0:0:
196,365,33318,2,0,P|227:367|258:357,1,50,10|2,0:0|0:0,0:0:0:0:
280,327,33689,1,2,0:0:0:0:
368,373,34059,1,2,0:0:0:0:
445,37,35541,6,0,L|433:144,1,99.9999999999999,6|2,0:0|0:0,0:0:0:0:
362,206,36281,2,0,L|374:313,1,99.9999999999999,10|2,0:0|0:0,0:0:0:0:
465,344,37022,1,2,0:0:0:0:
275,280,37763,1,10,0:0:0:0:
210,356,38133,2,0,P|181:357|153:346,1,50,2|2,0:0|0:0,0:0:0:0:
117,325,38504,5,6,0:0:0:0:
64,239,38874,1,6,0:0:0:0:
129,163,39244,2,0,L|112:52,1,99.9999999999999,14|2,0:0|0:0,0:0:0:0:
427,1,41096,1,6,0:0:0:0:
427,1,41281,1,6,0:0:0:0:
389,34,41467,6,0,L|404:101,1,50,2|2,0:0|0:0,0:0:0:0:
440,111,41837,2,0,L|425:178,1,50,2|6,0:0|0:0,0:0:0:0:
395,196,42207,1,10,0:0:0:0:
448,280,42578,1,2,0:0:0:0:
385,357,42948,2,0,L|322:349,1,50,2|2,0:0|0:0,0:0:0:0:
286,362,43318,1,2,0:0:0:0:
218,287,43689,1,10,0:0:0:0:
118,340,44059,1,2,0:0:0:0:
30,291,44430,6,0,P|22:263|29:230,1,50,2|2,0:0|0:0,0:0:0:0:
63,211,44800,2,0,P|64:186|57:162,1,50,2|2,0:0|0:0,0:0:0:0:
17,131,45170,2,0,L|23:21,1,99.9999999999999,10|10,0:0|0:0,0:0:0:0:
119,7,45911,1,2,0:0:0:0:
201,63,46281,1,2,0:0:0:0:
201,63,46467,1,2,0:0:0:0:
342,14,47022,1,8,0:0:0:0:
342,14,47207,1,4,0:0:0:0:
439,179,59244,6,0,B|326:168,1,99.9999999999999,6|2,0:0|0:0,0:0:0:0:
310,135,59800,1,2,0:0:0:0:
310,135,59985,2,0,P|301:104|300:73,1,50,10|0,0:0|0:0,0:0:0:0:
347,71,60355,2,0,P|344:46|336:22,1,50,10|0,0:0|0:0,0:0:0:0:
290,1,60726,2,0,L|179:13,1,99.9999999999999,2|2,0:0|0:0,0:0:0:0:
164,54,61281,1,2,0:0:0:0:
24,15,61837,1,2,0:0:0:0:
24,15,62022,1,2,0:0:0:0:
2,60,62207,6,0,L|31:164,1,99.9999999999999,6|2,0:0|0:0,0:0:0:0:
76,184,62763,1,2,0:0:0:0:
76,184,62948,2,0,P|85:245|52:284,1,99.9999999999999,10|2,0:0|0:0,0:0:0:0:
76,374,63689,2,0,L|7:389,2,50,2|2|2,0:0|0:0|0:0,0:0:0:0:
154,312,64430,1,10,0:0:0:0:
244,353,64800,1,6,0:0:0:0:
311,279,65170,6,0,P|373:279|399:313,1,99.9999999999999,6|2,0:0|0:0,0:0:0:0:
416,347,65726,1,6,0:0:0:0:
416,347,65911,2,0,L|477:333,2,50,10|2|2,0:0|0:0|0:0,0:0:0:0:
332,291,66652,2,0,L|339:226,1,50,2|2,0:0|0:0,0:0:0:0:
377,211,67022,2,0,L|371:161,1,50,2|2,0:0|0:0,0:0:0:0:
394,116,67393,2,0,L|378:11,1,99.9999999999999,10|6,0:0|0:0,0:0:0:0:
333,29,67948,1,6,0:0:0:0:
333,29,68133,6,0,P|280:43|226:15,1,99.9999999999999,6|2,0:0|0:0,0:0:0:0:
139,29,68874,1,10,0:0:0:0:
12,359,70355,1,10,0:0:0:0:
12,359,70541,2,0,L|6:295,1,50,4|14,0:0|0:0,0:0:0:0:
36,269,70911,1,6,0:0:0:0:
36,269,71096,6,0,L|20:167,1,99.9999999999999,2|2,0:0|0:0,0:0:0:0:
88,97,71837,1,2,0:0:0:0:
42,9,72207,1,2,0:0:0:0:
140,25,72578,2,0,P|190:51|249:35,1,99.9999999999999,2|2,0:0|0:0,0:0:0:0:
322,4,73318,1,2,0:0:0:0:
397,75,73689,1,2,0:0:0:0:
468,146,74059,6,0,L|461:260,1,99.9999999999999,2|2,0:0|0:0,0:0:0:0:
437,343,74800,2,0,P|386:373|338:362,1,99.9999999999999,2|2,0:0|0:0,0:0:0:0:
274,299,75541,1,2,0:0:0:0:
197,364,75911,1,2,0:0:0:0:
87,359,76281,1,2,0:0:0:0:
25,281,76652,1,2,0:0:0:0:
43,182,77022,6,0,P|85:219|188:138,1,200,2|2,0:0|0:0,0:0:0:0:
104,109,78133,1,2,0:0:0:0:
16,60,78504,2,0,P|77:-10|161:30,1,200,2|2,0:0|0:0,0:0:0:0:
196,124,79615,1,2,0:0:0:0:
276,64,79985,2,0,L|385:77,1,99.9999999999999,2|2,0:0|0:0,0:0:0:0:
443,148,80726,1,2,0:0:0:0:
388,232,81096,1,2,0:0:0:0:
448,313,81467,1,2,0:0:0:0:
51,15,82948,6,0,L|78:182,1,150,4|4,0:0|0:0,0:0:0:0:
461,15,85911,2,0,L|434:182,1,150,4|4,0:0|0:0,0:0:0:0:
256,288,88318,2,0,L|256:224,2,50,4|4|4,0:0|0:0|0:0,0:0:0:0:
252,338,88874,2,0,B|174:363|174:363|107:332,1,150,4|4,0:0|0:0,0:0:0:0:
83,66,91281,6,0,L|34:72,2,50,4|4|4,0:0|0:0|0:0,0:0:0:0:
125,37,91837,2,0,P|229:51|280:56,1,150,4|4,0:0|0:0,0:0:0:0:
434,232,94244,5,4,0:0:0:0:
434,232,94430,2,0,L|371:222,1,50,4|4,0:0|0:0,0:0:0:0:
351,261,94800,1,4,0:0:0:0:
