osu file format v14

[General]
AudioFilename: audio.mp3
AudioLeadIn: 0
PreviewTime: 23597
Countdown: 0
SampleSet: Drum
StackLeniency: 0.3
Mode: 0
LetterboxInBreaks: 0
WidescreenStoryboard: 1

[Editor]
Bookmarks: 11837,35541,47393,59244,71096,82948,94800
DistanceSpacing: 1.1
BeatDivisor: 4
GridSize: 32
TimelineZoom: 2.4

[Metadata]
Title:BONErr
TitleUnicode:BONErr
Artist:SEBii
ArtistUnicode:SEBii
Creator:Mokobe
Version:Hard
Source:
Tags:log_on_now hyperpop trap upbeat hip hop hip-hop english male vocalist 808 hiphop kimj vvspipes rap vvss youngkimj
BeatmapID:2876872
BeatmapSetID:1393604

[Difficulty]
HPDrainRate:4
CircleSize:3.5
OverallDifficulty:6
ApproachRate:7.8
SliderMultiplier:1.4
SliderTickRate:1

[Events]
//Background and Video events
0,0,"tatata.jpg",0,0
//Break Periods
2,47592,58419
//Storyboard Layer 0 (Background)
//Storyboard Layer 1 (Fail)
//Storyboard Layer 2 (Pass)
//Storyboard Layer 3 (Foreground)
//Storyboard Layer 4 (Overlay)
//Storyboard Sound Samples

[TimingPoints]
10356,370.37037037037,4,3,1,55,1,0
11467,-100,4,3,1,25,0,0
11837,-117.647058823529,4,3,1,25,0,0
23689,-100,4,3,1,55,0,0
24059,-100,4,3,1,55,0,0
26652,-100,4,3,1,55,0,0
27022,-100,4,3,1,55,0,0
29615,-100,4,3,1,55,0,0
31096,-100,4,3,1,55,0,0
32022,-100,4,3,1,55,0,0
33318,-100,4,3,1,55,0,0
34985,-100,4,3,1,55,0,0
35911,-100,4,3,1,55,0,0
38874,-100,4,3,1,55,0,0
39244,-100,4,3,1,55,0,0
41096,-100,4,3,1,55,0,0
42948,-100,4,3,1,55,0,0
43874,-100,4,3,1,55,0,0
47022,-100,4,3,1,55,0,0
59244,-100,4,3,1,55,0,0
59985,-100,4,3,1,55,0,0
62207,-100,4,3,1,55,0,0
62948,-100,4,3,1,55,0,0
64430,-100,4,3,1,55,0,0
66652,-100,4,3,1,55,0,0
68133,-100,4,3,1,55,0,0
71096,-117.647058823529,4,3,1,25,0,0
82948,-200,4,3,1,25,0,0
94244,-200,4,3,1,45,0,0

[Colours]
Combo1 : 255,197,74
Combo2 : 79,200,200
Combo3 : 78,181,245
Combo4 : 209,116,39

[HitObjects]
0,0,11467,5,2,0:0:0:0:
0,0,11652,1,2,0:0:0:0:
78,30,11837,2,0,P|98:100|61:147,1,119.000002269745,2|2,0:0|0:0,0:0:0:0:
23,227,12578,2,0,P|-14:283|9:341,1,119.000002269745,2|2,0:0|0:0,0:0:0:0:
122,286,13318,2,0,P|154:274|199:283,1,59.5000011348725,2|2,0:0|0:0,0:0:0:0:
213,331,13689,2,0,P|245:343|277:339,1,59.5000011348725,2|2,0:0|0:0,0:0:0:0:
325,307,14059,2,0,B|437:358,1,119.000002269745,2|2,0:0|0:0,0:0:0:0:
490,321,14615,1,2,0:0:0:0:
490,321,14708,1,0,0:0:0:0:
490,321,14800,6,0,P|498:210|499:182,1,119.000002269745,2|2,0:0|0:0,0:0:0:0:
484,143,15355,1,2,0:0:0:0:
484,143,15541,2,0,P|415:127|372:178,1,119.000002269745,2|2,0:0|0:0,0:0:0:0:
267,211,16281,2,0,L|261:260,2,29.7500005674362,2|2|2,0:0|0:0|0:0,0:0:0:0:
217,139,16652,2,0,P|212:73|212:60,1,59.5000011348725,2|2,0:0|0:0,0:0:0:0:
132,51,17022,2,0,P|134:95|141:188,1,119.000002269745,2|2,0:0|0:0,0:0:0:0:
92,292,17763,6,0,P|43:270|15:274,2,59.5000011348725,2|2|2,0:0|0:0|0:0,0:0:0:0:
135,347,18318,1,2,0:0:0:0:
135,347,18504,2,0,L|266:327,1,119.000002269745,2|2,0:0|0:0,0:0:0:0:
435,379,19244,2,0,P|449:342|442:303,1,59.5000011348725,2|2,0:0|0:0,0:0:0:0:
404,273,19615,2,0,P|401:238|413:212,1,59.5000011348725,2|2,0:0|0:0,0:0:0:0:
453,166,19985,2,0,P|363:156|308:150,1,119.000002269745,2|2,0:0|0:0,0:0:0:0:
310,100,20448,1,0,0:0:0:0:
310,100,20541,1,2,0:0:0:0:
243,33,20726,6,0,L|175:46,1,59.5000011348725,2|2,0:0|0:0,0:0:0:0:
134,111,21096,2,0,L|67:93,1,59.5000011348725,2|2,0:0|0:0,0:0:0:0:
24,56,21467,2,0,P|47:170|52:195,1,119.000002269745,2|2,0:0|0:0,0:0:0:0:
79,320,22207,1,2,0:0:0:0:
79,320,22300,1,2,0:0:0:0:
79,320,22393,2,0,P|114:311|121:308,1,29.7500005674362,2|2,0:0|0:0,0:0:0:0:
127,286,22578,2,0,P|185:304|206:310,1,59.5000011348725,2|0,0:0|0:0,0:0:0:0:
217,359,22948,1,2,0:0:0:0:
255,235,23318,1,2,0:0:0:0:
401,384,23689,6,0,B|405:262,1,105,6|0,0:0|0:0,0:0:0:0:
435,255,24059,2,0,P|453:219|442:173,1,70,2|2,0:0|0:0,0:0:0:0:
417,120,24430,1,10,0:0:0:0:
467,61,24615,1,0,0:0:0:0:
512,0,24800,1,2,0:0:0:0:
347,15,25170,2,0,B|252:6|252:6|223:18|217:46,1,140,2|2,0:0|0:0,0:0:0:0:
172,96,25726,1,2,0:0:0:0:
172,96,25911,2,0,P|120:86|84:78,1,70,10|0,0:0|0:0,0:0:0:0:
83,156,26281,2,0,P|117:163|151:169,1,70,2|2,0:0|0:0,0:0:0:0:
147,266,26652,6,0,P|34:241|19:238,1,105,6|0,0:0|0:0,0:0:0:0:
6,236,27022,2,0,P|-3:277|16:320,1,70,2|2,0:0|0:0,0:0:0:0:
57,359,27393,1,10,0:0:0:0:
130,336,27578,1,0,0:0:0:0:
204,314,27763,1,2,0:0:0:0:
337,374,28133,2,0,P|441:351|488:339,1,140,2|2,0:0|0:0,0:0:0:0:
509,276,28689,1,2,0:0:0:0:
509,276,28874,1,10,0:0:0:0:
456,195,29059,1,4,0:0:0:0:
456,195,29152,1,4,0:0:0:0:
456,195,29244,1,6,0:0:0:0:
487,124,29430,1,6,0:0:0:0:
451,55,29615,6,0,L|367:66,1,70,6|2,0:0|0:0,0:0:0:0:
318,107,29985,1,2,0:0:0:0:
256,60,30170,1,6,0:0:0:0:
198,9,30355,2,0,L|102:34,1,70,10|2,0:0|0:0,0:0:0:0:
52,23,30726,2,0,P|46:64|69:119,1,70,2|0,0:0|0:0,0:0:0:0:
103,149,31096,1,2,0:0:0:0:
99,225,31281,1,2,0:0:0:0:
125,296,31467,2,0,P|91:302|59:291,2,70,2|2|10,0:0|0:0|0:0,0:0:0:0:
195,263,32022,1,4,0:0:0:0:
243,202,32207,1,6,0:0:0:0:
227,126,32393,1,6,0:0:0:0:
165,80,32578,6,0,P|238:14|287:32,1,140,6|2,0:0|0:0,0:0:0:0:
333,63,33133,1,2,0:0:0:0:
407,42,33318,2,0,P|411:87|388:131,1,70,10|2,0:0|0:0,0:0:0:0:
339,155,33689,2,0,P|335:200|358:244,1,70,2|0,0:0|0:0,0:0:0:0:
408,260,34059,1,2,0:0:0:0:
49,342,34985,1,4,0:0:0:0:
116,305,35170,1,14,0:0:0:0:
130,229,35355,1,6,0:0:0:0:
59,163,35541,6,0,P|53:83|46:-3,2,140,6|2|10,0:0|0:0|0:0,0:0:0:0:
160,302,36652,1,2,0:0:0:0:
247,175,37022,1,2,0:0:0:0:
300,229,37207,1,2,0:0:0:0:
363,273,37393,2,0,P|407:278|447:253,1,70,2|0,0:0|0:0,0:0:0:0:
467,200,37763,1,10,0:0:0:0:
508,51,38133,1,2,0:0:0:0:
508,51,38318,1,2,0:0:0:0:
448,1,38504,6,0,L|326:15,1,105,6|0,0:0|0:0,0:0:0:0:
318,42,38874,2,0,P|258:63|212:48,1,105,6|0,0:0|0:0,0:0:0:0:
199,19,39244,2,0,P|139:-2|93:13,1,105,14|0,0:0|0:0,0:0:0:0:
82,43,39615,1,2,0:0:0:0:
48,199,39985,1,2,0:0:0:0:
48,199,40078,1,2,0:0:0:0:
48,199,40170,2,0,L|45:262,1,35,2|2,0:0|0:0,0:0:0:0:
156,353,41096,1,6,0:0:0:0:
156,353,41281,1,6,0:0:0:0:
202,291,41467,6,0,B|235:283|260:303|265:309|269:312|272:359|340:348,1,140,2|2,0:0|0:0,0:0:0:0:
400,366,42022,1,6,0:0:0:0:
447,305,42207,1,10,0:0:0:0:
482,240,42393,1,2,0:0:0:0:
482,240,42578,2,0,L|478:152,1,70,2|0,0:0|0:0,0:0:0:0:
408,129,42948,2,0,P|388:56|425:24,1,105,2|0,0:0|0:0,0:0:0:0:
423,5,43318,2,0,P|350:25|318:-12,1,105,2|0,0:0|0:0,0:0:0:0:
296,29,43689,1,10,0:0:0:0:
223,3,43874,1,4,0:0:0:0:
69,3,44244,1,4,0:0:0:0:
30,69,44430,6,0,P|58:180|68:220,1,140,2|2,0:0|0:0,0:0:0:0:
87,278,44985,1,2,0:0:0:0:
36,335,45170,1,10,0:0:0:0:
176,271,45541,1,10,0:0:0:0:
297,365,45911,2,0,L|442:344,1,140,2|2,0:0|0:0,0:0:0:0:
470,325,46374,1,2,0:0:0:0:
470,325,46467,1,2,0:0:0:0:
470,325,46559,1,2,0:0:0:0:
396,141,47022,6,0,P|404:73|407:40,2,70,8|4|0,0:0|0:0|0:0,0:0:0:0:
0,51,59244,6,0,P|50:8|114:20,1,105,6|0,0:0|0:0,0:0:0:0:
117,31,59615,2,0,P|106:80|97:118,1,70,2|2,0:0|0:0,0:0:0:0:
62,165,59985,1,10,0:0:0:0:
95,234,60170,1,0,0:0:0:0:
136,305,60355,1,10,0:0:0:0:
136,305,60541,1,0,0:0:0:0:
76,353,60726,2,0,P|172:341|227:335,1,140,2|2,0:0|0:0,0:0:0:0:
272,283,61281,1,2,0:0:0:0:
455,372,61837,1,2,0:0:0:0:
499,309,62022,1,2,0:0:0:0:
452,247,62207,6,0,P|459:161|464:110,1,105,6|0,0:0|0:0,0:0:0:0:
483,110,62578,2,0,P|432:71|403:75,1,70,2|2,0:0|0:0,0:0:0:0:
362,109,62948,1,10,0:0:0:0:
299,63,63133,1,0,0:0:0:0:
235,21,63318,1,2,0:0:0:0:
110,112,63689,1,2,0:0:0:0:
109,35,63874,1,2,0:0:0:0:
34,15,64059,1,2,0:0:0:0:
34,15,64430,1,10,0:0:0:0:
57,167,64800,1,6,0:0:0:0:
82,318,65170,6,0,B|132:290|132:290|197:312,1,105,6|0,0:0|0:0,0:0:0:0:
202,335,65541,1,2,0:0:0:0:
276,352,65726,1,6,0:0:0:0:
326,294,65911,1,10,0:0:0:0:
454,378,66281,1,2,0:0:0:0:
505,236,66652,2,0,P|502:146|452:108,1,140,2|2,0:0|0:0,0:0:0:0:
403,74,67207,1,2,0:0:0:0:
373,2,67393,2,0,P|315:18|278:30,1,70,10|4,0:0|0:0,0:0:0:0:
283,51,67670,1,4,0:0:0:0:
283,51,67763,1,6,0:0:0:0:
206,12,67948,1,6,0:0:0:0:
141,53,68133,6,0,P|76:89|45:75,1,105,6|0,0:0|0:0,0:0:0:0:
22,55,68504,2,0,L|36:143,1,70,2|2,0:0|0:0,0:0:0:0:
90,175,68874,1,10,0:0:0:0:
5,339,70355,1,10,0:0:0:0:
81,284,70541,1,4,0:0:0:0:
126,370,70726,1,14,0:0:0:0:
200,305,70911,1,6,0:0:0:0:
200,305,71096,6,0,L|326:286,1,119.000002269745,2|2,0:0|0:0,0:0:0:0:
430,353,71837,2,0,P|465:310|443:235,1,119.000002269745,2|2,0:0|0:0,0:0:0:0:
355,167,72578,2,0,L|364:95,1,59.5000011348725,2|2,0:0|0:0,0:0:0:0:
340,46,72948,2,0,P|300:26|266:33,1,59.5000011348725,2|2,0:0|0:0,0:0:0:0:
229,58,73318,1,2,0:0:0:0:
104,16,73689,1,2,0:0:0:0:
24,119,74059,6,0,P|46:221|53:255,1,119.000002269745,2|2,0:0|0:0,0:0:0:0:
93,283,74615,1,2,0:0:0:0:
78,346,74800,2,0,P|155:309|203:336,1,119.000002269745,2|2,0:0|0:0,0:0:0:0:
356,373,75541,2,0,P|408:368|434:365,1,59.5000011348725,2|2,0:0|0:0,0:0:0:0:
416,290,75911,2,0,P|381:292|351:295,1,59.5000011348725,2|2,0:0|0:0,0:0:0:0:
317,217,76281,2,0,P|395:212|462:208,1,119.000002269745,2|2,0:0|0:0,0:0:0:0:
454,79,77022,6,0,P|474:35|507:19,2,59.5000011348725,2|2|2,0:0|0:0|0:0,0:0:0:0:
420,130,77578,1,2,0:0:0:0:
420,130,77763,2,0,L|283:114,1,119.000002269745,2|2,0:0|0:0,0:0:0:0:
194,41,78504,2,0,P|132:24|116:30,1,59.5000011348725,2|2,0:0|0:0,0:0:0:0:
79,48,78874,2,0,L|97:110,1,59.5000011348725,2|2,0:0|0:0,0:0:0:0:
136,156,79244,1,2,0:0:0:0:
54,258,79615,1,2,0:0:0:0:
130,364,79985,6,0,P|181:359|217:355,1,59.5000011348725,2|2,0:0|0:0,0:0:0:0:
221,309,80355,2,0,P|255:304|292:299,1,59.5000011348725,2|2,0:0|0:0,0:0:0:0:
338,271,80726,2,0,P|362:337|319:387,1,119.000002269745,2|2,0:0|0:0,0:0:0:0:
227,251,81467,2,0,L|217:177,1,59.5000011348725,2|2,0:0|0:0,0:0:0:0:
270,151,81837,2,0,L|293:71,1,59.5000011348725,2|0,0:0|0:0,0:0:0:0:
247,40,82207,1,2,0:0:0:0:
364,356,82948,6,0,L|440:337,1,70,4|0,0:0|0:0,0:0:0:0:
371,271,83504,2,0,L|447:252,1,70,4|0,0:0|0:0,0:0:0:0:
148,356,85911,6,0,L|72:337,1,70,4|0,0:0|0:0,0:0:0:0:
141,271,86467,2,0,L|65:252,1,70,4|0,0:0|0:0,0:0:0:0:
256,32,88318,5,4,0:0:0:0:
256,32,88411,1,4,0:0:0:0:
256,32,88504,1,4,0:0:0:0:
303,95,88689,1,4,0:0:0:0:
365,32,88874,6,0,P|396:25|443:15,1,70,4|0,0:0|0:0,0:0:0:0:
404,106,89430,2,0,P|435:99|482:89,1,70,4|0,0:0|0:0,0:0:0:0:
351,300,91281,5,4,0:0:0:0:
287,251,91467,1,4,0:0:0:0:
223,298,91652,1,4,0:0:0:0:
154,255,91837,6,0,P|123:262|76:272,1,70,4|0,0:0|0:0,0:0:0:0:
115,181,92393,2,0,P|84:188|37:198,1,70,4|0,0:0|0:0,0:0:0:0:
238,149,94244,5,4,0:0:0:0:
303,64,94430,5,4,0:0:0:0:
252,5,94615,5,4,0:0:0:0:
142,24,94800,5,4,0:0:0:0:
