osu file format v14

[General]
AudioFilename: audio.mp3
AudioLeadIn: 0
PreviewTime: 23597
Countdown: 0
SampleSet: Drum
StackLeniency: 0.3
Mode: 0
LetterboxInBreaks: 0
WidescreenStoryboard: 0

[Editor]
Bookmarks: 11837,35541,47393,59244,71096,82948,94800
DistanceSpacing: 0.6
BeatDivisor: 4
GridSize: 32
TimelineZoom: 2.4

[Metadata]
Title:BONErr
TitleUnicode:BONErr
Artist:SEBii
ArtistUnicode:SEBii
Creator:Mokobe
Version:Freestyle
Source:
Tags:log_on_now hyperpop trap upbeat hip hop hip-hop english male vocalist 808 hiphop kimj vvspipes rap vvss youngkimj
BeatmapID:2876871
BeatmapSetID:1393604

[Difficulty]
HPDrainRate:5
CircleSize:4
OverallDifficulty:8
ApproachRate:9.2
SliderMultiplier:1.88
SliderTickRate:1

[Events]
//Background and Video events
0,0,"tatata.jpg",0,0
//Break Periods
2,47592,57444
//Storyboard Layer 0 (Background)
//Storyboard Layer 1 (Fail)
//Storyboard Layer 2 (Pass)
//Storyboard Layer 3 (Foreground)
//Storyboard Layer 4 (Overlay)
//Storyboard Sound Samples

[TimingPoints]
10356,370.37037037037,4,3,1,55,1,0
11467,-100,4,3,1,25,0,0
11837,-125,4,3,1,25,0,0
23689,-55.5555555555556,4,3,1,55,0,0
24059,-62.5,4,3,1,55,0,0
26652,-55.5555555555556,4,3,1,55,0,0
27022,-62.5,4,3,1,55,0,0
29615,-55.5555555555556,4,3,1,55,0,0
31096,-62.5,4,3,1,55,0,0
32022,-55.5555555555556,4,3,1,55,0,0
33318,-62.5,4,3,1,55,0,0
34985,-55.5555555555556,4,3,1,55,0,0
35911,-62.5,4,3,1,55,0,0
38874,-55.5555555555556,4,3,1,55,0,0
39244,-50,4,3,1,55,0,0
41096,-55.5555555555556,4,3,1,55,0,0
42948,-62.5,4,3,1,55,0,0
43874,-55.5555555555556,4,3,1,55,0,0
47022,-38.4615384615385,4,3,1,55,0,0
59244,-55.5555555555556,4,3,1,55,0,0
59985,-62.5,4,3,1,55,0,0
62207,-55.5555555555556,4,3,1,55,0,0
62948,-62.5,4,3,1,55,0,0
64430,-50,4,3,1,55,0,0
66652,-62.5,4,3,1,55,0,0
68133,-55.5555555555556,4,3,1,55,0,0
71096,-125,4,3,1,25,0,0
73596,-125,4,3,1,5,0,0
73689,-125,4,3,1,25,0,0
73967,-125,4,3,1,5,0,0
74059,-125,4,3,1,25,0,0
82948,-500,4,3,1,25,0,0
94244,-500,4,3,1,45,0,0

[Colours]
Combo1 : 255,197,74
Combo2 : 79,200,200
Combo3 : 78,181,245
Combo4 : 209,116,39

[HitObjects]
13,70,11467,5,2,0:0:0:0:
83,25,11652,1,2,0:0:0:0:
155,77,11837,2,0,B|126:152|209:142|171:243,2,150.4,2|2|2,0:0|0:0|0:0,0:0:0:0:
299,11,12948,1,2,0:0:0:0:
441,116,13318,1,2,0:0:0:0:
498,62,13504,1,2,0:0:0:0:
451,0,13689,1,2,0:0:0:0:
391,51,13874,1,2,0:0:0:0:
512,143,14059,2,0,P|499:181|490:240,1,75.2,2|0,0:0|0:0,0:0:0:0:
411,269,14430,2,0,P|426:286|437:306,1,37.6,2|0,0:0|0:0,0:0:0:0:
500,353,14615,2,0,P|485:370|474:390,1,37.6,2|0,0:0|0:0,0:0:0:0:
342,341,14800,6,0,B|253:325|253:325|214:341|214:389,1,150.4,2|2,0:0|0:0,0:0:0:0:
297,250,15355,1,2,0:0:0:0:
238,170,15541,2,0,P|249:78|258:-1,2,150.4,2|2|2,0:0|0:0|0:0,0:0:0:0:
225,182,16374,1,2,0:0:0:0:
225,182,16467,1,2,0:0:0:0:
149,131,16652,1,2,0:0:0:0:
181,55,16837,1,2,0:0:0:0:
35,0,17022,2,0,P|45:49|54:93,1,75.2,2|0,0:0|0:0,0:0:0:0:
149,131,17393,2,0,P|139:180|130:224,1,75.2,2|2,0:0|0:0,0:0:0:0:
17,292,17763,5,2,0:0:0:0:
81,353,17948,1,2,0:0:0:0:
133,204,18133,1,2,0:0:0:0:
50,198,18318,1,2,0:0:0:0:
155,294,18504,2,0,P|238:309|324:325,1,150.4,2|2,0:0|0:0,0:0:0:0:
504,235,19244,5,2,0:0:0:0:
454,169,19430,1,2,0:0:0:0:
495,104,19615,1,2,0:0:0:0:
504,235,19800,1,2,0:0:0:0:
454,341,19985,2,0,B|387:354|395:298|358:270|298:301,1,150.4,2|2,0:0|0:0,0:0:0:0:
316,310,20448,1,0,0:0:0:0:
316,310,20541,1,2,0:0:0:0:
263,242,20726,5,2,0:0:0:0:
301,170,20911,1,2,0:0:0:0:
352,235,21096,1,2,0:0:0:0:
316,310,21281,1,2,0:0:0:0:
216,378,21467,2,0,P|163:352|116:351,1,75.2,2|0,0:0|0:0,0:0:0:0:
11,284,21837,2,0,P|75:265|146:246,1,112.8,2|0,0:0|0:0,0:0:0:0:
156,272,22207,5,2,0:0:0:0:
156,272,22300,1,2,0:0:0:0:
156,272,22393,2,0,P|172:232|168:213,1,37.6,2|2,0:0|0:0,0:0:0:0:
138,157,22578,1,2,0:0:0:0:
194,87,22763,1,0,0:0:0:0:
92,17,22948,1,2,0:0:0:0:
156,272,23318,1,2,0:0:0:0:
406,32,23689,6,0,B|452:17|489:59|490:122|360:175|313:26,1,253.799992254639,6|0,0:0|0:0,0:0:0:0:
329,49,24059,1,2,0:0:0:0:
208,0,24244,1,2,0:0:0:0:
18,147,24430,2,0,P|122:119|237:87,1,225.6,10|0,0:0|0:0,0:0:0:0:
130,35,24800,2,0,B|114:82|125:158|216:120|249:168|205:269,1,225.6,2|0,0:0|0:0,0:0:0:0:
197,309,25170,6,0,B|147:306|130:260|142:202|281:182|284:336,1,225.6,2|0,0:0|0:0,0:0:0:0:
276,293,25541,1,2,0:0:0:0:
340,355,25726,1,2,0:0:0:0:
493,266,25911,1,10,0:0:0:0:
493,266,26281,1,2,0:0:0:0:
458,190,26467,1,2,0:0:0:0:
512,99,26652,6,0,P|493:200|465:366,1,253.799992254639,6|0,0:0|0:0,0:0:0:0:
457,353,27022,1,2,0:0:0:0:
366,283,27207,1,2,0:0:0:0:
190,384,27393,2,0,B|281:405|282:332|285:327|287:321|292:252|419:293,1,225.6,10|0,0:0|0:0,0:0:0:0:
374,294,27763,2,0,P|286:289|284:130,1,225.6,2|0,0:0|0:0,0:0:0:0:
332,116,28133,6,0,P|317:206|293:354,1,225.6,2|0,0:0|0:0,0:0:0:0:
283,348,28504,1,2,0:0:0:0:
190,278,28689,1,2,0:0:0:0:
60,372,28874,1,10,0:0:0:0:
246,196,29059,5,4,0:0:0:0:
246,196,29152,1,4,0:0:0:0:
246,196,29244,1,6,0:0:0:0:
127,59,29430,1,6,0:0:0:0:
330,4,29615,6,0,B|275:-35|219:37|221:52|222:68|252:141|112:149,1,253.799992254639,6|0,0:0|0:0,0:0:0:0:
139,134,29985,1,2,0:0:0:0:
313,185,30170,2,0,B|258:224|202:152|204:137|205:121|235:48|95:40,1,253.799992254639,6|0,0:0|0:0,0:0:0:0:
122,55,30540,1,2,0:0:0:0:
38,71,30726,1,2,0:0:0:0:
20,157,30911,1,0,0:0:0:0:
111,261,31096,6,0,B|215:245|215:245|266:253|255:337,1,150.4,2|2,0:0|0:0,0:0:0:0:
91,340,31467,1,2,0:0:0:0:
35,286,31652,1,2,0:0:0:0:
280,341,31837,1,10,0:0:0:0:
288,350,32022,6,0,P|343:316|347:260,1,84.599997418213,4|0,0:0|0:0,0:0:0:0:
280,132,32207,2,0,P|281:196|328:228,1,84.599997418213,6|0,0:0|0:0,0:0:0:0:
466,234,32393,2,0,P|409:203|358:227,1,84.599997418213,6|0,0:0|0:0,0:0:0:0:
305,56,32578,6,0,B|243:-12|99:2|137:100|224:129|228:-10,1,253.799992254639,6|0,0:0|0:0,0:0:0:0:
202,17,32948,1,2,0:0:0:0:
48,124,33133,1,2,0:0:0:0:
144,220,33318,2,0,P|129:137|115:68,2,150.4,10|2|2,0:0|0:0|0:0,0:0:0:0:
16,284,33874,1,0,0:0:0:0:
98,373,34059,5,2,0:0:0:0:
102,361,34430,1,2,0:0:0:0:
106,346,34800,1,2,0:0:0:0:
331,295,34985,6,0,P|369:272|426:271,1,84.599997418213,4|4,0:0|0:0,0:0:0:0:
225,151,35170,2,0,P|183:145|147:123,1,84.599997418213,14|0,0:0|0:0,0:0:0:0:
424,0,35355,2,0,P|400:61|391:100,1,84.599997418213,6|0,0:0|0:0,0:0:0:0:
331,295,35541,6,0,P|306:153|282:18,1,253.799992254639,6|0,0:0|0:0,0:0:0:0:
245,249,35911,2,0,B|233:181|295:167|304:165|314:162|396:147|367:50,1,225.6,2|0,0:0|0:0,0:0:0:0:
286,45,36281,2,0,B|274:113|336:127|345:129|355:132|437:147|408:244,1,225.6,10|0,0:0|0:0,0:0:0:0:
334,237,36652,2,0,P|363:145|490:159,1,225.6,2|0,0:0|0:0,0:0:0:0:
485,163,37022,1,2,0:0:0:0:
318,337,37207,1,2,0:0:0:0:
93,197,37763,5,10,0:0:0:0:
319,54,38133,5,2,0:0:0:0:
445,191,38318,1,2,0:0:0:0:
361,340,38504,6,0,P|447:243|526:163,1,225.6,6|0,0:0|0:0,0:0:0:0:
431,121,38874,2,0,B|405:174|457:223|474:229|494:236|567:284|486:384,1,253.799992254639,6|0,0:0|0:0,0:0:0:0:
433,383,39244,2,0,B|407:330|459:281|476:275|496:268|578:208|487:110,1,282,14|0,0:0|0:0,0:0:0:0:
401,47,39615,1,2,0:0:0:0:
401,47,39985,5,2,0:0:0:0:
377,42,40077,1,2,0:0:0:0:
354,38,40170,1,2,0:0:0:0:
331,35,40262,1,2,0:0:0:0:
0,34,41096,6,0,P|35:92|52:147,1,84.599997418213,6|0,0:0|0:0,0:0:0:0:
267,217,41281,2,0,P|232:275|215:330,1,84.599997418213,6|0,0:0|0:0,0:0:0:0:
135,74,41467,6,0,B|115:24|165:-14|258:18|255:143|100:173,1,253.799992254639,2|0,0:0|0:0,0:0:0:0:
161,164,41837,1,2,0:0:0:0:
43,324,42022,2,0,B|9:366|-48:342|-66:245|42:185|146:304,1,253.799992254639,6|0,0:0|0:0,0:0:0:0:
103,278,42392,1,2,0:0:0:0:
201,250,42578,1,2,0:0:0:0:
223,346,42763,1,0,0:0:0:0:
329,288,42948,6,0,P|387:278|434:271,1,75.2,2|0,0:0|0:0,0:0:0:0:
422,291,43133,1,2,0:0:0:0:
367,129,43318,2,0,B|319:78|367:44|372:26|372:26|385:41|453:66|395:143,1,225.6,2|0,0:0|0:0,0:0:0:0:
417,126,43689,1,10,0:0:0:0:
266,213,43874,2,0,B|212:227|221:291|221:291|323:345|358:206,1,253.799992254639,4|0,0:0|0:0,0:0:0:0:
344,236,44244,1,4,0:0:0:0:
210,145,44430,6,0,B|146:176|107:124|135:54|52:-3|-23:84,1,253.799992254639,2|0,0:0|0:0,0:0:0:0:
4,72,44800,1,2,0:0:0:0:
63,175,44985,1,2,0:0:0:0:
16,294,45170,2,0,P|120:271|140:393,1,253.799992254639,10|0,0:0|0:0,0:0:0:0:
77,343,45541,2,0,B|149:368|183:305|182:299|181:293|190:244|241:206|322:270,1,253.799992254639,10|0,0:0|0:0,0:0:0:0:
293,268,45911,1,2,0:0:0:0:
473,158,46281,5,2,0:0:0:0:
446,137,46374,1,2,0:0:0:0:
465,112,46466,1,2,0:0:0:0:
458,96,46559,1,2,0:0:0:0:
461,83,47022,6,0,B|416:0|332:4|332:4|350:64|478:52,2,244.399988812256,8|4|0,0:0|0:0|0:0,0:0:0:0:
127,0,59244,6,0,B|163:37|166:132|66:86|24:152|102:265,1,253.799992254639,6|0,0:0|0:0,0:0:0:0:
66,226,59615,1,2,0:0:0:0:
149,179,59800,1,2,0:0:0:0:
282,288,59985,2,0,B|326:327|353:219|269:209|232:260|273:309|174:333,1,225.6,10|0,0:0|0:0,0:0:0:0:
244,382,60355,2,0,B|266:279|266:279|272:270|272:270|296:135,1,225.6,10|0,0:0|0:0,0:0:0:0:
236,130,60726,2,0,B|296:125|323:63|323:63|313:127|368:176,1,225.6,2|0,0:0|0:0,0:0:0:0:
400,92,61096,6,0,B|437:94|437:94|477:51,1,75.2,2|0,0:0|0:0,0:0:0:0:
236,52,61281,2,0,B|199:54|199:54|159:11,1,75.2,2|0,0:0|0:0,0:0:0:0:
337,2,61837,6,0,L|315:97,1,75.2,2|0,0:0|0:0,0:0:0:0:
278,223,62022,2,0,L|295:150,1,75.2,2|0,0:0|0:0,0:0:0:0:
314,290,62207,6,0,B|246:171|137:243|163:338|247:308,1,253.799992254639,6|0,0:0|0:0,0:0:0:0:
243,326,62578,1,2,0:0:0:0:
142,242,62763,1,2,0:0:0:0:
40,329,62948,2,0,P|151:279|144:130,1,225.6,10|0,0:0|0:0,0:0:0:0:
119,118,63318,2,0,P|148:222|250:261,1,225.6,2|0,0:0|0:0,0:0:0:0:
267,242,63689,5,2,0:0:0:0:
333,57,63874,1,2,0:0:0:0:
512,163,64059,1,2,0:0:0:0:
21,363,64430,6,0,P|51:345|125:324,1,94,10|0,0:0|0:0,0:0:0:0:
174,96,64800,6,0,P|204:114|278:135,1,94,6|0,0:0|0:0,0:0:0:0:
428,331,65170,6,0,B|459:357|513:323|513:323|453:304|471:275|394:235|341:343,1,282,6|0,0:0|0:0,0:0:0:0:
360,334,65541,1,2,0:0:0:0:
382,139,65726,2,0,B|376:103|376:103|418:77|454:28|454:28|461:86|483:133|483:133|452:163,1,282,6|0,0:0|0:0,0:0:0:0:
450,158,66096,1,2,0:0:0:0:
289,193,66281,1,2,0:0:0:0:
227,30,66467,1,0,0:0:0:0:
62,1,66652,6,0,P|118:72|169:213,1,225.6,2|0,0:0|0:0,0:0:0:0:
177,275,67022,2,0,B|225:224|177:190|172:172|172:172|159:187|91:212|149:289,1,225.6,2|0,0:0|0:0,0:0:0:0:
149,287,67393,1,10,0:0:0:0:
346,189,67578,1,4,0:0:0:0:
346,189,67670,1,4,0:0:0:0:
346,189,67763,1,6,0:0:0:0:
491,309,67948,1,6,0:0:0:0:
340,373,68133,6,0,B|317:290|398:253|403:258|409:266|470:223|418:121,1,253.799992254639,6|0,0:0|0:0,0:0:0:0:
418,142,68504,1,2,0:0:0:0:
371,60,68689,1,2,0:0:0:0:
340,373,68874,1,10,0:0:0:0:
61,67,70355,5,10,0:0:0:0:
165,0,70541,2,0,P|136:73|132:129,1,84.599997418213,4|0,0:0|0:0,0:0:0:0:
384,199,70726,2,0,P|372:158|353:120,1,84.599997418213,14|0,0:0|0:0,0:0:0:0:
411,64,70911,1,6,0:0:0:0:
309,368,71096,6,0,P|412:355|485:345,2,150.4,2|2|2,0:0|0:0|0:0,0:0:0:0:
191,258,72207,1,2,0:0:0:0:
72,380,72578,1,2,0:0:0:0:
27,314,72763,1,2,0:0:0:0:
66,246,72948,1,2,0:0:0:0:
113,309,73133,1,2,0:0:0:0:
0,202,73318,2,0,P|12:134|25:57,1,112.8,2|0,0:0|0:0,0:0:0:0:
13,6,73689,2,0,B|75:23|33:65|88:89,1,112.8,2|0,0:0|0:0,0:0:0:0:
102,79,74059,6,0,B|214:58|214:58|241:68|251:103,1,150.4,2|2,0:0|0:0,0:0:0:0:
322,155,74615,1,2,0:0:0:0:
426,92,74800,2,0,P|461:143|407:224,2,150.4,2|2|2,0:0|0:0|0:0,0:0:0:0:
316,20,75726,1,2,0:0:0:0:
316,20,75911,1,2,0:0:0:0:
221,81,76096,1,2,0:0:0:0:
132,18,76281,2,0,P|62:30|26:38,1,75.2,2|0,0:0|0:0,0:0:0:0:
49,121,76652,2,0,P|85:113|123:108,1,75.2,2|2,0:0|0:0,0:0:0:0:
138,320,77022,5,2,0:0:0:0:
93,254,77207,1,2,0:0:0:0:
147,194,77393,1,2,0:0:0:0:
192,258,77578,1,2,0:0:0:0:
138,320,77763,2,0,P|204:344|280:383,1,150.4,2|2,0:0|0:0,0:0:0:0:
471,273,78504,5,2,0:0:0:0:
424,198,78689,1,2,0:0:0:0:
484,138,78874,1,2,0:0:0:0:
422,79,79059,1,2,0:0:0:0:
493,20,79244,2,0,P|463:124|445:193,1,150.4,2|2,0:0|0:0,0:0:0:0:
303,18,79985,5,2,0:0:0:0:
231,37,80170,1,2,0:0:0:0:
166,114,80355,1,2,0:0:0:0:
89,101,80540,1,2,0:0:0:0:
3,30,80726,2,0,P|38:16|72:1,1,75.2,2|0,0:0|0:0,0:0:0:0:
158,129,81096,2,0,P|123:113|88:100,1,75.2,2|0,0:0|0:0,0:0:0:0:
20,168,81467,5,2,0:0:0:0:
20,168,81652,1,2,0:0:0:0:
74,242,81837,1,2,0:0:0:0:
74,242,82022,1,0,0:0:0:0:
15,351,82207,2,0,P|71:373|155:322,1,150.4,2|2,0:0|0:0,0:0:0:0:
490,69,82948,6,0,P|462:74|447:77,1,37.6,4|0,0:0|0:0,0:0:0:0:
395,8,83504,6,0,P|367:3|352:0,1,37.6,4|0,0:0|0:0,0:0:0:0:
22,69,85911,6,0,P|50:74|65:77,1,37.6,4|0,0:0|0:0,0:0:0:0:
117,8,86467,6,0,P|145:3|160:0,1,37.6,4|0,0:0|0:0,0:0:0:0:
190,244,88319,5,4,0:0:0:0:
190,244,88411,1,4,0:0:0:0:
190,244,88504,1,4,0:0:0:0:
118,193,88689,5,4,0:0:0:0:
46,317,88874,6,0,P|61:347|64:354,1,37.6,4|0,0:0|0:0,0:0:0:0:
113,272,89430,6,0,P|122:288|128:305,1,37.6,4|0,0:0|0:0,0:0:0:0:
317,159,91282,1,4,0:0:0:0:
322,244,91467,1,4,0:0:0:0:
394,193,91652,1,4,0:0:0:0:
466,317,91837,6,0,P|451:347|448:354,1,37.6,4|0,0:0|0:0,0:0:0:0:
399,272,92393,6,0,P|389:288|383:305,1,37.6,4|0,0:0|0:0,0:0:0:0:
211,144,94244,5,4,0:0:0:0:
294,62,94430,5,4,0:0:0:0:
351,114,94615,5,4,0:0:0:0:
212,258,94800,5,4,0:0:0:0:
