osu file format v14

[General]
AudioFilename: audio.ogg
AudioLeadIn: 0
PreviewTime: 75237
Countdown: 0
SampleSet: Soft
StackLeniency: 0.5
Mode: 0
LetterboxInBreaks: 0
WidescreenStoryboard: 1

[Editor]
Bookmarks: 37768,109077,141209
DistanceSpacing: 1.7
BeatDivisor: 4
GridSize: 16
TimelineZoom: 2.4

[Metadata]
Title:CHELSEA GIRL'S ESCAPE
TitleUnicode:CHELSEA GIRL'S ESCAPE
Artist:SEAPOOL
ArtistUnicode:SEAPOOL
Creator:Kudou Chitose
Version:riffy's INSANE
Source:
Tags:japanese indie rock jrock j-rock hardcore nostalgic experimental grunge punk 小原涼香 飯谷真帆 白井景 female vocals riffy bakari -bakari- mrrrk
BeatmapID:3481586
BeatmapSetID:1703895

[Difficulty]
HPDrainRate:5
CircleSize:4
OverallDifficulty:8
ApproachRate:8.2
SliderMultiplier:1.4
SliderTickRate:1

[Events]
//Background and Video events
0,0,"bgcge.jpg",0,0
//Break Periods
2,65531,66240
//Storyboard Layer 0 (Background)
//Storyboard Layer 1 (Fail)
//Storyboard Layer 2 (Pass)
//Storyboard Layer 3 (Foreground)
//Storyboard Layer 4 (Overlay)
//Storyboard Sound Samples

[TimingPoints]
343,337.078651685394,4,2,1,60,1,0
349,-100,4,2,1,60,0,0
1697,379.746835443038,4,2,1,60,1,0
1697,-100,4,2,1,60,0,0
3182,342.857142857143,4,2,1,60,1,0
3182,-100,4,2,1,60,0,0
4553,368.098159509202,4,2,1,60,1,0
4553,-100,4,2,1,60,0,0
6012,344.827586206897,4,2,1,60,1,0
6012,-100,4,2,1,60,0,0
7391,363.636363636364,4,2,1,60,1,0
7391,-100,4,2,1,60,0,0
8812,363.636363636364,4,2,1,60,1,0
8812,-100,4,2,1,60,0,0
10222,355.029585798817,4,2,1,60,1,0
10222,-100,4,2,1,60,0,0
15158,352.941176470588,4,2,1,70,1,0
15158,-100,4,2,1,70,0,0
26452,-100,4,2,1,80,0,0
47632,491.803278688525,4,2,1,85,1,0
47632,-100,4,2,1,85,0,0
48123,-100,4,2,1,80,0,0
48615,-100,4,2,1,75,0,0
49107,-100,4,2,1,70,0,0
49609,487.80487804878,4,2,1,80,1,0
49609,-100,4,2,1,80,0,0
53511,495.867768595041,4,2,1,80,1,0
53511,-100,4,2,1,80,0,0
58935,495.867768595041,4,2,1,80,1,0
58935,-100,4,2,1,80,0,0
61414,487.80487804878,4,2,1,80,1,0
61414,-100,4,2,1,80,0,0
64340,495.867768595041,4,2,1,80,1,0
64340,-100,4,2,1,80,0,0
66725,352.941176470588,4,2,1,80,1,0
66725,-100,4,2,1,80,0,0
70980,352.941176470588,4,2,1,80,1,0
70980,-100,4,2,1,80,0,0
75257,480,4,2,1,85,1,0
75257,-100,4,2,1,85,0,0
75737,-100,4,2,1,80,0,0
76217,-100,4,2,1,75,0,0
76697,-100,4,2,1,70,0,0
77195,491.803278688525,4,2,1,80,1,0
77195,-100,4,2,1,80,0,0
81129,487.80487804878,4,2,1,80,1,0
81129,-100,4,2,1,80,0,0
85051,491.803278688525,4,2,1,80,1,0
85051,-100,4,2,1,80,0,0
96834,493.827160493827,4,2,1,80,1,0
96834,-100,4,2,1,80,0,0
108192,476.190476190476,4,2,1,80,1,0
108192,-100,4,2,1,80,0,0
108670,342.857142857143,6,2,1,70,1,0
108670,-100,4,2,1,70,0,0
110727,-100,4,2,1,60,0,0
111464,355.029585798817,6,2,1,70,1,0
111464,-100,4,2,1,70,0,0
113594,-100,4,2,1,60,0,0
114274,357.142857142857,6,2,1,70,1,0
114274,-100,4,2,1,70,0,0
116416,-100,4,2,1,60,0,0
117131,352.941176470588,4,2,1,70,1,0
117131,-100,4,2,1,70,0,0
119944,303.030303030303,4,2,1,90,1,0
119944,-100,4,2,1,90,0,0
122388,292.682926829268,4,2,1,90,1,0
122388,-100,4,2,1,90,0,0
123412,306.122448979592,4,2,1,90,1,0
123412,-100,4,2,1,90,0,0
124788,303.030303030303,4,2,1,90,1,0
124788,-100,4,2,1,90,0,0
127232,303.030303030303,4,2,1,90,1,0
127232,-100,4,2,1,90,0,0
139353,-100,4,2,1,80,0,0
158747,-100,4,2,1,85,0,0
162212,303.030303030303,4,2,1,85,1,0
162212,-100,4,2,1,85,0,0
162363,303.030303030303,4,2,1,85,1,0
162363,-100,4,2,1,85,0,0
163595,297.029702970297,4,2,1,85,1,0
163595,-100,4,2,1,85,0,0
165397,297.029702970297,4,2,1,85,1,0
165397,-100,4,2,1,85,0,0
166019,298.507462686567,4,2,1,85,1,0
166019,-100,4,2,1,85,0,0
168424,298.507462686567,4,2,1,90,1,0
168424,-100,4,2,1,90,0,0
170848,306.122448979592,4,2,1,90,1,0
170848,-100,4,2,1,90,0,0
173292,303.030303030303,4,2,1,90,1,0
173292,-100,4,2,1,90,0,0
178145,320.855614973262,4,2,1,80,1,0
178145,-100,4,2,1,80,0,0
179428,-100,4,2,1,60,0,0

[Colours]
Combo1 : 103,152,154
Combo2 : 147,170,94
Combo3 : 159,100,121

[HitObjects]
93,347,343,5,8,0:1:0:0:
67,252,511,1,2,0:0:0:0:
84,155,680,1,2,0:0:0:0:
45,65,848,1,8,0:0:0:0:
265,187,1185,1,8,0:0:0:0:
432,84,1522,1,8,0:0:0:0:
440,91,1697,6,0,P|424:202|418:251,1,140,8|2,0:1|0:0,0:0:0:0:
410,336,3182,5,8,0:1:0:0:
384,241,3353,1,2,0:0:0:0:
401,144,3524,1,2,0:0:0:0:
362,54,3696,1,8,0:0:0:0:
206,174,4039,1,8,0:0:0:0:
49,70,4382,1,8,0:0:0:0:
56,77,4553,6,0,P|42:154|29:231,1,140,8|2,0:1|0:0,0:0:0:0:
95,338,6012,5,8,0:1:0:0:
190,319,6184,1,2,0:0:0:0:
287,325,6356,1,2,0:0:0:0:
385,320,6529,1,8,0:0:0:0:
276,156,6874,1,8,0:0:0:0:
418,3,7218,1,8,0:0:0:0:
416,15,7391,6,0,P|290:8|255:7,1,140,8|2,0:1|0:0,0:0:0:0:
53,41,8812,5,8,0:1:0:0:
79,135,8993,1,2,0:0:0:0:
165,79,9175,1,2,0:0:0:0:
139,222,9357,1,8,0:0:0:0:
149,205,10222,5,8,0:1:0:0:
240,163,10399,1,2,0:0:0:0:
250,266,10577,1,2,0:0:0:0:
344,224,10754,1,8,0:0:0:0:
237,276,11642,5,8,0:1:0:0:
328,234,11819,1,2,0:0:0:0:
338,337,11997,1,2,0:0:0:0:
432,295,12174,1,8,0:0:0:0:
81,351,12707,1,8,0:0:0:0:
242,32,13239,1,8,0:0:0:0:
435,295,13772,1,8,0:0:0:0:
81,351,14304,1,8,0:0:0:0:
24,284,15158,6,0,P|13:241|4:196,1,70,8|0,0:1|0:0,0:0:0:0:
37,179,15422,1,2,0:0:0:0:
37,179,15510,1,2,0:0:0:0:
47,102,15687,1,2,0:0:0:0:
55,25,15863,1,8,0:1:0:0:
202,38,16128,1,2,0:0:0:0:
202,38,16216,1,2,0:0:0:0:
190,113,16393,1,2,0:0:0:0:
183,189,16569,2,0,P|229:194|266:198,1,70,8|0,0:1|0:0,0:0:0:0:
284,219,16834,1,2,0:0:0:0:
284,219,16922,1,2,0:0:0:0:
360,212,17099,1,2,0:0:0:0:
432,239,17275,5,2,0:0:0:0:
420,145,17452,1,2,0:0:0:0:
512,223,17628,1,2,0:0:0:0:
498,146,17805,1,2,0:0:0:0:
464,40,17981,6,0,P|421:29|376:20,1,70,8|0,0:1|0:0,0:0:0:0:
359,53,18246,1,2,0:0:0:0:
359,53,18334,1,2,0:0:0:0:
282,63,18510,1,2,0:0:0:0:
205,71,18687,1,8,0:1:0:0:
222,178,18952,1,2,0:0:0:0:
222,178,19040,1,2,0:0:0:0:
234,253,19216,1,2,0:0:0:0:
241,329,19393,2,0,P|195:334|158:338,1,70,8|0,0:1|0:0,0:0:0:0:
140,359,19657,1,2,0:0:0:0:
140,359,19746,1,2,0:0:0:0:
64,352,19922,1,2,0:0:0:0:
9,253,20099,5,2,0:0:0:0:
114,265,20275,1,2,0:0:0:0:
26,177,20452,1,2,0:0:0:0:
105,184,20628,1,2,0:0:0:0:
95,37,20805,6,0,P|139:33|185:31,1,70,8|0,0:1|0:0,0:0:0:0:
196,67,21069,1,2,0:0:0:0:
196,67,21157,1,2,0:0:0:0:
271,89,21334,1,2,0:0:0:0:
346,109,21510,1,8,0:1:0:0:
258,192,21775,1,2,0:0:0:0:
258,192,21863,1,2,0:0:0:0:
246,267,22040,1,2,0:0:0:0:
239,343,22216,2,0,P|285:348|322:352,1,70,8|0,0:1|0:0,0:0:0:0:
340,373,22481,1,2,0:0:0:0:
340,373,22569,1,2,0:0:0:0:
416,366,22746,1,2,0:0:0:0:
420,272,22922,5,2,0:0:0:0:
313,248,23099,1,2,0:0:0:0:
214,271,23275,1,2,0:0:0:0:
128,254,23452,1,2,0:0:0:0:
82,128,23628,6,0,P|117:134|150:141,1,70,8|0,0:1|0:0,0:0:0:0:
179,120,23893,1,2,0:0:0:0:
179,120,23981,1,2,0:0:0:0:
262,111,24157,1,2,0:0:0:0:
347,99,24334,1,8,0:1:0:0:
429,256,24599,1,2,0:0:0:0:
429,256,24687,1,2,0:0:0:0:
326,243,24863,1,2,0:0:0:0:
211,228,25040,5,12,0:1:0:0:
237,374,25393,2,0,L|162:361,1,70,8|8,0:1|0:1,0:0:0:0:
88,347,25746,2,0,L|80:300,2,35,8|8|8,0:0|0:1|0:1,0:0:0:0:
58,193,26099,1,8,0:0:0:0:
93,197,26187,1,8,0:0:0:0:
127,202,26275,2,0,L|185:209,1,35,8|8,0:1|0:0,0:0:0:0:
196,210,26452,5,12,0:1:0:0:
292,227,26628,1,8,0:1:0:0:
266,366,26805,1,8,0:0:0:0:
138,337,26981,2,0,P|90:346|52:353,1,70,2|2,0:0|0:0,0:0:0:0:
17,178,27334,5,8,0:1:0:0:
165,243,27510,2,0,P|99:235|68:233,1,70,8|0,0:0|0:0,0:0:0:0:
255,316,27863,1,8,0:1:0:0:
351,297,28040,1,8,0:1:0:0:
433,356,28216,1,8,0:0:0:0:
500,241,28393,1,2,0:0:0:0:
505,253,28746,1,8,0:1:0:0:
388,180,28922,2,0,P|423:156|453:167,1,70,8|0,0:0|0:0,0:0:0:0:
511,18,29275,5,8,0:1:0:0:
423,61,29452,1,8,0:1:0:0:
305,18,29628,1,8,0:0:0:0:
163,56,29805,2,0,P|130:44|111:10,1,70,2|2,0:0|0:0,0:0:0:0:
246,103,30157,1,8,0:1:0:0:
158,220,30334,2,0,P|165:167|169:142,1,70,8|0,0:0|0:0,0:0:0:0:
20,105,30687,5,8,0:1:0:0:
45,199,30863,1,8,0:1:0:0:
19,293,31040,1,8,0:0:0:0:
141,372,31216,2,0,P|118:339|83:339,1,70,8|8,0:1|0:1,0:0:0:0:
213,301,31569,1,8,0:1:0:0:
348,357,31746,2,0,P|299:372|267:367,1,70,12|8,0:0|0:1,0:0:0:0:
278,228,32099,5,12,0:1:0:0:
376,222,32275,1,8,0:1:0:0:
440,295,32452,1,8,0:0:0:0:
508,184,32628,1,2,0:0:0:0:
510,195,32981,1,8,0:1:0:0:
463,90,33157,2,0,P|483:61|512:38,1,70,8|0,0:0|0:0,0:0:0:0:
360,16,33510,5,8,0:1:0:0:
372,112,33687,1,8,0:1:0:0:
320,194,33863,1,8,0:0:0:0:
358,293,34040,2,0,P|360:360|362:383,1,70,2|2,0:0|0:0,0:0:0:0:
166,256,34393,1,8,0:1:0:0:
159,264,34569,2,0,P|163:316|168:361,1,70,8|0,0:0|0:0,0:0:0:0:
255,80,34922,5,8,0:1:0:0:
296,168,35099,1,8,0:1:0:0:
258,258,35275,1,8,0:0:0:0:
277,353,35452,1,2,0:0:0:0:
284,348,35805,1,8,0:1:0:0:
112,357,35981,2,0,P|149:343|188:352,1,70,8|0,0:0|0:0,0:0:0:0:
43,252,36334,5,8,0:1:0:0:
157,267,36510,1,8,0:1:0:0:
251,238,36687,1,8,0:0:0:0:
346,269,36863,1,8,0:1:0:0:
250,225,37040,2,0,L|242:179,2,35,8|8|8,0:1|0:1|0:1,0:0:0:0:
150,280,37393,2,0,L|133:330,1,35,8|8,0:0|0:0,0:0:0:0:
83,234,37569,1,8,0:1:0:0:
77,239,37657,1,8,0:0:0:0:
73,243,37746,5,12,0:1:0:0:
72,58,38099,1,8,0:1:0:0:
162,45,38275,1,2,0:0:0:0:
252,33,38452,1,8,0:1:0:0:
265,43,38805,1,8,0:1:0:0:
237,164,38981,1,2,0:0:0:0:
208,295,39157,5,8,0:1:0:0:
417,254,39422,1,2,0:0:0:0:
417,254,39510,1,2,0:0:0:0:
389,341,39687,1,2,0:0:0:0:
314,286,39863,5,8,0:1:0:0:
314,286,40040,1,2,0:0:0:0:
314,286,40216,1,8,0:1:0:0:
501,372,40569,5,8,0:1:0:0:
496,160,40922,1,8,0:1:0:0:
407,177,41099,1,2,0:0:0:0:
318,198,41275,1,8,0:1:0:0:
26,93,41628,1,8,0:1:0:0:
137,125,41805,1,2,0:0:0:0:
248,156,41981,5,8,0:1:0:0:
189,363,42246,1,2,0:0:0:0:
189,363,42334,1,8,0:1:0:0:
138,287,42510,1,2,0:0:0:0:
228,249,42687,5,8,0:1:0:0:
228,249,42863,1,2,0:0:0:0:
228,249,43040,1,2,0:0:0:0:
477,351,43393,5,8,0:1:0:0:
296,171,43746,1,8,0:1:0:0:
385,188,43922,1,2,0:0:0:0:
473,208,44099,1,8,0:1:0:0:
352,87,44363,1,2,0:0:0:0:
352,87,44452,1,8,0:1:0:0:
296,171,44628,1,2,0:0:0:0:
240,261,44805,5,8,0:1:0:0:
99,157,45069,1,2,0:0:0:0:
99,157,45157,1,2,0:0:0:0:
31,95,45334,1,2,0:0:0:0:
130,68,45510,5,8,0:1:0:0:
130,68,45687,1,2,0:0:0:0:
130,68,45863,1,8,0:1:0:0:
174,273,46216,5,8,0:1:0:0:
318,149,46569,1,8,0:1:0:0:
414,131,46746,1,2,0:0:0:0:
510,112,46922,1,8,0:1:0:0:
299,45,47187,1,2,0:0:0:0:
299,45,47275,1,8,0:1:0:0:
318,149,47452,1,2,0:0:0:0:
341,299,47632,6,2,P|301:284|192:250,1,140,12|2,0:1|0:0,0:0:0:0:
30,183,48615,2,2,P|74:178|109:175,1,70,8|0,0:0|0:0,0:0:0:0:
207,168,49107,1,2,0:0:0:0:
460,214,49609,5,12,0:1:0:0:
439,24,50096,1,8,0:0:0:0:
342,39,50340,1,8,0:1:0:0:
512,129,50584,2,0,P|388:111|340:105,1,140,8|2,0:1|0:0,0:0:0:0:
184,197,51316,6,0,P|60:179|12:173,1,140,12|2,0:1|0:0,0:0:0:0:
14,84,52048,1,8,0:0:0:0:
95,28,52291,1,2,0:0:0:0:
156,104,52535,2,0,L|193:93,2,35,8|8|8,0:1|0:1|0:1,0:0:0:0:
286,40,53023,1,8,0:0:0:0:
317,55,53145,1,8,0:1:0:0:
348,69,53267,1,8,0:0:0:0:
380,82,53389,1,8,0:0:0:0:
426,97,53511,6,0,P|492:88|515:83,1,70,12|0,0:1|0:0,0:0:0:0:
461,235,54006,1,8,0:0:0:0:
332,188,54254,1,2,0:0:0:0:
479,350,54502,2,0,P|390:362|327:372,1,140,8|2,0:0|0:0,0:0:0:0:
48,359,55246,6,0,P|117:349|187:340,1,140,8|8,0:1|0:1,0:0:0:0:
269,286,55990,1,8,0:0:0:0:
38,204,56238,2,0,P|98:224|177:252,1,140,8|8,0:1|0:1,0:0:0:0:
273,194,56982,1,8,0:0:0:0:
266,159,57106,1,8,0:1:0:0:
259,124,57230,1,8,0:0:0:0:
252,89,57353,1,8,0:0:0:0:
246,54,57477,6,0,P|289:23|327:4,1,70,12|2,0:1|0:0,0:0:0:0:
157,40,57973,1,8,0:0:0:0:
157,40,58221,1,8,0:1:0:0:
3,20,58469,2,0,P|20:95|31:154,1,131.6,8|2,0:1|0:0,0:0:0:0:
200,239,59182,6,0,P|185:307|170:375,1,140,8|8,0:1|0:1,0:0:0:0:
38,257,59926,2,0,P|48:295|56:330,1,70,8|2,0:0|0:0,0:0:0:0:
145,74,60422,2,0,P|155:112|163:147,1,70,8|8,0:1|0:1,0:0:0:0:
354,34,60918,1,8,0:0:0:0:
343,67,61042,1,8,0:1:0:0:
332,100,61166,1,8,0:0:0:0:
320,132,61290,1,8,0:0:0:0:
308,165,61414,6,0,P|320:241|337:336,3,140,12|8|8|2,0:1|0:0|0:0|0:0,0:0:0:0:
338,43,63121,2,0,P|406:52|506:62,1,140,8|8,0:1|0:1,0:0:0:0:
247,19,63853,1,8,0:0:0:0:
247,19,64096,1,8,0:1:0:0:
156,63,64340,2,0,L|113:55,3,35,8|8|8|8,0:1|0:1|0:1|0:1,0:0:0:0:
93,35,64835,1,8,0:0:0:0:
96,69,64959,1,8,0:1:0:0:
100,103,65083,1,8,0:0:0:0:
104,137,65207,1,8,0:0:0:0:
111,184,65331,5,12,0:1:0:0:
92,273,66960,6,0,L|83:320,1,46.6666666666667
158,349,67254,1,2,0:0:0:0:
158,349,67430,2,0,P|169:303|180:265,1,70,2|2,0:0|0:0,0:0:0:0:
246,333,67783,1,2,0:0:0:0:
432,316,68136,5,8,0:1:0:0:
492,172,68489,1,8,0:1:0:0:
486,95,68666,1,2,0:0:0:0:
479,18,68842,1,8,0:1:0:0:
377,73,69107,1,2,0:0:0:0:
377,73,69195,1,8,0:1:0:0:
383,149,69372,1,2,0:0:0:0:
253,96,69548,6,0,P|243:34|240:14,1,70,8|0,0:1|0:0,0:0:0:0:
205,14,69813,1,2,0:0:0:0:
205,14,69901,1,8,0:1:0:0:
141,57,70078,1,2,0:0:0:0:
74,17,70254,5,8,0:1:0:0:
74,17,70430,1,2,0:0:0:0:
74,17,70607,1,2,0:0:0:0:
117,242,70980,5,8,0:1:0:0:
8,363,71332,1,8,0:1:0:0:
91,366,71509,1,2,0:0:0:0:
174,371,71685,1,8,0:1:0:0:
400,374,71950,1,2,0:0:0:0:
400,374,72038,1,8,0:1:0:0:
404,290,72215,1,2,0:0:0:0:
414,206,72391,5,8,0:1:0:0:
76,179,72744,1,2,0:0:0:0:
159,191,72921,1,2,0:0:0:0:
254,214,73097,5,8,0:1:0:0:
254,214,73274,1,2,0:0:0:0:
254,214,73450,1,8,0:1:0:0:
266,372,73803,5,8,0:1:0:0:
453,350,74068,1,2,0:0:0:0:
453,350,74156,1,8,0:1:0:0:
413,275,74332,1,2,0:0:0:0:
460,205,74509,1,8,0:1:0:0:
429,39,74862,1,8,0:1:0:0:
352,72,75038,1,2,0:0:0:0:
251,4,75257,5,12,0:1:0:0:
165,120,75737,1,2,0:0:0:0:
253,272,76217,1,8,0:0:0:0:
145,349,76697,1,2,0:0:0:0:
139,343,77195,5,12,0:1:0:0:
375,306,77686,1,8,0:0:0:0:
53,201,78178,2,0,P|119:216|205:239,1,140,8|2,0:1|0:0,0:0:0:0:
478,206,78916,6,0,P|410:188|342:172,1,140,12|8,0:1|0:1,0:0:0:0:
186,313,79654,2,0,P|154:336|120:362,1,70,8|2,0:0|0:0,0:0:0:0:
340,301,80145,2,0,P|308:324|274:350,1,70,8|8,0:1|0:1,0:0:0:0:
234,208,80637,1,8,0:0:0:0:
213,179,80760,1,8,0:1:0:0:
190,152,80883,1,8,0:0:0:0:
169,123,81006,1,8,0:0:0:0:
142,90,81129,6,0,P|97:74|8:39,3,140,12|8|8|2,0:1|0:0|0:0|0:0,0:0:0:0:
261,52,82836,2,0,P|341:30|419:12,1,140,12|8,0:1|0:1,0:0:0:0:
491,61,83568,1,8,0:0:0:0:
491,61,83811,1,8,0:1:0:0:
413,136,84055,2,0,L|404:187,3,35,8|8|8|8,0:1|0:1|0:1|0:1,0:0:0:0:
372,195,84543,1,8,0:0:0:0:
384,227,84665,1,8,0:1:0:0:
399,257,84787,1,8,0:0:0:0:
416,287,84909,1,8,0:0:0:0:
433,332,85051,5,12,0:1:0:0:
115,259,85542,1,8,0:0:0:0:
453,125,86034,2,0,P|373:143|292:167,1,140,8|2,0:1|0:0,0:0:0:0:
30,96,86772,6,0,P|97:77|165:62,1,140,12|8,0:1|0:1,0:0:0:0:
360,43,87510,2,0,P|303:15|279:5,1,70,8|2,0:0|0:0,0:0:0:0:
275,137,88001,2,0,P|301:154|316:162,3,35,8|8|8|8,0:1|0:1|0:1|0:1,0:0:0:0:
333,175,88493,1,8,0:0:0:0:
304,195,88616,1,8,0:1:0:0:
275,215,88739,1,8,0:0:0:0:
246,234,88862,1,8,0:0:0:0:
213,261,88985,6,0,P|277:289|339:320,3,140,12|8|8|2,0:1|0:0|0:1|0:0,0:0:0:0:
190,99,90706,6,0,P|128:68|64:40,1,140,8|8,0:1|0:1,0:0:0:0:
261,23,91444,1,8,0:0:0:0:
261,23,91690,1,8,0:1:0:0:
362,68,91936,2,0,L|421:54,3,35,8|8|8|8,0:1|0:1|0:1|0:1,0:0:0:0:
429,48,92428,1,8,0:0:0:0:
422,82,92551,1,8,0:1:0:0:
415,116,92673,1,8,0:0:0:0:
408,150,92796,1,8,0:0:0:0:
406,184,92919,5,12,0:1:0:0:
427,293,93165,1,2,0:0:0:0:
438,290,93657,1,8,0:1:0:0:
290,244,93903,1,8,0:1:0:0:
210,216,94272,1,2,0:0:0:0:
210,216,94395,1,2,0:0:0:0:
384,269,94641,5,8,0:1:0:0:
100,303,95132,1,2,0:0:0:0:
176,338,95378,1,8,0:0:0:0:
252,371,95624,1,8,0:1:0:0:
252,371,95870,1,8,0:1:0:0:
334,336,95993,2,0,L|325:299,2,35,8|8|8,0:1|0:1|0:1,0:0:0:0:
372,354,96362,1,8,0:0:0:0:
406,358,96485,1,8,0:1:0:0:
440,366,96608,1,8,0:0:0:0:
474,373,96731,1,8,0:0:0:0:
508,380,96834,6,0,P|501:328|498:307,1,70,12|2,0:1|0:0,0:0:0:0:
437,228,97327,1,8,0:0:0:0:
437,228,97574,1,8,0:1:0:0:
510,144,97821,2,0,P|503:92|500:71,1,70,8|0,0:1|0:0,0:0:0:0:
510,33,98192,1,0,0:0:0:0:
510,33,98315,1,2,0:0:0:0:
398,115,98562,5,8,0:1:0:0:
411,130,99056,1,8,0:1:0:0:
305,95,99303,1,8,0:0:0:0:
194,57,99550,1,8,0:1:0:0:
64,146,99796,1,8,0:1:0:0:
112,214,100043,2,0,L|127:274,1,35,8|8,0:1|0:1,0:0:0:0:
132,288,100290,1,8,0:0:0:0:
168,308,100414,1,8,0:1:0:0:
204,328,100537,1,8,0:0:0:0:
241,347,100661,1,8,0:0:0:0:
276,369,100784,6,0,P|264:322|254:282,1,70,12|2,0:1|0:0,0:0:0:0:
311,198,101278,1,8,0:0:0:0:
311,198,101525,1,8,0:1:0:0:
383,366,101772,2,0,P|395:333|408:301,1,70,8|0,0:1|0:0,0:0:0:0:
448,288,102142,1,2,0:0:0:0:
448,288,102266,1,2,0:0:0:0:
434,56,102513,6,0,P|421:144|409:211,1,140,8|8,0:1|0:1,0:0:0:0:
240,289,103253,2,0,P|250:346|255:380,1,70,8|8,0:0|0:1,0:0:0:0:
299,137,103747,2,0,L|308:172,3,35,8|8|8|8,0:1|0:1|0:1|0:1,0:0:0:0:
341,207,104241,1,8,0:0:0:0:
336,238,104364,1,8,0:1:0:0:
331,269,104488,1,8,0:0:0:0:
323,299,104611,1,8,0:0:0:0:
313,337,104735,6,0,P|356:338|400:344,1,70,12|2,0:1|0:0,0:0:0:0:
231,378,105229,1,8,0:0:0:0:
231,378,105475,1,8,0:1:0:0:
42,350,105722,2,0,L|123:343,1,70,8|0,0:1|0:0,0:0:0:0:
126,315,106093,1,0,0:0:0:0:
126,315,106216,1,2,0:0:0:0:
24,134,106463,6,0,P|91:157|171:192,1,140,8|8,0:1|0:1,0:0:0:0:
326,234,107204,1,8,0:0:0:0:
406,184,107451,1,8,0:1:0:0:
315,122,107698,1,8,0:1:0:0:
239,180,107945,1,8,0:1:0:0:
146,72,108192,1,8,0:0:0:0:
114,77,108311,1,8,0:1:0:0:
83,84,108430,1,8,0:0:0:0:
53,93,108549,1,8,0:0:0:0:
24,100,108670,6,0,P|13:143|4:188,1,70,12|0,0:1|0:0,0:0:0:0:
37,205,108927,1,2,0:0:0:0:
37,205,109012,1,2,0:0:0:0:
47,282,109184,1,2,0:0:0:0:
55,359,109355,1,8,0:1:0:0:
202,346,109612,1,2,0:0:0:0:
202,346,109698,1,2,0:0:0:0:
190,271,109870,1,2,0:0:0:0:
183,195,110041,2,0,P|229:190|266:186,1,70,8|0,0:1|0:0,0:0:0:0:
284,165,110298,1,2,0:0:0:0:
284,165,110384,1,2,0:0:0:0:
360,172,110555,1,2,0:0:0:0:
48,40,111464,6,0,P|91:29|136:20,1,70,8|0,0:1|0:0,0:0:0:0:
153,53,111730,1,2,0:0:0:0:
153,53,111819,1,2,0:0:0:0:
230,63,111996,1,2,0:0:0:0:
307,71,112174,1,8,0:1:0:0:
290,178,112440,1,2,0:0:0:0:
290,178,112529,1,2,0:0:0:0:
278,253,112706,1,2,0:0:0:0:
271,329,112884,2,0,P|317:334|354:338,1,70,8|0,0:1|0:0,0:0:0:0:
372,359,113150,1,2,0:0:0:0:
372,359,113239,1,2,0:0:0:0:
448,352,113416,1,2,0:0:0:0:
24,284,114274,6,0,P|13:241|4:196,1,70,8|0,0:1|0:0,0:0:0:0:
37,179,114541,1,2,0:0:0:0:
37,179,114631,1,2,0:0:0:0:
47,102,114809,1,2,0:0:0:0:
55,25,114988,1,8,0:1:0:0:
202,38,115256,1,2,0:0:0:0:
202,38,115345,1,2,0:0:0:0:
190,113,115524,1,2,0:0:0:0:
183,189,115702,2,0,P|229:194|266:198,1,70,8|0,0:1|0:0,0:0:0:0:
284,219,115970,1,2,0:0:0:0:
284,219,116059,1,2,0:0:0:0:
360,212,116238,1,2,0:0:0:0:
24,284,117131,6,0,P|13:241|4:196,1,70,8|0,0:1|0:0,0:0:0:0:
37,179,117395,1,2,0:0:0:0:
37,179,117483,1,2,0:0:0:0:
47,102,117660,1,2,0:0:0:0:
55,25,117836,1,8,0:1:0:0:
202,38,118101,1,2,0:0:0:0:
202,38,118189,1,2,0:0:0:0:
190,113,118366,1,2,0:0:0:0:
165,197,118542,1,8,0:0:0:0:
307,341,118807,1,8,0:1:0:0:
487,255,119072,1,8,0:1:0:0:
251,192,119248,5,8,0:0:0:0:
325,265,119513,1,8,0:1:0:0:
415,223,119778,1,8,0:1:0:0:
379,130,119944,6,0,P|388:71|392:40,1,70,12|8,0:1|0:1,0:0:0:0:
260,95,120247,2,0,P|250:151|244:181,1,70,8|8,0:0|0:1,0:0:0:0:
117,67,120550,1,2,0:0:0:0:
35,137,120701,2,0,P|55:176|82:152,2,70,2|8|12,0:0|0:1|0:1,0:0:0:0:
156,188,121156,5,0,0:0:0:0:
103,321,121307,2,0,P|99:269|98:231,1,70,8|8,0:1|0:0,0:0:0:0:
185,363,121610,1,2,0:0:0:0:
185,363,121762,1,8,0:1:0:0:
284,312,121913,1,8,0:1:0:0:
284,312,122065,1,8,0:0:0:0:
388,374,122216,5,8,0:1:0:0:
497,260,122388,2,0,P|420:238|362:225,1,140,12|8,0:1|0:0,0:0:0:0:
474,152,122827,1,8,0:1:0:0:
472,143,122973,2,0,P|481:114|525:102,1,70,2|2,0:0|0:0,0:0:0:0:
364,11,123266,6,0,P|373:45|382:79,1,70,8|12,0:1|0:1,0:0:0:0:
319,151,123565,2,0,P|256:141|233:137,1,70,0|8,0:0|0:1,0:0:0:0:
182,82,123871,1,8,0:0:0:0:
168,174,124024,1,8,0:1:0:0:
210,357,124330,1,8,0:1:0:0:
293,349,124483,1,8,0:0:0:0:
202,347,124636,1,8,0:1:0:0:
50,333,124788,6,0,P|104:318|145:309,1,70,12|0,0:1|0:0,0:0:0:0:
49,214,125091,1,8,0:0:0:0:
3,136,125394,5,8,0:1:0:0:
138,161,125621,5,2,0:0:0:0:
253,223,125848,5,12,0:1:0:0:
239,242,126000,5,8,0:1:0:0:
363,157,126227,5,2,0:0:0:0:
512,155,126454,5,8,0:1:0:0:
486,108,126606,5,8,0:1:0:0:
507,26,126757,1,2,0:0:0:0:
387,4,126909,2,0,P|396:48|401:86,1,70,8|8,0:0|0:1,0:0:0:0:
260,115,127232,2,0,P|167:84|110:70,1,140,12|8,0:1|0:0,0:0:0:0:
56,26,127686,5,8,0:1:0:0:
7,99,127838,2,0,P|34:132|64:117,2,70,8|8|0,0:1|0:1|0:0,0:0:0:0:
39,228,128292,6,0,P|47:292|52:330,1,70,12|0,0:1|0:0,0:0:0:0:
129,218,128595,1,2,0:0:0:0:
169,311,128747,2,0,P|215:254|266:195,1,140,8|8,0:0|0:1,0:0:0:0:
436,313,129353,2,0,P|474:287|506:268,1,70,8|8,0:0|0:1,0:0:0:0:
362,371,129656,5,12,0:1:0:0:
391,155,129959,2,0,P|372:207|362:241,1,70,8|8,0:0|0:1,0:0:0:0:
307,305,130262,1,2,0:0:0:0:
307,305,130413,1,2,0:0:0:0:
197,252,130565,2,0,P|230:228|265:245,1,70,8|8,0:1|0:1,0:0:0:0:
178,351,131019,5,8,0:1:0:0:
31,305,131171,2,0,P|84:308|129:312,1,70,8|2,0:0|0:0,0:0:0:0:
130,190,131474,2,0,P|74:200|54:206,1,70,8|8,0:1|0:1,0:0:0:0:
8,120,131777,1,8,0:0:0:0:
8,120,131928,1,8,0:1:0:0:
49,26,132080,5,12,0:1:0:0:
234,49,132384,1,8,0:0:0:0:
321,351,132686,5,2,0:0:0:0:
401,326,132838,1,2,0:0:0:0:
245,294,132989,2,0,P|203:289|168:285,1,70,8|12,0:1|0:1,0:0:0:0:
308,235,133444,1,8,0:1:0:0:
243,143,133596,1,8,0:0:0:0:
244,136,133898,5,8,0:1:0:0:
333,98,134049,1,8,0:1:0:0:
254,38,134201,1,8,0:0:0:0:
166,81,134352,1,8,0:1:0:0:
68,20,134504,5,12,0:1:0:0:
137,173,134731,5,2,0:0:0:0:
126,327,134958,5,8,0:1:0:0:
59,283,135110,5,8,0:1:0:0:
222,290,135338,5,2,0:0:0:0:
343,365,135565,5,8,0:1:0:0:
414,334,135716,6,0,P|392:284|373:247,1,70,12|0,0:1|0:0,0:0:0:0:
501,182,136019,1,8,0:0:0:0:
501,182,136171,1,8,0:1:0:0:
501,182,136322,2,0,P|489:232|482:257,1,70,8|0,0:1|0:0,0:0:0:0:
391,157,136625,1,8,0:0:0:0:
124,146,136928,6,0,P|145:228|155:304,1,140,8|8,0:1|0:0,0:0:0:0:
108,354,137383,1,8,0:1:0:0:
37,308,137535,1,8,0:1:0:0:
37,308,137686,1,8,0:1:0:0:
202,365,137989,5,12,0:1:0:0:
350,286,138292,1,2,0:0:0:0:
350,286,138444,1,8,0:0:0:0:
509,368,138747,2,0,P|473:377|446:362,1,70,8|8,0:1|0:1,0:0:0:0:
505,248,139050,2,0,P|476:263|432:283,1,70,8|8,0:0|0:1,0:0:0:0:
354,204,139353,5,12,0:1:0:0:
469,110,139504,1,2,0:0:0:0:
332,194,139807,1,2,0:0:0:0:
243,167,139959,1,8,0:1:0:0:
156,197,140110,1,8,0:1:0:0:
66,142,140413,6,0,P|53:68|45:1,1,140,12|0,0:1|0:0,0:0:0:0:
33,246,140868,6,0,P|23:308|20:330,1,70,8|0,0:1|0:0,0:0:0:0:
254,341,141777,6,0,P|238:286|213:202,1,140,8|8,0:1|0:0,0:0:0:0:
268,142,142232,1,2,0:0:0:0:
366,205,142383,1,8,0:1:0:0:
470,160,142535,1,8,0:1:0:0:
399,353,142838,6,0,P|383:284|372:216,1,140,12|0,0:1|0:0,0:0:0:0:
483,78,143292,2,0,P|478:113|472:147,1,70,8|0,0:1|0:0,0:0:0:0:
258,341,144201,6,0,P|274:286|299:202,1,140,8|8,0:1|0:0,0:0:0:0:
244,142,144656,1,2,0:0:0:0:
146,205,144807,1,8,0:1:0:0:
42,160,144959,1,8,0:1:0:0:
112,353,145262,6,0,P|128:284|140:216,1,140,12|0,0:1|0:0,0:0:0:0:
40,148,145716,2,0,P|31:95|27:64,1,70,8|0,0:1|0:0,0:0:0:0:
237,358,146625,6,0,P|221:303|196:219,1,140,8|8,0:1|0:0,0:0:0:0:
253,148,147080,1,2,0:0:0:0:
364,220,147232,1,8,0:1:0:0:
343,132,147383,1,8,0:1:0:0:
282,229,147535,1,2,0:0:0:0:
132,196,147686,6,0,P|66:168|-11:138,1,140,12|8,0:1|0:1,0:0:0:0:
93,84,148141,1,8,0:0:0:0:
93,84,148292,2,0,P|135:67|160:85,1,70,8|12,0:1|0:1,0:0:0:0:
448,199,148747,2,0,P|406:216|381:198,1,70,12|0,0:1|0:0,0:0:0:0:
316,65,149050,5,8,0:1:0:0:
173,305,149353,1,8,0:0:0:0:
140,155,149656,1,8,0:1:0:0:
225,135,149807,1,8,0:1:0:0:
293,206,149959,1,8,0:0:0:0:
388,191,150110,1,8,0:1:0:0:
398,208,150413,5,8,0:1:0:0:
288,191,150565,1,8,0:0:0:0:
133,341,150868,1,8,0:1:0:0:
218,318,151019,1,8,0:1:0:0:
302,350,151171,1,8,0:0:0:0:
58,269,151474,5,12,0:1:0:0:
113,24,151777,1,8,0:0:0:0:
320,253,152080,1,8,0:1:0:0:
348,331,152232,1,8,0:1:0:0:
337,242,152383,1,8,0:0:0:0:
211,356,152535,6,0,P|112:350|42:343,1,140,8|8,0:1|0:1,0:0:0:0:
23,277,152989,1,8,0:0:0:0:
12,290,153292,1,8,0:1:0:0:
84,209,153443,1,8,0:1:0:0:
36,119,153595,2,0,P|27:83|21:49,1,70,8|2,0:0|0:0,0:0:0:0:
117,12,153898,5,8,0:1:0:0:
176,340,154201,1,8,0:0:0:0:
365,267,154504,1,8,0:1:0:0:
445,242,154656,1,8,0:1:0:0:
347,253,154807,1,8,0:0:0:0:
474,137,154959,6,0,P|400:146|306:165,1,140,8|8,0:1|0:1,0:0:0:0:
254,48,155413,2,0,P|239:88|247:115,1,70,8|2,0:0|0:0,0:0:0:0:
254,211,155716,1,8,0:1:0:0:
254,211,155868,1,8,0:1:0:0:
305,300,156019,2,0,P|297:357|297:388,1,70,8|8,0:0|0:1,0:0:0:0:
365,217,156322,5,12,0:1:0:0:
168,358,156625,1,8,0:0:0:0:
85,341,156928,1,8,0:1:0:0:
2,325,157080,1,8,0:1:0:0:
74,243,157232,1,8,0:0:0:0:
65,236,157383,6,0,P|40:188|16:101,1,140,12|8,0:1|0:1,0:0:0:0:
169,14,157838,2,0,P|149:86|135:154,1,140,8|8,0:0|0:1,0:0:0:0:
232,221,158292,1,8,0:1:0:0:
259,142,158444,1,8,0:0:0:0:
253,234,158595,1,8,0:1:0:0:
410,190,158747,6,0,P|440:267|458:347,1,140,12|8,0:1|0:0,0:0:0:0:
386,373,159201,1,2,0:0:0:0:
351,296,159353,1,8,0:1:0:0:
351,296,159504,1,8,0:1:0:0:
275,331,159656,1,8,0:0:0:0:
180,284,159807,6,0,P|133:300|38:332,1,140,12|8,0:1|0:1,0:0:0:0:
7,176,160262,2,0,P|81:192|154:210,1,140,8|8,0:0|0:1,0:0:0:0:
215,164,160716,1,8,0:1:0:0:
147,63,160868,2,0,P|116:88|122:129,1,70,8|0,0:0|0:0,0:0:0:0:
251,29,161171,6,0,P|304:56|384:100,1,140,12|8,0:1|0:0,0:0:0:0:
417,16,161625,1,2,0:0:0:0:
477,134,161777,2,0,P|497:90|515:58,1,70,8|8,0:1|0:1,0:0:0:0:
397,178,162080,1,8,0:0:0:0:
512,242,162212,6,0,P|467:261|386:303,1,140,12|8,0:1|0:1,0:0:0:0:
280,238,162666,2,0,P|318:220|334:236,1,70,8|2,0:0|0:0,0:0:0:0:
288,347,162969,1,8,0:1:0:0:
213,308,163120,1,8,0:1:0:0:
130,291,163272,1,8,0:0:0:0:
63,239,163423,1,8,0:1:0:0:
14,133,163595,5,12,0:1:0:0:
75,375,163892,1,8,0:0:0:0:
253,245,164189,1,8,0:1:0:0:
334,225,164337,1,8,0:1:0:0:
416,209,164486,1,8,0:0:0:0:
507,304,164634,6,0,P|420:307|350:306,1,140,12|8,0:1|0:1,0:0:0:0:
254,350,165080,2,0,P|166:341|151:339,1,70,8|2,0:0|0:0,0:0:0:0:
62,265,165397,1,8,0:1:0:0:
46,182,165545,1,8,0:1:0:0:
34,99,165694,2,0,P|40:75|88:63,1,70,8|8,0:0|0:1,0:0:0:0:
160,202,166019,5,12,0:1:0:0:
333,110,166317,2,0,P|376:101|413:94,1,70,8|2,0:0|0:0,0:0:0:0:
445,199,166616,1,8,0:1:0:0:
364,223,166765,1,8,0:1:0:0:
286,190,166914,1,8,0:0:0:0:
178,134,167063,6,0,P|115:117|29:101,1,140,12|8,0:1|0:1,0:0:0:0:
221,60,167511,2,0,P|225:14|185:8,1,70,8|8,0:0|0:1,0:0:0:0:
268,138,167810,2,0,P|256:188|255:216,1,70,8|8,0:0|0:1,0:0:0:0:
369,66,168108,2,0,P|416:52|450:43,1,70,8|8,0:0|0:1,0:0:0:0:
498,167,168424,5,12,0:1:0:0:
405,358,168722,2,0,P|414:309|421:279,1,70,8|8,0:0|0:1,0:0:0:0:
289,190,169021,2,0,P|323:216|346:255,1,70,8|8,0:1|0:1,0:0:0:0:
414,180,169319,1,8,0:0:0:0:
313,321,169468,6,0,P|258:332|161:360,1,140,12|8,0:1|0:1,0:0:0:0:
21,289,169916,2,0,P|65:306|104:318,1,70,8|8,0:0|0:1,0:0:0:0:
229,210,170215,2,0,P|185:227|148:243,1,70,8|8,0:0|0:1,0:0:0:0:
42,132,170513,2,0,P|86:149|125:161,1,70,8|8,0:0|0:1,0:0:0:0:
196,35,170848,5,12,0:1:0:0:
193,50,171154,1,8,0:0:0:0:
237,121,171307,1,8,0:1:0:0:
311,29,171460,2,0,P|351:12|386:3,1,70,8|8,0:1|0:1,0:0:0:0:
466,54,171766,1,8,0:0:0:0:
334,137,171919,6,0,P|409:137|494:146,1,140,12|8,0:1|0:1,0:0:0:0:
297,223,172378,2,0,P|293:269|288:312,1,70,8|8,0:0|0:1,0:0:0:0:
420,373,172684,2,0,P|406:339|380:307,1,70,8|8,0:0|0:1,0:0:0:0:
497,236,172990,2,0,P|462:244|453:206,1,70,8|8,0:0|0:1,0:0:0:0:
284,303,173292,6,0,P|210:342|130:381,1,140,12|8,0:1|0:0,0:0:0:0:
85,327,173746,1,8,0:1:0:0:
152,243,173898,2,0,P|131:189|117:147,1,70,8|8,0:1|0:1,0:0:0:0:
175,96,174201,1,8,0:0:0:0:
56,24,174352,6,0,P|45:94|35:176,1,140,12|8,0:1|0:1,0:0:0:0:
46,307,174807,2,0,P|25:269|0:234,1,70,8|8,0:0|0:1,0:0:0:0:
130,220,175110,2,0,P|179:204|202:210,1,70,8|8,0:0|0:1,0:0:0:0:
281,270,175413,2,0,P|277:307|239:323,1,70,8|8,0:0|0:1,0:0:0:0:
308,160,175716,6,0,P|392:133|458:116,1,140,12|8,0:1|0:0,0:0:0:0:
499,181,176170,1,8,0:1:0:0:
502,33,176322,2,0,P|442:13|408:6,1,70,8|8,0:1|0:1,0:0:0:0:
367,61,176625,1,8,0:0:0:0:
255,18,176776,6,0,P|249:115|246:191,1,140,12|8,0:1|0:1,0:0:0:0:
308,227,177231,1,8,0:0:0:0:
308,227,177382,1,8,0:1:0:0:
222,298,177534,1,8,0:0:0:0:
222,298,177685,1,8,0:1:0:0:
326,371,177837,2,0,P|377:360|401:356,1,70,8|8,0:0|0:1,0:0:0:0:
183,379,178145,5,8,0:1:0:0:
107,284,178305,1,2,0:0:0:0:
156,173,178465,1,2,0:0:0:0:
96,61,178626,1,8,0:0:0:0:
285,193,178947,1,8,0:0:0:0:
428,76,179267,1,8,0:0:0:0:
438,80,179428,6,0,P|429:169|405:369,1,280,8|0,0:1|0:0,0:0:0:0:
