osu file format v14

[General]
AudioFilename: audio.ogg
AudioLeadIn: 0
PreviewTime: 75237
Countdown: 0
SampleSet: Soft
StackLeniency: 0.5
Mode: 0
LetterboxInBreaks: 0
WidescreenStoryboard: 0

[Editor]
Bookmarks: 26474,37768,49649,65290,77656,93380,108984,120228,129921,139618,149315,159012,168629,178305
DistanceSpacing: 1.3
BeatDivisor: 4
GridSize: 16
TimelineZoom: 3.999999

[Metadata]
Title:CHELSEA GIRL'S ESCAPE
TitleUnicode:CHELSEA GIRL'S ESCAPE
Artist:SEAPOOL
ArtistUnicode:SEAPOOL
Creator:Kudou Chitose
Version:NO TURNING BACK
Source:
Tags:japanese indie rock jrock j-rock hardcore nostalgic experimental grunge punk 小原涼香 飯谷真帆 白井景 female vocals riffy bakari -bakari- mrrrk
BeatmapID:3481585
BeatmapSetID:1703895

[Difficulty]
HPDrainRate:6
CircleSize:4.5
OverallDifficulty:7.2
ApproachRate:9
SliderMultiplier:1.4
SliderTickRate:1

[Events]
//Background and Video events
0,0,"bgcge.jpg",0,0
//Break Periods
//Storyboard Layer 0 (Background)
//Storyboard Layer 1 (Fail)
//Storyboard Layer 2 (Pass)
//Storyboard Layer 3 (Foreground)
//Storyboard Layer 4 (Overlay)
//Storyboard Sound Samples

[TimingPoints]
343,337.078651685394,4,2,1,60,1,0
343,-100,4,2,1,60,0,0
1697,379.746835443038,4,2,1,60,1,0
1697,-100,4,2,1,60,0,0
3182,342.857142857143,4,2,1,60,1,0
3182,-100,4,2,1,60,0,0
4553,368.098159509202,4,2,1,60,1,0
4553,-100,4,2,1,60,0,0
6012,344.827586206897,4,2,1,60,1,0
6012,-100,4,2,1,60,0,0
7391,363.636363636364,4,2,1,60,1,0
7391,-100,4,2,1,60,0,0
8802,-100,4,2,1,60,0,0
8812,363.636363636364,4,2,1,60,1,0
10222,355.029585798817,4,2,1,60,1,0
10222,-100,4,2,1,60,0,0
15014,-100,4,2,1,5,0,0
15158,352.941176470588,4,2,1,70,1,0
25044,-100,4,2,1,70,0,0
26452,-83.3333333333333,4,2,1,80,0,0
41981,-74.0740740740741,4,2,1,80,0,0
42334,-83.3333333333333,4,2,1,80,0,0
47632,491.803278688525,4,2,1,80,1,0
47632,-50,4,2,1,85,0,0
48123,-66.6666666666667,4,2,1,80,0,0
48615,-100,4,2,1,75,0,0
49107,-133.333333333333,4,2,1,70,0,0
49609,487.80487804878,4,2,1,80,1,0
49609,-50,4,2,1,80,0,0
50096,-75.187969924812,4,2,1,80,0,0
51316,-66.6666666666667,4,2,1,80,0,0
52048,-80,4,2,1,80,0,0
52535,-100,4,2,1,80,0,0
53511,495.867768595041,4,2,1,80,1,0
53511,-66.6666666666667,4,2,1,80,0,0
57477,-50,4,2,1,80,0,0
58469,-75.187969924812,4,2,1,80,0,0
58935,495.867768595041,4,2,1,80,1,0
59182,-66.6666666666667,4,2,1,80,0,0
59926,-80,4,2,1,80,0,0
60422,-100,4,2,1,80,0,0
61414,487.80487804878,4,2,1,80,1,0
61414,-66.6666666666667,4,2,1,80,0,0
64340,495.867768595041,4,2,1,80,1,0
64340,-66.6666666666667,4,2,1,80,0,0
65331,-133.333333333333,4,2,1,80,0,0
66725,352.941176470588,4,2,1,80,1,0
67783,-166.666666666667,4,2,1,80,0,0
68136,-83.3333333333333,4,2,1,80,0,0
70980,352.941176470588,4,2,1,80,1,0
70980,-83.3333333333333,4,2,1,80,0,0
75257,480,4,2,1,85,1,0
75257,-50,4,2,1,85,0,0
75737,-66.6666666666667,4,2,1,80,0,0
76217,-100,4,2,1,75,0,0
76697,-133.333333333333,4,2,1,70,0,0
77195,491.803278688525,4,2,1,80,1,0
77195,-50,4,2,1,80,0,0
77686,-75.187969924812,4,2,1,80,0,0
78916,-66.6666666666667,4,2,1,80,0,0
79654,-80,4,2,1,80,0,0
81129,487.80487804878,4,2,1,80,1,0
81129,-66.6666666666667,4,2,1,80,0,0
85051,491.803278688525,4,2,1,80,1,0
85051,-50,4,2,1,80,0,0
86034,-75.187969924812,4,2,1,80,0,0
86772,-66.6666666666667,4,2,1,80,0,0
87510,-80,4,2,1,80,0,0
88985,-66.6666666666667,4,2,1,80,0,0
92919,-50,4,2,1,80,0,0
93903,-66.6666666666667,4,2,1,80,0,0
96834,493.827160493827,4,2,1,80,1,0
96834,-66.6666666666667,4,2,1,80,0,0
108192,476.190476190476,4,2,1,80,1,0
108670,342.857142857143,6,2,1,80,1,0
108670,-100,6,2,1,70,0,0
110727,-500,6,2,1,60,0,0
111464,355.029585798817,6,2,1,70,1,0
113594,-250,6,2,1,60,0,0
114274,357.142857142857,6,2,1,70,1,0
116416,-666.666666666667,6,2,1,60,0,0
117131,352.941176470588,4,2,1,70,1,0
119944,303.030303030303,4,2,1,80,1,0
119944,-66.6666666666667,4,2,1,90,0,0
122388,292.682926829268,4,2,1,90,1,0
122388,-66.6666666666667,4,2,1,90,0,0
123412,306.122448979592,4,2,1,90,1,0
123412,-66.6666666666667,4,2,1,90,0,0
124788,303.030303030303,4,2,1,90,1,0
124788,-62.5,4,2,1,90,0,0
125394,-71.4285714285714,4,2,1,90,0,0
126000,-83.3333333333333,4,2,1,90,0,0
126606,-100,4,2,1,90,0,0
127232,303.030303030303,4,2,1,90,1,0
127232,-66.6666666666667,4,2,1,90,0,0
134504,-50,4,2,1,90,0,0
135110,-66.6666666666667,4,2,1,90,0,0
135716,-80,4,2,1,90,0,0
136322,-100,4,2,1,90,0,0
136928,-66.6666666666667,4,2,1,90,0,0
139353,-83.3333333333333,4,2,1,80,0,0
140413,-66.6666666666667,4,2,1,80,0,0
141777,-83.3333333333333,4,2,1,80,0,0
142838,-66.6666666666667,4,2,1,80,0,0
144201,-83.3333333333333,4,2,1,80,0,0
145262,-66.6666666666667,4,2,1,80,0,0
146625,-100,4,2,1,80,0,0
147686,-83.3333333333333,4,2,1,80,0,0
148444,-66.6666666666667,4,2,1,80,0,0
149050,-83.3333333333333,4,2,1,80,0,0
151171,-66.6666666666667,4,2,1,80,0,0
151474,-83.3333333333333,4,2,1,80,0,0
156322,-66.6666666666667,4,2,1,80,0,0
158747,-83.3333333333333,4,2,1,85,0,0
162212,303.030303030303,4,2,1,85,1,0
162363,303.030303030303,4,2,1,85,1,0
163595,297.029702970297,4,2,1,85,1,0
163595,-83.3333333333333,4,2,1,85,0,0
165397,297.029702970297,4,2,1,85,1,0
166019,298.507462686567,4,2,1,85,1,0
166019,-83.3333333333333,4,2,1,85,0,0
168424,298.507462686567,4,2,1,90,1,0
168424,-66.6666666666667,4,2,1,90,0,0
170848,306.122448979592,4,2,1,90,1,0
170848,-66.6666666666667,4,2,1,90,0,0
173292,303.030303030303,4,2,1,90,1,0
173292,-66.6666666666667,4,2,1,90,0,0
177231,-83.3333333333333,4,2,1,90,0,0
177534,-66.6666666666667,4,2,1,90,0,0
177837,-100,4,2,1,90,0,0
178145,320.855614973262,4,2,1,80,1,0
178145,-100,4,2,1,80,0,0
179428,-133.333333333333,4,2,1,60,0,0

[Colours]
Combo1 : 231,216,109
Combo2 : 220,185,120
Combo3 : 185,126,91

[HitObjects]
30,0,343,5,8,0:1:0:0:
157,157,511,1,2,0:0:0:0:
30,0,680,5,2,0:0:0:0:
26,147,848,1,8,0:0:0:0:
90,193,1185,5,8,0:0:0:0:
157,157,1522,5,8,0:0:0:0:
355,227,1697,2,0,P|359:298|318:360,1,140,8|2,0:1|0:0,0:0:0:0:
324,354,2836,5,2,0:0:0:0:
324,354,3182,5,8,0:1:0:0:
443,258,3353,1,2,0:0:0:0:
324,354,3524,5,2,0:0:0:0:
365,161,3696,1,8,0:0:0:0:
438,182,4039,5,8,0:0:0:0:
443,258,4382,5,8,0:0:0:0:
230,349,4553,2,0,P|172:318|140:253,1,140,8|2,0:1|0:0,0:0:0:0:
140,253,5657,5,2,0:0:0:0:
140,253,6012,5,8,0:1:0:0:
184,59,6184,1,2,0:0:0:0:
140,253,6356,5,2,0:0:0:0:
85,116,6529,1,8,0:0:0:0:
116,55,6874,5,8,0:0:0:0:
184,59,7218,5,8,0:0:0:0:
377,155,7391,2,0,P|441:135|473:69,1,140,8|2,0:1|0:0,0:0:0:0:
472,73,8481,5,2,0:0:0:0:
472,73,8812,5,8,0:1:0:0:
398,21,8993,1,2,0:0:0:0:
321,68,9175,1,2,0:0:0:0:
472,73,9357,5,8,0:0:0:0:
321,68,10222,5,8,0:1:0:0:
231,83,10399,1,2,0:0:0:0:
210,171,10577,1,2,0:0:0:0:
321,68,10754,5,8,0:0:0:0:
210,171,11642,5,8,0:1:0:0:
156,245,11819,1,2,0:0:0:0:
204,322,11997,1,2,0:0:0:0:
210,171,12174,5,8,0:0:0:0:
204,322,12707,5,8,0:0:0:0:
210,171,13239,5,8,0:0:0:0:
321,68,13772,5,8,0:0:0:0:
472,73,14304,5,8,0:0:0:0:
204,322,14837,6,0,B|216:354|216:354|208:390,1,70,2|0,0:0|0:0,0:0:0:0:
134,366,15158,6,0,L|42:385,1,70,8|0,0:1|0:0,0:0:0:0:
50,372,15422,1,2,0:0:0:0:
36,364,15510,1,2,0:0:0:0:
3,288,15687,1,2,0:0:0:0:
111,256,15863,6,0,L|203:275,1,70,8|0,0:1|0:0,0:0:0:0:
195,262,16128,1,2,0:0:0:0:
209,254,16216,1,2,0:0:0:0:
242,178,16393,1,2,0:0:0:0:
134,146,16569,6,0,L|42:165,1,70,8|0,0:1|0:0,0:0:0:0:
50,152,16834,1,2,0:0:0:0:
36,144,16922,1,2,0:0:0:0:
3,68,17099,1,2,0:0:0:0:
117,28,17275,6,0,P|130:16|131:0,1,35,2|0,0:0|0:0,0:0:0:0:
117,28,17452,6,0,P|110:12|95:6,1,35,2|0,0:0|0:0,0:0:0:0:
117,28,17628,6,0,P|99:29|89:42,1,35,2|0,0:0|0:0,0:0:0:0:
117,28,17805,6,0,P|113:45|121:58,1,35,2|0,0:0|0:0,0:0:0:0:
117,28,17981,6,0,P|148:38|194:37,1,70,8|0,0:1|0:0,0:0:0:0:
198,35,18246,1,2,0:0:0:0:
210,31,18334,1,2,0:0:0:0:
273,81,18510,1,2,0:0:0:0:
210,132,18687,6,0,P|237:149|282:160,1,70,8|0,0:1|0:0,0:0:0:0:
286,159,18952,1,2,0:0:0:0:
299,158,19040,1,2,0:0:0:0:
346,223,19216,1,2,0:0:0:0:
271,255,19393,6,0,P|292:279|333:301,1,70,8|0,0:1|0:0,0:0:0:0:
338,301,19657,1,2,0:0:0:0:
351,304,19746,1,2,0:0:0:0:
379,379,19922,1,2,0:0:0:0:
460,293,20099,6,0,L|427:268,1,35,2|0,0:0|0:0,0:0:0:0:
460,293,20275,6,0,L|426:316,1,35,2|0,0:0|0:0,0:0:0:0:
460,293,20452,6,0,L|472:332,1,35,2|0,0:0|0:0,0:0:0:0:
460,293,20628,6,0,L|501:293,1,35,2|0,0:0|0:0,0:0:0:0:
460,293,20805,6,0,L|481:222,1,70,8|0,0:1|0:0,0:0:0:0:
476,214,21069,1,2,0:0:0:0:
471,202,21157,1,2,0:0:0:0:
506,122,21334,1,2,0:0:0:0:
432,39,21510,6,0,L|411:110,1,70,8|0,0:1|0:0,0:0:0:0:
409,119,21775,1,2,0:0:0:0:
406,131,21863,1,2,0:0:0:0:
377,210,22040,1,0,0:0:0:0:
280,228,22216,6,0,L|303:157,1,70,8|0,0:1|0:0,0:0:0:0:
311,153,22481,1,2,0:0:0:0:
322,146,22569,1,2,0:0:0:0:
339,60,22746,1,2,0:0:0:0:
202,49,22922,6,0,B|192:35|192:35|193:18,1,35,2|0,0:0|0:0,0:0:0:0:
202,49,23099,6,0,B|212:35|212:35|228:30,1,35,2|0,0:0|0:0,0:0:0:0:
202,49,23275,6,0,B|218:54|218:54|227:68,1,35,2|0,0:0|0:0,0:0:0:0:
202,49,23452,6,0,B|201:66|201:66|191:79,1,35,2|0,0:0|0:0,0:0:0:0:
202,49,23628,6,0,B|185:54|185:54|122:43,1,70,8|0,0:1|0:0,0:0:0:0:
120,51,23893,1,2,0:0:0:0:
109,55,23981,1,2,0:0:0:0:
124,138,24157,1,2,0:0:0:0:
49,200,24334,6,0,B|60:212|60:212|121:234,1,70,8|0,0:1|0:0,0:0:0:0:
119,242,24599,1,2,0:0:0:0:
126,251,24687,1,2,0:0:0:0:
72,316,24863,1,2,0:0:0:0:
256,336,25040,6,0,L|341:321,1,70,12|2,0:1|0:0,0:0:0:0:
399,274,25393,1,8,0:1:0:0:
416,271,25481,1,8,0:1:0:0:
433,268,25569,1,8,0:1:0:0:
450,265,25657,1,8,0:1:0:0:
471,246,25746,5,8,0:0:0:0:
445,233,25834,1,8,0:1:0:0:
419,220,25922,1,8,0:1:0:0:
393,207,26010,1,8,0:1:0:0:
376,176,26099,5,8,0:0:0:0:
400,150,26187,1,8,0:0:0:0:
414,118,26275,1,8,0:1:0:0:
409,76,26363,1,8,0:0:0:0:
386,40,26452,6,0,P|348:21|290:23,1,83.9999974365235,12|8,0:1|0:1,0:0:0:0:
127,50,26805,1,8,0:0:0:0:
299,101,26981,1,2,0:0:0:0:
304,103,27069,1,2,0:0:0:0:
309,105,27157,1,2,0:0:0:0:
236,0,27334,5,8,0:1:0:0:
185,164,27510,2,0,P|197:203|239:230,1,83.9999974365235,8|0,0:0|0:0,0:0:0:0:
387,168,27863,6,0,P|364:167|342:174,1,41.9999987182618,8|0,0:1|0:0,0:0:0:0:
230,227,28040,1,8,0:1:0:0:
374,235,28216,1,8,0:0:0:0:
324,374,28393,1,2,0:0:0:0:
322,379,28481,1,2,0:0:0:0:
320,384,28569,1,2,0:0:0:0:
430,354,28746,5,8,0:1:0:0:
273,284,28922,2,0,P|234:299|189:288,1,83.9999974365235,8|0,0:0|0:0,0:0:0:0:
58,307,29275,6,0,P|72:288|94:276,1,41.9999987182618,8|0,0:1|0:0,0:0:0:0:
193,290,29452,1,8,0:1:0:0:
125,344,29628,5,8,0:0:0:0:
25,231,29805,1,2,0:0:0:0:
19,226,29893,1,2,0:0:0:0:
14,222,29981,1,2,0:0:0:0:
59,384,30157,5,8,0:1:0:0:
150,206,30334,2,0,P|147:164|124:119,1,83.9999974365235,8|0,0:0|0:0,0:0:0:0:
87,48,30687,5,8,0:1:0:0:
42,124,30863,1,8,0:1:0:0:
129,126,31040,1,8,0:0:0:0:
87,30,31216,5,8,0:1:0:0:
26,132,31393,1,8,0:1:0:0:
144,135,31569,1,8,0:1:0:0:
144,67,31657,1,8,0:1:0:0:
87,30,31746,1,12,0:0:0:0:
26,132,31922,5,8,0:1:0:0:
168,253,32099,6,0,P|188:257|212:254,1,41.9999987182618,12|0,0:1|0:0,0:0:0:0:
331,191,32275,1,8,0:1:0:0:
193,189,32452,1,8,0:0:0:0:
344,271,32628,1,2,0:0:0:0:
349,275,32716,1,2,0:0:0:0:
354,278,32805,1,2,0:0:0:0:
244,322,32981,5,8,0:1:0:0:
263,142,33157,2,0,P|289:110|334:94,1,83.9999974365235,8|0,0:0|0:0,0:0:0:0:
506,136,33510,6,0,P|487:145|466:146,1,41.9999987182618,8|0,0:1|0:0,0:0:0:0:
327,94,33687,1,8,0:1:0:0:
467,67,33863,1,8,0:0:0:0:
341,171,34040,1,2,0:0:0:0:
337,175,34128,1,2,0:0:0:0:
332,179,34216,1,2,0:0:0:0:
386,39,34393,5,8,0:1:0:0:
416,212,34569,2,0,P|429:254|401:303,1,83.9999974365235,8|0,0:0|0:0,0:0:0:0:
241,261,34922,6,0,P|259:250|289:252,1,41.9999987182618,8|0,0:1|0:0,0:0:0:0:
415,289,35099,1,8,0:1:0:0:
278,317,35275,1,8,0:0:0:0:
405,217,35452,1,2,0:0:0:0:
410,214,35540,1,2,0:0:0:0:
416,212,35628,1,2,0:0:0:0:
357,354,35805,5,8,0:1:0:0:
332,179,35981,2,0,P|295:161|237:164,1,83.9999974365235,8|0,0:0|0:0,0:0:0:0:
152,129,36334,5,8,0:1:0:0:
252,159,36510,1,8,0:1:0:0:
81,145,36687,5,8,0:0:0:0:
170,239,36863,1,8,0:1:0:0:
10,130,37040,5,8,0:1:0:0:
16,158,37128,1,8,0:1:0:0:
23,186,37216,1,8,0:1:0:0:
29,214,37305,1,8,0:1:0:0:
70,222,37393,5,8,0:0:0:0:
61,263,37481,5,8,0:0:0:0:
76,301,37569,5,8,0:1:0:0:
112,321,37657,5,8,0:0:0:0:
153,319,37746,6,0,P|194:317|225:345,1,83.9999974365235,12|0,0:1|0:0,0:0:0:0:
301,324,38010,1,2,0:0:0:0:
296,319,38099,6,0,P|255:317|224:345,1,83.9999974365235,8|2,0:1|0:0,0:0:0:0:
223,239,38452,6,0,P|253:210|246:164,1,83.9999974365235,8|0,0:1|0:0,0:0:0:0:
172,89,38716,1,2,0:0:0:0:
181,85,38805,6,0,P|200:97|215:126,1,41.9999987182618,8|0,0:1|0:0,0:0:0:0:
248,129,38981,2,0,P|252:150|243:182,1,41.9999987182618,2|0,0:0|0:0,0:0:0:0:
336,192,39157,6,0,P|376:203|412:174,1,83.9999974365235,8|0,0:1|0:0,0:0:0:0:
418,182,39422,1,2,0:0:0:0:
427,184,39510,1,2,0:0:0:0:
359,83,39687,1,2,0:0:0:0:
330,301,39863,5,8,0:1:0:0:
359,83,40216,5,8,0:1:0:0:
256,32,40393,5,2,0:0:0:0:
153,83,40569,2,0,P|115:87|83:53,1,83.9999974365235,8|0,0:1|0:0,0:0:0:0:
10,89,40834,5,2,0:0:0:0:
15,83,40922,2,0,P|53:87|85:53,1,83.9999974365235,8|2,0:1|0:0,0:0:0:0:
87,167,41275,6,0,P|98:205|65:244,1,83.9999974365235,8|0,0:1|0:0,0:0:0:0:
97,318,41540,1,2,0:0:0:0:
87,312,41628,6,0,P|98:274|65:235,1,83.9999974365235,8|2,0:1|0:0,0:0:0:0:
186,238,41981,6,0,P|226:262|276:259,1,94.5000003604889,8|0,0:1|0:0,0:0:0:0:
365,193,42246,1,2,0:0:0:0:
373,204,42334,6,0,P|352:220|322:230,1,41.9999987182618,8|0,0:1|0:0,0:0:0:0:
314,258,42510,2,0,P|287:261|256:255,1,41.9999987182618,2|0,0:0|0:0,0:0:0:0:
251,142,42687,6,2,B|217:111|231:46|231:46|267:40|295:2,1,167.999994873047,8|2,0:1|0:0,0:0:0:0:
154,54,43216,5,2,0:0:0:0:
306,93,43393,2,0,P|348:97|380:66,1,83.9999974365235,8|0,0:1|0:0,0:0:0:0:
455,86,43657,1,2,0:0:0:0:
449,92,43746,6,0,P|407:96|375:65,1,83.9999974365235,8|2,0:1|0:0,0:0:0:0:
382,171,44099,6,0,P|388:210|425:236,1,83.9999974365235,8|0,0:1|0:0,0:0:0:0:
410,349,44363,1,2,0:0:0:0:
400,349,44452,6,0,P|400:327|415:296,1,41.9999987182618,8|0,0:1|0:0,0:0:0:0:
396,267,44628,2,0,P|407:247|435:228,1,41.9999987182618,2|0,0:0|0:0,0:0:0:0:
301,249,44805,6,0,P|260:251|221:285,1,83.9999974365235,8|0,0:1|0:0,0:0:0:0:
217,274,45069,1,2,0:0:0:0:
208,273,45157,1,2,0:0:0:0:
295,341,45334,1,2,0:0:0:0:
188,133,45510,5,8,0:1:0:0:
295,341,45863,5,8,0:1:0:0:
181,384,46040,5,2,0:0:0:0:
92,304,46216,2,0,P|82:264|43:241,1,83.9999974365235,8|0,0:1|0:0,0:0:0:0:
8,174,46481,1,2,0:0:0:0:
0,183,46569,6,0,P|36:202|47:245,1,83.9999974365235,8|2,0:1|0:0,0:0:0:0:
119,192,46922,6,0,P|159:193|196:170,1,83.9999974365235,8|0,0:1|0:0,0:0:0:0:
256,62,47187,1,2,0:0:0:0:
248,70,47275,6,0,P|251:89|243:126,1,41.9999987182618,8|0,0:1|0:0,0:0:0:0:
215,134,47452,2,0,P|208:151|182:180,1,41.9999987182618,2|0,0:0|0:0,0:0:0:0:
249,269,47632,6,2,P|308:345|424:382,1,210,12|0,0:1|0:0,0:0:0:0:
424,317,48123,6,2,P|347:293|300:211,1,157.500006008148,2|0,0:0|0:0,0:0:0:0:
363,197,48615,6,2,P|383:238|444:248,1,105,8|0,0:0|0:0,0:0:0:0:
477,193,49107,6,2,P|488:158|476:116,1,78.7500030040742,2|0,0:0|0:0,0:0:0:0:
429,15,49609,6,0,L|421:162,1,140,12|2,0:1|0:0,0:0:0:0:
200,226,50096,1,8,0:0:0:0:
311,191,50340,1,8,0:1:0:0:
421,154,50584,6,0,L|429:12,1,139.649994246598,8|0,0:1|0:0,0:0:0:0:
363,0,51072,1,2,0:0:0:0:
231,135,51316,6,0,P|183:137|147:80,1,105.000004005432,12|2,0:1|0:0,0:0:0:0:
309,91,51804,1,2,0:0:0:0:
178,0,52048,6,0,P|217:18|218:65,1,87.5,8|2,0:0|0:0,0:0:0:0:
44,85,52535,5,8,0:1:0:0:
32,103,52657,1,8,0:1:0:0:
24,123,52779,1,8,0:1:0:0:
25,144,52901,1,8,0:1:0:0:
32,164,53023,5,8,0:0:0:0:
56,194,53145,5,8,0:1:0:0:
107,204,53267,5,8,0:0:0:0:
172,180,53389,5,8,0:0:0:0:
230,222,53511,6,0,L|248:345,1,105.000004005432,12|0,0:1|0:0,0:0:0:0:
318,190,54006,2,0,L|332:282,1,52.5000020027161,8|0,0:0|0:0,0:0:0:0:
340,344,54254,1,2,0:0:0:0:
415,197,54502,6,0,L|433:320,2,105.000004005432,8|2|2,0:0|0:0|0:0,0:0:0:0:
507,90,55246,6,0,P|481:24|398:1,1,157.500006008148,8|0,0:1|0:0,0:0:0:0:
352,45,55742,1,8,0:1:0:0:
415,197,55990,1,8,0:0:0:0:
427,83,56238,1,8,0:1:0:0:
490,231,56486,5,8,0:1:0:0:
501,254,56610,1,8,0:1:0:0:
503,280,56734,1,8,0:1:0:0:
499,306,56858,1,8,0:1:0:0:
485,328,56982,5,8,0:0:0:0:
444,351,57106,5,8,0:1:0:0:
392,350,57230,5,8,0:0:0:0:
322,328,57353,5,8,0:0:0:0:
251,350,57477,6,0,L|106:358,1,140,12|2,0:1|0:0,0:0:0:0:
37,166,57973,1,8,0:0:0:0:
72,264,58221,1,8,0:1:0:0:
111,357,58469,6,0,L|252:350,1,139.649994246598,8|0,0:1|0:0,0:0:0:0:
269,284,58935,1,2,0:0:0:0:
125,189,59182,6,0,P|113:138|148:82,1,105.000004005432,8|2,0:1|0:0,0:0:0:0:
200,230,59678,1,8,0:1:0:0:
221,76,59926,6,0,P|225:117|195:150,1,87.5,8|2,0:0|0:0,0:0:0:0:
343,226,60422,5,8,0:1:0:0:
363,219,60546,1,8,0:1:0:0:
382,210,60670,1,8,0:1:0:0:
399,197,60794,1,8,0:1:0:0:
412,181,60918,5,8,0:0:0:0:
430,146,61042,5,8,0:1:0:0:
423,93,61166,5,8,0:0:0:0:
444,26,61290,5,8,0:0:0:0:
512,0,61414,6,0,L|499:127,1,105.000004005432,12|0,0:1|0:0,0:0:0:0:
412,181,61901,2,0,L|403:275,1,52.5000020027161,8|0,0:0|0:0,0:0:0:0:
398,316,62145,1,8,0:1:0:0:
273,179,62389,6,0,L|283:74,2,105.000004005432,8|2|2,0:0|0:0|0:0,0:0:0:0:
116,349,63121,6,0,P|43:362|1:301,1,157.500006008148,8|0,0:1|0:0,0:0:0:0:
34,237,63609,1,8,0:1:0:0:
202,288,63853,1,8,0:0:0:0:
70,297,64096,1,8,0:1:0:0:
135,166,64340,5,8,0:1:0:0:
153,146,64463,1,8,0:1:0:0:
168,124,64587,1,8,0:1:0:0:
175,98,64711,1,8,0:1:0:0:
178,71,64835,5,8,0:0:0:0:
198,28,64959,5,8,0:1:0:0:
247,5,65083,5,8,0:0:0:0:
317,24,65207,5,8,0:0:0:0:
350,97,65331,5,12,0:1:0:0:
350,97,66960,5,2,0:0:0:0:
410,190,67254,5,2,0:0:0:0:
343,168,67430,1,2,0:0:0:0:
306,194,67607,1,2,0:0:0:0:
284,183,67783,2,2,P|263:180|229:187,1,41.9999987182618,2|0,0:0|0:0,0:0:0:0:
161,107,68136,6,0,B|164:149|131:187,1,83.9999974365235,8|0,0:1|0:0,0:0:0:0:
114,265,68401,1,2,0:0:0:0:
105,261,68489,6,0,B|102:219|135:181,1,83.9999974365235,8|2,0:1|0:0,0:0:0:0:
243,264,68842,6,0,B|269:297|320:302,1,83.9999974365235,8|0,0:1|0:0,0:0:0:0:
390,348,69107,1,2,0:0:0:0:
388,339,69195,6,0,B|362:306|311:301,1,83.9999974365235,8|2,0:1|0:0,0:0:0:0:
423,194,69548,6,0,B|447:155|425:109,1,83.9999974365235,8|0,0:1|0:0,0:0:0:0:
491,5,69813,1,2,0:0:0:0:
476,7,69901,6,0,P|459:21|453:46,1,41.9999987182618,8|0,0:1|0:0,0:0:0:0:
423,72,70077,2,0,P|421:94|432:121,1,41.9999987182618,2|0,0:0|0:0,0:0:0:0:
344,150,70254,6,2,B|296:175|240:152|240:152|235:117|205:95,1,167.999994873047,8|2,0:1|0:0,0:0:0:0:
298,75,70783,5,2,0:0:0:0:
324,252,70980,2,0,P|304:288|256:293,1,83.9999974365235,8|0,0:1|0:0,0:0:0:0:
207,346,71244,1,2,0:0:0:0:
204,339,71332,6,0,P|224:303|272:298,1,83.9999974365235,8|2,0:1|0:0,0:0:0:0:
113,290,71685,6,0,P|77:270|72:222,1,83.9999974365235,8|0,0:1|0:0,0:0:0:0:
8,121,71950,1,2,0:0:0:0:
20,122,72038,6,0,P|35:136|37:158,1,41.9999987182618,8|0,0:1|0:0,0:0:0:0:
70,191,72215,2,0,P|76:211|67:231,1,41.9999987182618,2|0,0:0|0:0,0:0:0:0:
200,197,72391,6,0,P|237:175|244:137,1,83.9999974365235,8|0,0:1|0:0,0:0:0:0:
242,127,72656,1,2,0:0:0:0:
240,117,72744,1,2,0:0:0:0:
140,92,72921,1,2,0:0:0:0:
372,18,73097,5,8,0:1:0:0:
140,92,73450,5,8,0:1:0:0:
55,63,73627,5,2,0:0:0:0:
7,137,73803,6,0,P|7:178|40:214,1,83.9999974365235,8|0,0:1|0:0,0:0:0:0:
54,287,74068,1,2,0:0:0:0:
59,283,74156,6,0,P|59:242|26:206,1,83.9999974365235,8|2,0:1|0:0,0:0:0:0:
179,153,74509,6,0,P|218:163|236:208,1,83.9999974365235,8|0,0:1|0:0,0:0:0:0:
267,320,74774,1,2,0:0:0:0:
258,319,74862,6,0,P|249:302|249:269,1,41.9999987182618,8|0,0:1|0:0,0:0:0:0:
225,239,75038,2,0,P|226:220|242:192,1,41.9999987182618,2|0,0:0|0:0,0:0:0:0:
287,63,75257,6,2,P|384:31|490:74,1,210,12|0,0:1|0:0,0:0:0:0:
478,172,75737,6,2,P|434:112|356:100,1,157.500006008148,2|0,0:0|0:0,0:0:0:0:
404,171,76217,6,2,P|422:219|393:281,1,105,8|0,0:0|0:0,0:0:0:0:
356,220,76697,6,2,P|331:250|286:259,1,78.7500030040742,2|0,0:0|0:0,0:0:0:0:
153,182,77195,6,0,L|301:192,1,140,12|0,0:1|0:0,0:0:0:0:
421,44,77686,1,8,0:0:0:0:
357,118,77932,1,8,0:1:0:0:
292,191,78178,6,0,L|154:182,1,139.649994246598,8|0,0:1|0:0,0:0:0:0:
86,209,78670,1,2,0:0:0:0:
69,4,78916,6,0,P|114:5|152:55,1,105.000004005432,12|2,0:1|0:0,0:0:0:0:
0,34,79408,1,8,0:1:0:0:
144,115,79654,6,0,P|102:106|87:64,1,87.5,8|2,0:0|0:0,0:0:0:0:
296,78,80145,5,8,0:1:0:0:
317,75,80268,1,8,0:1:0:0:
338,74,80391,1,8,0:1:0:0:
359,75,80514,1,8,0:1:0:0:
380,79,80637,5,8,0:0:0:0:
354,108,80760,5,8,0:1:0:0:
349,160,80883,5,8,0:0:0:0:
396,211,81006,5,8,0:0:0:0:
469,218,81129,6,0,L|426:338,1,105.000004005432,12|2,0:1|0:0,0:0:0:0:
278,359,81616,2,0,L|295:309,1,52.5000020027161,8|0,0:0|0:0,0:0:0:0:
329,226,81860,1,2,0:0:0:0:
227,131,82104,6,0,L|262:32,1,105.000004005432,8|0,0:0|0:0,0:0:0:0:
334,25,82470,2,0,L|313:86,1,52.5000020027161,2|2,0:0|0:0,0:0:0:0:
211,252,82836,6,0,P|138:256|90:190,1,157.500006008148,12|0,0:1|0:0,0:0:0:0:
111,125,83324,1,8,0:1:0:0:
299,141,83568,1,8,0:0:0:0:
170,185,83811,1,8,0:1:0:0:
299,28,84055,5,8,0:1:0:0:
324,22,84177,1,8,0:1:0:0:
350,18,84299,1,8,0:1:0:0:
376,20,84421,1,8,0:1:0:0:
401,24,84543,5,8,0:0:0:0:
380,66,84665,5,8,0:1:0:0:
405,118,84787,5,8,0:0:0:0:
472,147,84909,5,8,0:0:0:0:
498,215,85051,6,0,L|478:373,1,140,12|2,0:1|0:0,0:0:0:0:
267,309,85542,1,8,0:0:0:0:
374,332,85788,1,8,0:1:0:0:
480,353,86034,6,0,L|500:215,1,139.649994246598,8|0,0:1|0:0,0:0:0:0:
472,147,86526,1,2,0:0:0:0:
282,198,86772,6,0,P|234:191|203:140,1,105.000004005432,12|2,0:1|0:0,0:0:0:0:
354,180,87264,1,8,0:1:0:0:
268,54,87510,6,0,P|286:97|270:133,1,87.5,8|2,0:0|0:0,0:0:0:0:
74,204,88001,5,8,0:1:0:0:
70,225,88124,1,8,0:1:0:0:
61,245,88247,1,8,0:1:0:0:
49,263,88370,1,8,0:1:0:0:
34,278,88493,5,8,0:0:0:0:
71,291,88616,5,8,0:1:0:0:
98,335,88739,5,8,0:0:0:0:
161,367,88862,5,8,0:0:0:0:
229,348,88985,6,0,L|259:213,1,105.000004005432,12|2,0:1|0:0,0:0:0:0:
382,138,89477,2,0,L|370:189,1,52.5000020027161,8|0,0:0|0:0,0:0:0:0:
349,270,89723,1,2,0:0:0:0:
190,173,89969,6,8,L|220:38,1,105.000004005432,8|0,0:1|0:0,0:1:0:0:
294,53,90337,2,0,L|282:104,1,52.5000020027161,2|2,0:0|0:0,0:0:0:0:
300,339,90706,6,0,P|375:353|432:292,1,157.500006008148,8|0,0:1|0:0,0:0:0:0:
448,234,91198,1,8,0:1:0:0:
273,159,91444,1,8,0:0:0:0:
349,270,91690,1,8,0:1:0:0:
434,107,91936,5,8,0:1:0:0:
442,82,92059,1,8,0:1:0:0:
447,56,92182,1,8,0:1:0:0:
447,29,92305,1,8,0:1:0:0:
443,2,92428,5,8,0:0:0:0:
401,24,92551,5,8,0:1:0:0:
344,32,92673,5,8,0:0:0:0:
277,0,92796,5,8,0:0:0:0:
212,35,92919,6,0,P|194:100|221:178,1,140,12|2,0:1|0:0,0:0:0:0:
334,213,93411,1,8,0:0:0:0:
213,167,93657,1,8,0:1:0:0:
442,144,93903,6,0,P|462:190|454:255,1,105.000004005432,8|0,0:1|0:0,0:0:0:0:
383,286,94272,2,0,P|377:311|356:337,1,52.5000020027161,2|2,0:0|0:0,0:0:0:0:
105,311,94641,6,0,P|150:370|229:354,1,157.500006008148,8|0,0:1|0:0,0:0:0:0:
290,316,95132,1,2,0:0:0:0:
213,167,95378,1,8,0:0:0:0:
177,302,95624,1,8,0:1:0:0:
347,240,95870,5,8,0:1:0:0:
372,233,95993,1,8,0:1:0:0:
398,232,96116,1,8,0:1:0:0:
423,236,96239,1,8,0:1:0:0:
448,242,96362,5,8,0:0:0:0:
430,285,96485,5,8,0:1:0:0:
380,314,96608,5,8,0:0:0:0:
312,300,96731,5,8,0:0:0:0:
279,239,96834,6,0,P|281:187|312:145,1,105.000004005432,12|2,0:1|0:0,0:0:0:0:
203,30,97327,2,0,P|209:56|195:98,1,52.5000020027161,8|0,0:0|0:0,0:0:0:0:
159,155,97574,1,8,0:1:0:0:
6,43,97821,6,0,P|63:27|136:90,1,157.500006008148,8|0,0:1|0:0,0:0:0:0:
159,155,98315,2,0,P|159:181|141:210,1,52.5000020027161,2|0,0:0|0:0,0:0:0:0:
34,284,98562,6,0,P|72:217|150:205,1,157.500006008148,8|0,0:1|0:0,0:0:0:0:
216,196,99056,1,8,0:1:0:0:
230,379,99303,1,8,0:0:0:0:
119,283,99550,1,8,0:1:0:0:
351,245,99796,5,8,0:1:0:0:
376,240,99920,1,8,0:1:0:0:
400,230,100043,1,8,0:1:0:0:
421,215,100167,1,8,0:1:0:0:
438,195,100290,5,8,0:0:0:0:
391,186,100414,5,8,0:1:0:0:
352,143,100537,5,8,0:0:0:0:
352,69,100661,5,8,0:0:0:0:
304,12,100784,6,0,P|255:7|211:41,1,105.000004005432,12|2,0:1|0:0,0:0:0:0:
253,169,101278,1,8,0:0:0:0:
212,38,101525,1,8,0:1:0:0:
73,38,101772,6,0,P|39:73|38:129,1,105.000004005432,8|0,0:1|0:0,0:0:0:0:
102,162,102142,2,0,P|112:186|107:221,1,52.5000020027161,2|2,0:0|0:0,0:0:0:0:
147,372,102513,6,0,P|78:377|29:299,1,157.500006008148,8|0,0:1|0:0,0:0:0:0:
48,242,103006,1,8,0:1:0:0:
223,259,103253,1,8,0:0:0:0:
108,305,103500,1,8,0:1:0:0:
168,142,103747,5,8,0:1:0:0:
175,116,103871,1,8,0:1:0:0:
178,89,103994,1,8,0:1:0:0:
174,62,104117,1,8,0:1:0:0:
166,36,104241,5,8,0:0:0:0:
202,5,104364,5,8,0:1:0:0:
259,0,104488,5,8,0:0:0:0:
312,48,104611,5,8,0:0:0:0:
297,118,104735,6,0,P|302:167|349:199,1,105.000004005432,12|2,0:1|0:0,0:0:0:0:
233,347,105229,2,0,P|237:322|259:294,1,52.5000020027161,8|0,0:0|0:0,0:0:0:0:
323,270,105475,1,8,0:1:0:0:
444,332,105722,6,0,P|371:333|323:249,1,157.500006008148,8|0,0:1|0:0,0:0:0:0:
261,227,106216,2,0,P|242:209|204:197,1,52.5000020027161,2|0,0:0|0:0,0:0:0:0:
106,263,106463,6,0,P|176:267|218:199,1,157.500006008148,8|0,0:1|0:0,0:0:0:0:
245,134,106957,1,8,0:1:0:0:
62,112,107204,1,8,0:0:0:0:
144,199,107451,1,8,0:1:0:0:
302,50,107698,5,8,0:1:0:0:
327,44,107821,1,8,0:1:0:0:
353,42,107945,1,8,0:1:0:0:
379,44,108068,1,8,0:1:0:0:
404,50,108192,5,8,0:0:0:0:
441,78,108311,5,8,0:1:0:0:
472,126,108430,5,8,0:0:0:0:
467,199,108549,5,8,0:0:0:0:
417,252,108670,6,0,L|324:243,1,70,12|0,0:1|0:0,0:0:0:0:
338,244,108927,1,2,0:0:0:0:
329,242,109012,1,2,0:0:0:0:
292,172,109184,1,2,0:0:0:0:
307,310,109355,6,0,L|229:303,1,70,8|0,0:1|0:0,0:0:0:0:
228,302,109612,1,2,0:0:0:0:
219,300,109698,1,2,0:0:0:0:
182,230,109870,1,2,0:0:0:0:
197,368,110041,6,0,L|119:361,1,70,8|0,0:1|0:0,0:0:0:0:
118,360,110298,1,2,0:0:0:0:
109,358,110384,1,2,0:0:0:0:
72,288,110555,1,2,0:0:0:0:
107,183,110727,6,2,L|113:232,1,49,2|0,0:0|0:0,0:0:0:0:
41,153,111464,6,0,P|63:124|98:110,1,70,8|0,0:1|0:0,0:0:0:0:
104,110,111730,1,2,0:0:0:0:
115,110,111819,1,2,0:0:0:0:
144,35,111996,1,2,0:0:0:0:
198,135,112174,6,0,P|220:164|255:178,1,70,8|0,0:1|0:0,0:0:0:0:
261,178,112440,1,2,0:0:0:0:
272,178,112529,1,2,0:0:0:0:
301,253,112707,1,2,0:0:0:0:
355,153,112884,6,0,P|377:124|412:110,1,70,8|0,0:1|0:0,0:0:0:0:
418,110,113150,1,2,0:0:0:0:
429,110,113239,1,2,0:0:0:0:
458,35,113416,1,2,0:0:0:0:
512,194,113594,6,2,P|467:202|417:173,1,98,2|0,0:0|0:0,0:0:0:0:
339,69,114274,6,0,L|263:47,1,70,8|0,0:1|0:0,0:0:0:0:
262,46,114541,1,2,0:0:0:0:
253,43,114631,1,2,0:0:0:0:
180,0,114809,1,2,0:0:0:0:
177,88,114988,6,0,L|107:126,1,70,8|0,0:1|0:0,0:0:0:0:
105,125,115256,1,2,0:0:0:0:
97,129,115345,1,2,0:0:0:0:
15,151,115524,1,2,0:0:0:0:
71,221,115702,6,0,L|48:296,1,70,8|0,0:1|0:0,0:0:0:0:
47,298,115970,1,2,0:0:0:0:
44,307,116059,1,2,0:0:0:0:
0,380,116238,1,2,0:0:0:0:
127,353,116416,6,2,P|145:350|161:343,1,36.749998878479,2|0,0:0|0:0,0:0:0:0:
236,363,117131,6,0,B|240:328|240:328|220:287,1,70,8|0,0:1|0:0,0:0:0:0:
217,286,117395,1,2,0:0:0:0:
210,276,117483,1,2,0:0:0:0:
136,239,117660,1,2,0:0:0:0:
259,169,117836,6,0,B|237:141|237:141|193:126,1,70,8|0,0:1|0:0,0:0:0:0:
191,127,118101,1,2,0:0:0:0:
179,125,118189,1,2,0:0:0:0:
100,152,118366,1,2,0:0:0:0:
226,36,118542,5,8,0:0:0:0:
360,148,118807,5,8,0:1:0:0:
195,208,119072,5,8,0:1:0:0:
275,111,119248,5,8,0:0:0:0:
319,229,119513,5,8,0:1:0:0:
195,208,119778,5,8,0:1:0:0:
107,38,119944,6,0,L|95:91,1,52.5000020027161,12|0,0:1|0:0,0:0:0:0:
5,129,120095,1,8,0:1:0:0:
9,154,120171,1,8,0:1:0:0:
13,179,120247,1,8,0:0:0:0:
17,204,120322,1,8,0:0:0:0:
21,229,120398,2,0,P|53:271|107:278,1,105.000004005432,8|2,0:1|0:0,0:0:0:0:
195,208,120701,1,2,0:0:0:0:
102,279,120853,5,8,0:1:0:0:
171,96,121004,2,0,B|192:55|234:66|234:66|279:76|302:35,1,157.500006008148,12|0,0:1|0:0,0:0:0:0:
246,0,121307,1,8,0:1:0:0:
323,131,121459,6,0,P|277:150|224:132,1,105.000004005432,8|2,0:0|0:0,0:0:0:0:
396,62,121762,5,8,0:1:0:0:
512,90,121913,1,8,0:1:0:0:
323,131,122065,5,8,0:0:0:0:
439,159,122216,1,8,0:1:0:0:
251,201,122388,6,0,L|252:260,1,52.5000020027161,12|0,0:1|0:0,0:0:0:0:
338,346,122534,1,8,0:1:0:0:
340,319,122607,1,8,0:1:0:0:
342,292,122680,1,8,0:0:0:0:
344,265,122753,1,8,0:0:0:0:
346,239,122827,2,0,P|298:227|246:263,1,105.000004005432,8|2,0:1|0:0,0:0:0:0:
185,315,123119,1,2,0:0:0:0:
262,365,123266,1,8,0:1:0:0:
115,376,123412,6,0,B|80:351|91:308|91:308|102:266|69:233,1,157.500006008148,12|0,0:1|0:0,0:0:0:0:
0,217,123718,1,8,0:1:0:0:
203,188,123871,6,0,P|187:208|161:224,1,52.5000020027161,8|0,0:0|0:0,0:0:0:0:
35,134,124024,2,0,P|64:151|108:154,1,52.5000020027161,8|0,0:1|0:0,0:0:0:0:
166,89,124177,1,8,0:1:0:0:
367,167,124330,5,8,0:1:0:0:
384,239,124483,1,8,0:0:0:0:
312,218,124636,1,8,0:1:0:0:
468,181,124789,6,0,L|498:71,1,112,12|0,0:1|0:0,0:0:0:0:
505,67,125015,1,2,0:0:0:0:
512,60,125091,1,8,0:0:0:0:
396,31,125242,1,8,0:1:0:0:
314,108,125394,6,0,L|274:9,1,97.9999970092774,8|0,0:1|0:0,0:0:0:0:
271,14,125621,1,2,0:0:0:0:
266,9,125697,1,8,0:0:0:0:
396,31,125848,1,12,0:1:0:0:
368,168,126000,6,0,P|332:188|284:182,1,83.9999974365235,8|0,0:1|0:0,0:0:0:0:
282,182,126227,1,2,0:0:0:0:
274,180,126303,1,8,0:0:0:0:
199,111,126454,1,8,0:1:0:0:
173,253,126606,6,0,P|147:229|143:192,1,70,8|0,0:1|0:0,0:0:0:0:
145,188,126833,1,2,0:0:0:0:
149,180,126909,1,8,0:0:0:0:
199,111,127060,1,8,0:1:0:0:
269,278,127232,6,0,B|287:301|287:301|214:325,1,105.000004005432,12|0,0:1|0:0,0:0:0:0:
205,328,127459,1,2,0:0:0:0:
196,330,127535,1,8,0:0:0:0:
89,383,127686,1,8,0:1:0:0:
7,298,127838,5,8,0:1:0:0:
196,330,127989,1,8,0:1:0:0:
55,19,128292,6,0,P|40:124|56:232,1,210.000008010865,12|0,0:1|0:0,0:0:0:0:
119,45,128747,2,0,P|109:120|120:207,1,157.500006008148,8|0,0:0|0:0,0:0:0:0:
110,272,129050,1,8,0:1:0:0:
194,330,129201,1,8,0:1:0:0:
118,200,129353,5,8,0:0:0:0:
191,156,129504,1,8,0:1:0:0:
294,241,129656,6,0,L|311:295,1,52.5000020027161,12|0,0:1|0:0,0:0:0:0:
375,383,129807,1,8,0:1:0:0:
387,360,129883,1,8,0:1:0:0:
399,336,129959,1,8,0:0:0:0:
411,312,130035,1,8,0:0:0:0:
423,288,130110,2,0,P|421:237|380:201,1,105.000004005432,8|2,0:1|0:0,0:0:0:0:
232,212,130413,1,2,0:0:0:0:
383,202,130565,5,8,0:1:0:0:
210,61,130716,2,0,B|173:50|140:81|140:81|107:111|60:100,1,157.500006008148,8|0,0:1|0:0,0:0:0:0:
86,29,131019,1,8,0:1:0:0:
276,80,131171,6,0,P|244:121|186:126,1,105.000004005432,8|2,0:0|0:0,0:0:0:0:
27,211,131474,5,8,0:1:0:0:
147,215,131625,1,8,0:1:0:0:
45,303,131777,5,8,0:0:0:0:
147,215,131928,1,8,0:1:0:0:
132,339,132080,6,0,L|182:352,1,52.5000020027161,12|0,0:1|0:0,0:0:0:0:
274,382,132232,1,8,0:1:0:0:
293,364,132307,1,8,0:1:0:0:
312,346,132383,1,8,0:0:0:0:
331,328,132459,1,8,0:0:0:0:
350,310,132535,2,0,P|348:258|315:219,1,105.000004005432,8|2,0:1|0:0,0:0:0:0:
228,216,132838,1,2,0:0:0:0:
279,286,132989,1,8,0:1:0:0:
225,97,133141,6,0,B|249:66|294:72|294:72|341:78|370:46,1,157.500006008148,12|0,0:1|0:0,0:0:0:0:
312,0,133444,1,8,0:1:0:0:
370,177,133595,2,0,P|318:176|277:135,1,105.000004005432,8|2,0:0|0:0,0:0:0:0:
102,142,133898,5,8,0:1:0:0:
225,97,134050,1,8,0:1:0:0:
107,43,134201,5,8,0:0:0:0:
225,97,134353,1,8,0:1:0:0:
0,173,134504,6,0,L|33:328,1,140,12|0,0:1|0:0,0:0:0:0:
42,317,134732,1,2,0:0:0:0:
53,323,134807,1,8,0:0:0:0:
158,384,134959,1,8,0:1:0:0:
217,276,135110,6,0,L|193:164,1,105.000004005432,8|0,0:1|0:0,0:0:0:0:
186,174,135338,1,2,0:0:0:0:
178,174,135413,1,8,0:0:0:0:
158,384,135565,1,8,0:1:0:0:
324,340,135716,6,0,L|411:350,1,87.5,12|0,0:1|0:0,0:0:0:0:
417,342,135944,1,2,0:0:0:0:
423,334,136019,1,8,0:0:0:0:
483,263,136171,1,8,0:1:0:0:
399,188,136322,6,0,L|316:179,1,70,8|0,0:1|0:0,0:0:0:0:
321,177,136550,1,2,0:0:0:0:
313,173,136625,1,8,0:0:0:0:
275,83,136777,1,8,0:1:0:0:
394,87,136928,5,8,0:1:0:0:
234,155,137080,1,8,0:1:0:0:
227,157,137156,1,8,0:1:0:0:
221,159,137232,1,8,0:0:0:0:
394,87,137383,1,8,0:1:0:0:
275,83,137535,5,8,0:1:0:0:
313,173,137686,1,8,0:1:0:0:
162,375,137989,6,0,P|124:284|129:168,1,210.000008010865,12|2,0:1|0:0,0:0:0:0:
67,333,138444,2,0,P|52:255|60:165,1,157.500006008148,8|0,0:0|0:0,0:0:0:0:
92,116,138747,1,8,0:1:0:0:
187,75,138898,1,8,0:1:0:0:
19,81,139050,5,8,0:0:0:0:
57,177,139201,1,8,0:1:0:0:
203,226,139353,6,0,P|246:227|299:236,1,83.9999974365235,12|0,0:1|0:0,0:0:0:0:
296,240,139580,1,2,0:0:0:0:
305,246,139656,1,8,0:0:0:0:
354,342,139807,1,2,0:0:0:0:
392,185,139959,5,8,0:1:0:0:
354,342,140110,1,8,0:1:0:0:
354,342,140413,6,0,P|263:367|166:307,1,210.000008010865,12|0,0:1|0:0,0:0:0:0:
78,346,140868,2,0,P|121:347|168:311,1,105.000004005432,8|0,0:1|0:0,0:0:0:0:
168,310,141777,6,0,L|170:218,1,83.9999974365235,8|0,0:1|0:0,0:0:0:0:
162,214,142004,1,2,0:0:0:0:
154,204,142080,1,8,0:0:0:0:
101,115,142232,1,2,0:0:0:0:
0,132,142383,5,8,0:1:0:0:
154,204,142535,1,8,0:1:0:0:
154,204,142838,6,0,P|245:250|337:202,1,210.000008010865,12|0,0:1|0:0,0:0:0:0:
426,237,143292,2,0,P|377:238|328:191,1,105.000004005432,8|0,0:1|0:0,0:0:0:0:
334,204,144201,6,0,L|339:108,1,83.9999974365235,8|0,0:1|0:0,0:0:0:0:
328,110,144428,1,2,0:0:0:0:
320,100,144504,1,8,0:0:0:0:
356,7,144656,1,2,0:0:0:0:
453,22,144807,5,8,0:1:0:0:
320,100,144959,1,8,0:1:0:0:
320,100,145262,6,0,P|221:126|131:69,1,210.000008010865,12|0,0:1|0:0,0:0:0:0:
33,76,145716,2,0,P|85:88|139:68,1,105.000004005432,8|0,0:1|0:0,0:0:0:0:
132,72,146625,6,0,B|144:58|144:58|140:109,1,70,8|0,0:1|0:0,0:0:0:0:
135,118,146853,1,2,0:0:0:0:
130,125,146928,1,8,0:0:0:0:
51,154,147080,1,2,0:0:0:0:
56,37,147232,5,8,0:1:0:0:
113,201,147383,1,8,0:1:0:0:
113,201,147686,6,0,P|172:221|243:214,1,125.999996154785,12|0,0:1|0:0,0:0:0:0:
300,250,147989,2,0,P|321:243|347:226,1,41.9999987182618,8|0,0:1|0:0,0:0:0:0:
230,124,148141,6,0,P|243:139|266:150,1,41.9999987182618,8|0,0:0|0:0,0:0:0:0:
300,250,148292,2,0,P|321:243|347:226,1,41.9999987182618,8|0,0:1|0:0,0:0:0:0:
451,118,148444,6,0,P|469:169|469:232,1,105.000004005432,12|0,0:1|0:0,0:0:0:0:
372,21,148747,6,0,P|380:100|331:162,1,157.500006008148,12|0,0:1|0:0,0:0:0:0:
262,148,149050,6,0,P|227:123|176:120,1,83.9999974365235,8|0,0:1|0:0,0:0:0:0:
64,147,149353,1,8,0:0:0:0:
138,188,149504,1,2,0:0:0:0:
108,48,149656,5,8,0:1:0:0:
67,231,149808,1,8,0:1:0:0:
138,188,149959,1,8,0:0:0:0:
0,192,150110,6,0,P|6:256|41:321,1,125.999996154785,8|0,0:1|0:0,0:0:0:0:
102,295,150413,1,8,0:1:0:0:
54,381,150565,5,8,0:0:0:0:
102,295,150716,1,2,0:0:0:0:
212,341,150868,5,8,0:1:0:0:
164,255,151019,1,8,0:1:0:0:
277,160,151171,2,0,P|298:203|275:316,1,157.500006008148,8|0,0:0|0:0,0:0:0:0:
202,171,151474,6,0,P|206:132|241:95,1,83.9999974365235,12|0,0:1|0:0,0:0:0:0:
364,142,151777,1,8,0:0:0:0:
317,65,151928,1,2,0:0:0:0:
277,160,152080,5,8,0:1:0:0:
408,62,152232,1,8,0:1:0:0:
317,65,152383,1,8,0:0:0:0:
463,144,152535,6,0,P|479:204|453:274,1,125.999996154785,8|0,0:1|0:0,0:0:0:0:
386,267,152838,1,8,0:1:0:0:
472,341,152989,5,8,0:0:0:0:
386,267,153141,1,2,0:0:0:0:
294,321,153292,5,8,0:1:0:0:
312,247,153444,1,8,0:1:0:0:
386,267,153595,1,8,0:0:0:0:
366,339,153747,1,2,0:0:0:0:
235,267,153898,6,0,P|196:249|142:249,1,83.9999974365235,8|0,0:1|0:0,0:0:0:0:
31,272,154201,1,8,0:0:0:0:
110,347,154353,1,2,0:0:0:0:
95,180,154505,5,8,0:1:0:0:
32,350,154656,1,8,0:1:0:0:
110,347,154808,1,8,0:0:0:0:
14,192,154959,6,0,P|14:132|59:83,1,125.999996154785,8|0,0:1|0:0,0:0:0:0:
128,100,155262,1,8,0:1:0:0:
63,13,155414,5,8,0:0:0:0:
128,100,155565,1,2,0:0:0:0:
193,0,155717,5,8,0:1:0:0:
190,134,155868,1,8,0:1:0:0:
279,30,156020,6,0,L|245:68,1,41.9999987182618,8|0,0:0|0:0,0:0:0:0:
190,134,156171,2,0,L|207:182,1,41.9999987182618,8|0,0:1|0:0,0:0:0:0:
198,264,156323,6,0,L|306:288,1,105.000004005432,12|0,0:1|0:0,0:0:0:0:
464,199,156626,2,0,L|350:211,1,105.000004005432,8|0,0:0|0:0,0:0:0:0:
198,264,156929,5,8,0:1:0:0:
359,209,157080,1,8,0:1:0:0:
204,173,157232,1,8,0:0:0:0:
364,45,157383,6,0,P|366:117|282:138,1,157.500006008148,12|0,0:1|0:0,0:0:0:0:
236,109,157686,1,8,0:1:0:0:
90,101,157838,2,0,P|49:162|93:229,1,157.500006008148,8|0,0:0|0:0,0:0:0:0:
50,349,158141,6,0,P|77:326|90:302,1,52.5000020027161,8|0,0:1|0:0,0:0:0:0:
75,276,158292,2,0,P|86:242|86:215,1,52.5000020027161,8|0,0:1|0:0,0:0:0:0:
225,333,158444,6,0,P|236:299|236:272,1,52.5000020027161,8|0,0:0|0:0,0:0:0:0:
195,217,158595,2,0,P|188:182|174:158,1,52.5000020027161,8|0,0:1|0:0,0:0:0:0:
314,242,158747,6,0,P|365:263|438:236,1,125.999996154785,12|0,0:1|0:0,0:0:0:0:
471,175,159050,2,0,P|441:200|431:251,1,83.9999974365235,8|2,0:0|0:0,0:0:0:0:
374,157,159353,5,8,0:1:0:0:
503,241,159505,1,8,0:1:0:0:
434,315,159656,1,8,0:0:0:0:
434,110,159808,6,0,P|386:75|320:77,1,125.999996154785,12|0,0:1|0:0,0:0:0:0:
285,144,160111,1,8,0:1:0:0:
257,38,160262,5,8,0:0:0:0:
285,144,160414,1,2,0:0:0:0:
177,193,160565,5,8,0:1:0:0:
208,108,160717,1,8,0:1:0:0:
177,193,160868,5,8,0:0:0:0:
208,108,161019,1,0,0:0:0:0:
97,53,161171,6,0,B|43:59|43:59|67:100,1,83.9999974365235,12|2,0:1|0:0,0:0:0:0:
80,167,161474,1,8,0:0:0:0:
19,225,161626,5,2,0:0:0:0:
0,146,161777,1,8,0:1:0:0:
80,167,161928,1,8,0:1:0:0:
0,146,162080,5,8,0:0:0:0:
19,225,162212,1,12,0:1:0:0:
80,167,162363,1,2,0:0:0:0:
19,225,162514,5,8,0:1:0:0:
0,146,162666,1,8,0:0:0:0:
80,167,162817,1,2,0:0:0:0:
102,251,162969,5,8,0:1:0:0:
80,167,163120,1,8,0:1:0:0:
186,251,163272,5,8,0:0:0:0:
155,128,163423,1,8,0:1:0:0:
265,43,163595,6,0,L|253:169,1,125.999996154785,12|0,0:1|0:0,0:0:0:0:
297,224,163892,2,0,L|288:321,1,83.9999974365235,8|2,0:0|0:0,0:0:0:0:
186,251,164189,5,8,0:1:0:0:
289,307,164337,1,8,0:1:0:0:
218,349,164486,1,8,0:0:0:0:
372,334,164634,6,0,P|422:301|422:234,1,125.999996154785,12|0,0:1|0:0,0:0:0:0:
369,189,164931,1,8,0:1:0:0:
479,103,165080,2,0,P|472:145|435:169,1,83.9999974365235,8|2,0:0|0:0,0:0:0:0:
289,131,165397,5,8,0:1:0:0:
369,189,165545,1,8,0:1:0:0:
378,63,165694,5,8,0:0:0:0:
294,211,165842,1,8,0:1:0:0:
112,237,166019,6,0,P|67:194|68:120,1,125.999996154785,12|0,0:1|0:0,0:0:0:0:
129,92,166317,2,0,P|103:124|56:132,1,83.9999974365235,8|2,0:0|0:0,0:0:0:0:
170,171,166616,5,8,0:1:0:0:
65,62,166765,1,8,0:1:0:0:
125,16,166914,1,8,0:0:0:0:
170,171,167063,6,0,P|178:227|222:283,1,125.999996154785,12|0,0:1|0:0,0:0:0:0:
290,278,167362,1,8,0:1:0:0:
356,119,167511,5,8,0:0:0:0:
290,278,167660,1,8,0:1:0:0:
272,128,167810,5,8,0:0:0:0:
377,265,167959,1,8,0:1:0:0:
238,209,168108,5,8,0:0:0:0:
324,199,168257,1,8,0:1:0:0:
409,186,168424,6,0,P|438:142|436:88,1,105.000004005432,12|0,0:1|0:0,0:0:0:0:
308,16,168722,5,8,0:0:0:0:
356,119,168871,1,8,0:1:0:0:
308,16,169021,5,8,0:1:0:0:
189,137,169170,1,8,0:1:0:0:
189,19,169319,5,8,0:0:0:0:
265,116,169468,2,0,P|261:172|123:179,1,210.000008010865,12|8,0:1|0:1,0:0:0:0:
46,118,169916,5,8,0:0:0:0:
189,137,170065,1,8,0:1:0:0:
57,216,170215,5,8,0:0:0:0:
200,235,170364,1,8,0:1:0:0:
68,314,170513,5,8,0:0:0:0:
134,275,170662,1,8,0:1:0:0:
200,235,170848,2,0,P|254:249|288:288,1,105.000004005432,12|0,0:1|0:0,0:0:0:0:
352,384,171154,5,8,0:0:0:0:
208,323,171307,1,8,0:1:0:0:
352,384,171460,5,8,0:1:0:0:
329,204,171613,1,8,0:1:0:0:
440,348,171766,5,8,0:0:0:0:
258,241,171919,2,0,P|275:144|374:137,1,210.000008010865,12|8,0:1|0:1,0:0:0:0:
491,247,172378,5,8,0:0:0:0:
329,204,172531,1,8,0:1:0:0:
466,141,172684,5,8,0:0:0:0:
304,98,172837,1,8,0:1:0:0:
440,35,172990,5,8,0:0:0:0:
371,65,173143,1,8,0:1:0:0:
304,98,173292,6,0,P|259:120|191:99,1,105.000004005432,12|0,0:1|0:0,0:0:0:0:
102,99,173595,5,8,0:0:0:0:
248,40,173746,1,8,0:1:0:0:
102,99,173898,5,8,0:1:0:0:
266,194,174049,1,8,0:1:0:0:
154,17,174201,5,8,0:0:0:0:
173,185,174352,2,0,P|217:275|328:265,1,210.000008010865,12|8,0:1|0:1,0:0:0:0:
426,169,174807,5,8,0:0:0:0:
266,194,174958,1,8,0:1:0:0:
408,273,175110,5,8,0:0:0:0:
248,298,175261,1,8,0:1:0:0:
390,377,175413,5,8,0:0:0:0:
317,341,175564,1,8,0:1:0:0:
248,298,175716,6,0,P|196:282|146:293,1,105.000004005432,12|0,0:1|0:0,0:0:0:0:
34,322,176019,5,8,0:0:0:0:
194,369,176170,1,8,0:1:0:0:
34,322,176322,5,8,0:1:0:0:
201,236,176473,1,8,0:1:0:0:
103,384,176625,5,8,0:0:0:0:
37,222,176776,2,0,P|36:117|135:85,1,210.000008010865,12|8,0:1|0:1,0:0:0:0:
232,27,177231,6,0,P|238:46|236:75,1,41.9999987182618,8|0,0:0|0:0,0:0:0:0:
190,134,177382,2,0,P|185:153|169:177,1,41.9999987182618,8|0,0:1|0:0,0:0:0:0:
309,33,177534,6,0,P|312:60|302:102,1,52.5000020027161,8|0,0:0|0:0,0:0:0:0:
252,177,177685,2,0,P|241:201|211:233,1,52.5000020027161,8|0,0:1|0:0,0:0:0:0:
383,48,177837,6,0,P|384:66|373:106,1,35,8|0,0:0|0:0,0:0:0:0:
347,168,177988,1,8,0:1:0:0:
512,222,178140,5,8,0:1:0:0:
347,168,178305,1,2,0:0:0:0:
512,222,178465,5,2,0:0:0:0:
376,256,178626,1,8,0:0:0:0:
376,256,178947,5,8,0:0:0:0:
376,256,179268,5,8,0:0:0:0:
131,162,179428,2,0,P|121:212|187:397,1,236.250009012223,8|0,0:1|0:0,0:0:0:0:
197,379,180230,2,0,L|229:386,3,26.2500010013581,2|2|2|2,0:0|0:0|0:0|0:0,0:0:0:0:
