osu file format v14

[General]
AudioFilename: audio.ogg
AudioLeadIn: 0
PreviewTime: 75237
Countdown: 0
SampleSet: Soft
StackLeniency: 0.5
Mode: 0
LetterboxInBreaks: 0
WidescreenStoryboard: 1

[Editor]
Bookmarks: 26474,37768,49649,65290,77656,93380,108984,120228,129921,139618,149315,159012,168629,178305
DistanceSpacing: 1.3
BeatDivisor: 4
GridSize: 16
TimelineZoom: 2.799999

[Metadata]
Title:CHELSEA GIRL'S ESCAPE
TitleUnicode:CHELSEA GIRL'S ESCAPE
Artist:SEAPOOL
ArtistUnicode:SEAPOOL
Creator:Kudou Chitose
Version:HARD
Source:
Tags:japanese indie rock jrock j-rock hardcore nostalgic experimental grunge punk 小原涼香 飯谷真帆 白井景 female vocals riffy bakari -bakari- mrrrk
BeatmapID:3538803
BeatmapSetID:1703895

[Difficulty]
HPDrainRate:4
CircleSize:4
OverallDifficulty:6
ApproachRate:7.5
SliderMultiplier:1.3
SliderTickRate:1

[Events]
//Background and Video events
0,0,"bgcge.jpg",0,0
//Break Periods
//Storyboard Layer 0 (Background)
//Storyboard Layer 1 (Fail)
//Storyboard Layer 2 (Pass)
//Storyboard Layer 3 (Foreground)
//Storyboard Layer 4 (Overlay)
//Storyboard Sound Samples

[TimingPoints]
343,337.078651685394,4,2,1,60,1,0
349,-100,4,2,1,60,0,0
1697,379.746835443038,4,2,1,60,1,0
1697,-100,4,2,1,60,0,0
3182,342.857142857143,4,2,1,60,1,0
3182,-100,4,2,1,60,0,0
4553,368.098159509202,4,2,1,60,1,0
4553,-100,4,2,1,60,0,0
6012,344.827586206897,4,2,1,60,1,0
6012,-100,4,2,1,60,0,0
7391,363.636363636364,4,2,1,60,1,0
7391,-100,4,2,1,60,0,0
8812,363.636363636364,4,2,1,60,1,0
8812,-100,4,2,1,60,0,0
10222,355.029585798817,4,2,1,60,1,0
10222,-100,4,2,1,60,0,0
15158,352.941176470588,4,2,1,70,1,0
15158,-100,4,2,1,70,0,0
26452,-83.3333333333333,4,2,1,80,0,0
37746,-100,4,2,1,80,0,0
47632,491.803278688525,4,2,1,85,1,0
47632,-66.6666666666667,4,2,1,85,0,0
48123,-66.6666666666667,4,2,1,80,0,0
48615,-66.6666666666667,4,2,1,75,0,0
49107,-66.6666666666667,4,2,1,70,0,0
49609,487.80487804878,4,2,1,80,1,0
49609,-66.6666666666667,4,2,1,80,0,0
53511,495.867768595041,4,2,1,80,1,0
53511,-66.6666666666667,4,2,1,80,0,0
58935,495.867768595041,4,2,1,80,1,0
58935,-66.6666666666667,4,2,1,80,0,0
61414,487.80487804878,4,2,1,80,1,0
61414,-66.6666666666667,4,2,1,80,0,0
64340,495.867768595041,4,2,1,80,1,0
64340,-66.6666666666667,4,2,1,80,0,0
66725,352.941176470588,4,2,1,80,1,0
66725,-100,4,2,1,80,0,0
70980,352.941176470588,4,2,1,80,1,0
70980,-100,4,2,1,80,0,0
75257,480,4,2,1,85,1,0
75257,-66.6666666666667,4,2,1,85,0,0
75737,-66.6666666666667,4,2,1,80,0,0
76217,-66.6666666666667,4,2,1,75,0,0
76697,-66.6666666666667,4,2,1,70,0,0
77195,491.803278688525,4,2,1,80,1,0
77195,-66.6666666666667,4,2,1,80,0,0
81129,487.80487804878,4,2,1,80,1,0
81129,-66.6666666666667,4,2,1,80,0,0
85051,491.803278688525,4,2,1,80,1,0
85051,-66.6666666666667,4,2,1,80,0,0
96834,493.827160493827,4,2,1,80,1,0
96834,-66.6666666666667,4,2,1,80,0,0
108192,476.190476190476,4,2,1,80,1,0
108192,-66.6666666666667,4,2,1,80,0,0
108670,342.857142857143,6,2,1,70,1,0
108670,-100,4,2,1,70,0,0
110727,-100,4,2,1,60,0,0
111464,355.029585798817,6,2,1,70,1,0
111464,-100,4,2,1,70,0,0
113594,-100,4,2,1,60,0,0
114274,357.142857142857,6,2,1,70,1,0
114274,-100,4,2,1,70,0,0
116416,-100,4,2,1,60,0,0
117131,352.941176470588,4,2,1,70,1,0
117131,-100,4,2,1,70,0,0
119944,303.030303030303,4,2,1,90,1,0
119944,-111.111111111111,4,2,1,90,0,0
122388,292.682926829268,4,2,1,90,1,0
122388,-111.111111111111,4,2,1,90,0,0
123412,306.122448979592,4,2,1,90,1,0
123412,-111.111111111111,4,2,1,90,0,0
124788,303.030303030303,4,2,1,90,1,0
124788,-100,4,2,1,90,0,0
127232,303.030303030303,4,2,1,90,1,0
127232,-111.111111111111,4,2,1,90,0,0
134504,-100,4,2,1,90,0,0
136928,-111.111111111111,4,2,1,90,0,0
139353,-111.111111111111,4,2,1,80,0,0
158747,-111.111111111111,4,2,1,85,0,0
162212,303.030303030303,4,2,1,85,1,0
162212,-100,4,2,1,85,0,0
162363,303.030303030303,4,2,1,85,1,0
162363,-111.111111111111,4,2,1,85,0,0
163595,297.029702970297,4,2,1,85,1,0
163595,-111.111111111111,4,2,1,85,0,0
165397,297.029702970297,4,2,1,85,1,0
165397,-111.111111111111,4,2,1,85,0,0
166019,298.507462686567,4,2,1,85,1,0
166019,-111.111111111111,4,2,1,85,0,0
168424,298.507462686567,4,2,1,90,1,0
168424,-111.111111111111,4,2,1,90,0,0
170848,306.122448979592,4,2,1,90,1,0
170848,-111.111111111111,4,2,1,90,0,0
173292,303.030303030303,4,2,1,90,1,0
173292,-111.111111111111,4,2,1,90,0,0
178145,320.855614973262,4,2,1,80,1,0
178145,-100,4,2,1,80,0,0
179428,-100,4,2,1,60,0,0

[Colours]
Combo1 : 231,216,109
Combo2 : 220,185,120
Combo3 : 185,126,91

[HitObjects]
17,63,343,6,0,L|0:-8,2,65,8|2|2,0:1|0:0|0:0,0:0:0:0:
46,73,848,1,8,0:0:0:0:
149,21,1185,1,8,0:0:0:0:
252,73,1522,1,8,0:0:0:0:
252,73,1697,2,0,L|379:32,1,130,8|2,0:1|0:0,0:0:0:0:
375,33,2836,1,2,0:0:0:0:
431,158,3182,6,0,L|502:135,2,65,8|2|2,0:1|0:0|0:0,0:0:0:0:
400,146,3696,1,8,0:0:0:0:
379,275,4039,1,8,0:0:0:0:
256,321,4382,1,8,0:0:0:0:
256,321,4553,2,0,L|122:282,1,130,8|2,0:1|0:0,0:0:0:0:
131,284,5657,1,2,0:0:0:0:
91,172,6012,6,0,L|24:153,2,65,8|2|2,0:1|0:0|0:0,0:0:0:0:
121,156,6529,1,8,0:0:0:0:
244,220,6874,1,8,0:0:0:0:
367,156,7218,1,8,0:0:0:0:
367,156,7391,2,0,L|488:92,1,130,8|2,0:1|0:0,0:0:0:0:
481,95,8481,1,2,0:0:0:0:
348,23,8812,6,0,B|316:17|316:17|300:47,2,65,8|2|2,0:1|0:0|0:0,0:0:0:0:
394,87,9357,1,8,0:0:0:0:
394,87,10222,2,0,B|426:81|426:81|442:111,2,65,8|2|2,0:1|0:0|0:0,0:0:0:0:
348,151,10754,1,8,0:0:0:0:
348,151,11642,2,0,B|316:145|316:145|300:175,2,65,8|2|2,0:1|0:0|0:0,0:0:0:0:
394,215,12174,1,8,0:0:0:0:
348,23,12707,5,8,0:0:0:0:
394,215,13239,1,8,0:0:0:0:
348,23,13772,1,8,0:0:0:0:
394,215,14304,1,8,0:0:0:0:
267,357,14837,1,2,0:0:0:0:
142,382,15158,6,0,L|25:361,1,97.5,8|2,0:1|0:0,0:0:0:0:
31,359,15510,2,0,L|6:293,1,65,2|2,0:0|0:0,0:0:0:0:
80,250,15863,2,0,L|39:138,1,97.5,8|2,0:1|0:0,0:0:0:0:
45,142,16216,2,0,L|89:87,1,65,2|2,0:0|0:0,0:0:0:0:
171,112,16569,2,0,L|247:21,1,97.5,8|2,0:1|0:0,0:0:0:0:
247,28,16922,2,0,L|316:39,1,65,2|2,0:0|0:0,0:0:0:0:
365,98,17275,6,0,P|374:128|400:154,2,65,2|2|2,0:0|0:0|0:0,0:0:0:0:
391,21,17805,1,2,0:0:0:0:
355,103,17981,6,0,B|318:113|318:113|288:186,1,97.5,8|2,0:1|0:0,0:0:0:0:
304,179,18334,2,0,L|353:242,1,65,2|2,0:0|0:0,0:0:0:0:
424,273,18687,2,0,B|419:307|419:307|349:356,1,97.5,8|2,0:1|0:0,0:0:0:0:
353,349,19040,2,0,L|277:323,1,65,2|2,0:0|0:0,0:0:0:0:
210,364,19393,2,0,B|179:342|179:342|170:271,1,97.5,8|2,0:1|0:0,0:0:0:0:
170,267,19746,2,0,L|230:230,1,65,2|2,0:0|0:0,0:0:0:0:
226,142,20099,5,2,0:0:0:0:
226,142,20275,1,2,0:0:0:0:
153,118,20452,1,2,0:0:0:0:
153,118,20628,1,2,0:0:0:0:
187,40,20805,6,0,P|135:34|94:57,1,97.5,8|2,0:1|0:0,0:0:0:0:
83,65,21157,2,0,P|75:97|50:123,1,65,2|2,0:0|0:0,0:0:0:0:
0,186,21510,2,0,P|20:234|61:258,1,97.5,8|2,0:1|0:0,0:0:0:0:
73,263,21863,2,0,P|104:253|139:262,1,65,2|0,0:0|0:0,0:0:0:0:
166,341,22216,2,0,P|217:347|258:324,1,97.5,8|2,0:1|0:0,0:0:0:0:
269,316,22569,2,0,P|277:284|302:257,1,65,2|2,0:0|0:0,0:0:0:0:
383,249,22922,6,0,L|448:266,1,65,2|2,0:0|0:0,0:0:0:0:
412,346,23275,2,0,L|347:329,1,65,2|2,0:0|0:0,0:0:0:0:
302,253,23628,6,0,B|259:208|259:208|208:206,1,97.5,8|2,0:1|0:0,0:0:0:0:
210,213,23981,2,0,L|160:161,1,65,2|2,0:0|0:0,0:0:0:0:
213,91,24334,2,0,B|226:61|226:61|305:33,1,97.5,8|2,0:1|0:0,0:0:0:0:
299,45,24687,2,0,L|368:74,1,65,2|2,0:0|0:0,0:0:0:0:
452,43,25040,5,12,0:1:0:0:
332,157,25393,1,8,0:1:0:0:
439,293,25746,2,0,L|478:312,3,32.5,8|8|8|8,0:0|0:1|0:1|0:1,0:0:0:0:
486,313,26099,2,0,L|510:281,2,32.5,8|8|8,0:0|0:0|0:1,0:0:0:0:
490,331,26363,1,8,0:0:0:0:
491,337,26452,6,0,P|462:361|417:360,1,77.999997619629,12|8,0:1|0:1,0:0:0:0:
343,384,26805,1,8,0:0:0:0:
366,305,26981,2,0,B|329:277|329:277|287:279,1,77.999997619629,2|2,0:0|0:0,0:0:0:0:
223,244,27334,1,8,0:1:0:0:
183,316,27510,2,0,B|137:309|137:309|108:278,1,77.999997619629,8|0,0:0|0:0,0:0:0:0:
47,235,27863,5,8,0:1:0:0:
47,235,28040,1,8,0:1:0:0:
117,189,28216,1,8,0:0:0:0:
43,150,28393,2,0,B|25:107|25:107|43:77,1,77.999997619629,2|2,0:0|0:0,0:0:0:0:
74,3,28746,1,8,0:1:0:0:
148,43,28922,2,0,B|195:54|195:54|226:38,1,77.999997619629,8|0,0:0|0:0,0:0:0:0:
319,15,29275,5,8,0:1:0:0:
319,15,29452,1,8,0:1:0:0:
366,85,29628,1,8,0:0:0:0:
282,93,29805,2,0,B|288:117|288:117|249:166,1,77.999997619629,2|2,0:0|0:0,0:0:0:0:
172,184,30157,1,8,0:1:0:0:
215,262,30334,2,0,B|227:291|227:291|294:311,1,77.999997619629,8|0,0:0|0:0,0:0:0:0:
339,384,30687,5,8,0:1:0:0:
414,372,30863,1,8,0:1:0:0:
437,300,31040,2,0,P|425:262|385:235,1,77.999997619629,8|8,0:0|0:1,0:0:0:0:
314,232,31393,1,8,0:1:0:0:
271,160,31569,1,8,0:1:0:0:
270,154,31657,1,8,0:1:0:0:
269,148,31746,2,0,P|283:113|323:100,1,77.999997619629,12|8,0:0|0:1,0:0:0:0:
393,41,32099,5,12,0:1:0:0:
476,72,32275,1,8,0:1:0:0:
476,72,32452,1,8,0:0:0:0:
409,124,32628,2,0,B|419:162|419:162|394:200,1,77.999997619629,2|2,0:0|0:0,0:0:0:0:
458,251,32981,1,8,0:1:0:0:
402,313,33157,2,0,B|365:326|365:326|322:306,1,77.999997619629,8|0,0:0|0:0,0:0:0:0:
296,226,33510,5,8,0:1:0:0:
211,256,33687,1,8,0:1:0:0:
211,256,33863,1,8,0:0:0:0:
229,163,34040,2,0,B|214:121|214:121|182:105,1,77.999997619629,2|2,0:0|0:0,0:0:0:0:
174,20,34393,1,8,0:1:0:0:
87,30,34569,2,0,B|57:40|57:40|43:99,1,77.999997619629,8|0,0:0|0:0,0:0:0:0:
97,168,34922,5,8,0:1:0:0:
8,187,35099,1,8,0:1:0:0:
8,187,35275,1,8,0:0:0:0:
68,256,35452,2,0,B|80:281|80:281|132:295,1,77.999997619629,2|2,0:0|0:0,0:0:0:0:
172,369,35805,1,8,0:1:0:0:
244,321,35981,2,0,B|267:306|267:306|322:317,1,77.999997619629,8|0,0:0|0:0,0:0:0:0:
388,382,36334,6,0,P|422:364|441:331,1,77.999997619629,8|8,0:1|0:1,0:0:0:0:
507,270,36687,2,0,P|508:231|489:198,1,77.999997619629,8|8,0:0|0:1,0:0:0:0:
406,166,37040,2,0,P|410:146|423:123,3,38.9999988098145,8|8|8|8,0:1|0:1|0:1|0:1,0:0:0:0:
429,115,37393,1,8,0:0:0:0:
426,106,37481,1,8,0:0:0:0:
423,98,37569,2,0,L|389:55,1,38.9999988098145,8|8,0:1|0:0,0:0:0:0:
368,60,37746,6,0,P|322:42|273:47,2,97.5,12|2|2,0:1|0:0|0:0,0:0:0:0:
337,140,38452,2,0,P|288:144|243:126,1,97.5,8|2,0:1|0:0,0:0:0:0:
221,105,38805,1,8,0:1:0:0:
162,148,38981,1,2,0:0:0:0:
93,127,39157,2,0,P|67:169|72:229,1,97.5,8|2,0:1|0:0,0:0:0:0:
69,226,39510,2,0,P|98:245|134:249,1,65,2|2,0:0|0:0,0:0:0:0:
200,224,39863,1,8,0:1:0:0:
362,360,40216,1,8,0:1:0:0:
431,334,40393,5,2,0:0:0:0:
358,352,40569,2,0,P|313:367|251:365,2,97.5,8|2|2,0:1|0:0|0:0,0:0:0:0:
347,279,41275,2,0,P|298:279|252:294,1,97.5,8|2,0:1|0:0,0:0:0:0:
237,297,41628,1,8,0:1:0:0:
188,352,41805,1,2,0:0:0:0:
117,362,41981,2,0,P|72:343|41:306,1,97.5,8|2,0:1|0:0,0:0:0:0:
36,298,42334,2,0,P|44:270|68:241,1,65,8|2,0:1|0:0,0:0:0:0:
144,228,42687,2,2,B|171:206|164:170|164:170|135:147|135:109,1,130,8|2,0:1|0:0,0:0:0:0:
168,43,43216,1,2,0:0:0:0:
213,107,43393,6,0,P|261:103|296:68,1,97.5,8|2,0:1|0:0,0:0:0:0:
298,53,43746,1,8,0:1:0:0:
355,7,43922,1,2,0:0:0:0:
425,26,44099,2,0,P|464:55|492:104,2,97.5,8|2|2,0:1|0:0|0:0,0:0:0:0:
374,78,44805,2,0,P|399:119|438:148,1,97.5,8|2,0:1|0:0,0:0:0:0:
446,162,45157,2,0,P|454:194|437:222,1,65,2|2,0:0|0:0,0:0:0:0:
369,250,45510,1,8,0:1:0:0:
223,151,45863,1,8,0:1:0:0:
155,126,46040,5,2,0:0:0:0:
220,159,46216,2,0,P|230:205|215:264,1,97.5,8|2,0:1|0:0,0:0:0:0:
208,262,46569,1,8,0:1:0:0:
133,255,46746,1,2,0:0:0:0:
89,317,46922,2,0,P|117:354|168:377,2,97.5,8|2|2,0:1|0:0|0:0,0:0:0:0:
52,246,47632,6,2,B|41:228|41:228|81:83|81:83|71:61,2,195.00000743866,12|2|8,0:1|0:0|0:0,0:0:0:0:
247,372,49107,2,2,B|270:362|270:362|304:240,1,146.250005578995,2|0,0:0|0:0,0:0:0:0:
296,224,49609,6,0,B|260:189|260:189|207:212,1,97.50000371933,12|2,0:1|0:0,0:0:0:0:
184,124,50096,2,0,B|232:110|232:110|238:52,1,97.50000371933,8|8,0:0|0:1,0:0:0:0:
326,77,50584,2,0,B|313:125|313:125|406:194,1,146.250005578995,8|0,0:1|0:0,0:0:0:0:
419,173,51072,1,2,0:0:0:0:
498,233,51316,6,0,P|506:278|463:315,1,97.50000371933,12|2,0:1|0:0,0:0:0:0:
377,287,51804,1,2,0:0:0:0:
299,346,52048,2,0,P|268:310|279:264,1,97.50000371933,8|2,0:0|0:0,0:0:0:0:
346,193,52535,5,8,0:1:0:0:
295,109,52779,1,8,0:1:0:0:
406,115,53023,5,8,0:0:0:0:
406,115,53145,1,8,0:1:0:0:
406,115,53267,1,8,0:0:0:0:
406,115,53389,1,8,0:0:0:0:
406,115,53511,2,0,P|404:160|346:190,1,97.50000371933,12|0,0:1|0:0,0:0:0:0:
305,267,54006,2,0,P|265:287|210:252,1,97.50000371933,8|2,0:0|0:0,0:0:0:0:
122,282,54502,2,0,P|84:257|81:163,1,146.250005578995,8|0,0:0|0:0,0:0:0:0:
103,154,54998,1,2,0:0:0:0:
199,141,55246,6,0,P|239:114|229:60,2,97.50000371933,8|0|8,0:1|0:0|0:1,0:0:0:0:
141,61,55990,2,0,P|151:15|195:1,1,97.50000371933,8|8,0:0|0:1,0:0:0:0:
293,11,56486,1,8,0:1:0:0:
355,85,56734,1,8,0:1:0:0:
465,81,56982,5,8,0:0:0:0:
465,81,57106,1,8,0:1:0:0:
465,81,57230,1,8,0:0:0:0:
465,81,57353,1,8,0:0:0:0:
465,81,57477,2,0,B|486:133|486:133|453:177,1,97.50000371933,12|2,0:1|0:0,0:0:0:0:
396,239,57973,2,0,B|340:231|340:231|318:180,1,97.50000371933,8|8,0:0|0:1,0:0:0:0:
249,130,58469,2,0,B|283:85|283:85|390:98,1,146.250005578995,8|0,0:1|0:0,0:0:0:0:
398,81,58935,1,2,0:0:0:0:
491,107,59182,6,0,P|508:151|477:197,1,97.50000371933,8|2,0:1|0:0,0:0:0:0:
396,235,59678,1,8,0:1:0:0:
311,186,59926,2,0,P|287:227|304:271,1,97.50000371933,8|2,0:0|0:0,0:0:0:0:
381,332,60422,1,8,0:1:0:0:
291,369,60670,1,8,0:1:0:0:
218,339,60918,5,8,0:0:0:0:
218,339,61042,1,8,0:1:0:0:
218,339,61166,1,8,0:0:0:0:
218,339,61290,1,8,0:0:0:0:
218,339,61414,2,0,P|220:293|183:250,1,97.50000371933,12|0,0:1|0:0,0:0:0:0:
145,166,61901,2,0,P|185:144|204:91,1,97.50000371933,8|8,0:0|0:1,0:0:0:0:
270,26,62389,2,0,P|308:50|401:18,1,146.250005578995,8|0,0:0|0:0,0:0:0:0:
422,22,62877,1,2,0:0:0:0:
495,85,63121,6,0,P|509:130|487:178,2,97.50000371933,8|0|8,0:1|0:0|0:1,0:0:0:0:
402,118,63853,2,0,P|383:161|397:207,1,97.50000371933,8|8,0:0|0:1,0:0:0:0:
470,269,64340,1,8,0:1:0:0:
393,329,64587,1,8,0:1:0:0:
300,296,64835,1,8,0:0:0:0:
300,296,64959,1,8,0:1:0:0:
300,296,65083,1,8,0:0:0:0:
300,296,65207,1,8,0:0:0:0:
300,296,65331,5,12,0:1:0:0:
300,296,68136,6,0,P|262:327|202:338,1,97.5,8|2,0:1|0:0,0:0:0:0:
199,327,68489,1,8,0:1:0:0:
129,363,68666,1,2,0:0:0:0:
57,333,68842,2,0,P|30:292|23:234,1,97.5,8|2,0:1|0:0,0:0:0:0:
16,227,69195,2,0,P|40:205|71:196,1,65,8|2,0:1|0:0,0:0:0:0:
156,203,69548,2,0,P|194:170|217:126,1,97.5,8|2,0:1|0:0,0:0:0:0:
222,113,69901,2,0,P|196:92|161:79,1,65,8|2,0:1|0:0,0:0:0:0:
99,25,70254,2,2,B|98:59|71:81|71:81|35:80|14:109,1,130,8|2,0:1|0:0,0:0:0:0:
0,182,70783,1,2,0:0:0:0:
74,164,70980,6,0,P|102:203|153:232,2,97.5,8|2|2,0:1|0:0|0:0,0:0:0:0:
138,116,71685,2,0,P|179:141|207:180,1,97.5,8|2,0:1|0:0,0:0:0:0:
218,201,72038,1,8,0:1:0:0:
282,250,72215,1,2,0:0:0:0:
347,206,72391,2,0,P|388:182|416:126,1,97.5,8|2,0:1|0:0,0:0:0:0:
412,122,72744,2,0,P|391:94|352:83,1,65,2|2,0:0|0:0,0:0:0:0:
295,123,73097,1,8,0:1:0:0:
161,13,73450,1,8,0:1:0:0:
84,25,73627,5,2,0:0:0:0:
163,31,73803,2,0,P|170:77|142:130,1,97.5,8|2,0:1|0:0,0:0:0:0:
128,134,74156,1,8,0:1:0:0:
52,123,74332,1,2,0:0:0:0:
10,186,74509,2,0,P|9:233|38:286,2,97.5,8|2|2,0:1|0:0|0:0,0:0:0:0:
88,199,75257,6,2,B|107:216|107:216|250:201|250:201|269:217,2,195.00000743866,12|2|8,0:1|0:0|0:0,0:0:0:0:
159,17,76697,2,2,B|279:4|279:4|298:20,1,146.250005578995,2|0,0:0|0:0,0:0:0:0:
317,47,77195,6,0,B|308:110|308:110|342:138,1,97.50000371933,12|0,0:1|0:0,0:0:0:0:
316,222,77686,2,0,B|265:182|265:182|224:198,1,97.50000371933,8|8,0:0|0:1,0:0:0:0:
166,133,78178,2,0,B|225:109|225:109|237:24,1,146.250005578995,8|0,0:1|0:0,0:0:0:0:
217,9,78670,1,2,0:0:0:0:
118,0,78916,6,0,P|82:29|94:80,1,97.50000371933,12|2,0:1|0:0,0:0:0:0:
156,147,79408,1,8,0:1:0:0:
253,142,79654,2,0,P|260:187|224:217,1,97.50000371933,8|2,0:0|0:0,0:0:0:0:
175,301,80145,1,8,0:1:0:0:
77,308,80391,1,8,0:1:0:0:
63,229,80637,5,8,0:0:0:0:
63,229,80760,1,8,0:1:0:0:
63,229,80883,1,8,0:0:0:0:
63,229,81006,1,8,0:0:0:0:
63,229,81129,2,0,P|110:234|139:168,1,97.50000371933,12|2,0:1|0:0,0:0:0:0:
235,220,81616,2,0,P|262:181|220:123,1,97.50000371933,8|2,0:0|0:0,0:0:0:0:
311,63,82104,2,0,P|291:19|193:44,1,146.250005578995,8|2,0:0|0:0,0:0:0:0:
172,20,82592,1,2,0:0:0:0:
78,48,82836,6,0,P|31:53|3:97,2,97.50000371933,12|0|8,0:1|0:0|0:1,0:0:0:0:
151,113,83568,2,0,P|123:151|76:156,1,97.50000371933,8|8,0:0|0:1,0:0:0:0:
15,232,84055,1,8,0:1:0:0:
66,314,84299,1,8,0:1:0:0:
169,287,84543,5,8,0:0:0:0:
169,287,84665,1,8,0:1:0:0:
169,287,84787,1,8,0:0:0:0:
169,287,84909,1,8,0:0:0:0:
169,287,85051,2,0,B|210:279|210:279|269:314,1,97.50000371933,12|2,0:1|0:0,0:0:0:0:
320,246,85542,2,0,B|292:214|292:214|293:145,1,97.50000371933,8|8,0:0|0:1,0:0:0:0:
216,125,86034,2,0,B|202:164|202:164|108:219,1,146.250005578995,8|0,0:1|0:0,0:0:0:0:
88,205,86526,1,2,0:0:0:0:
11,145,86772,6,0,P|3:100|44:61,1,97.50000371933,12|2,0:1|0:0,0:0:0:0:
131,79,87264,1,8,0:1:0:0:
190,1,87510,2,0,P|234:17|248:62,1,97.50000371933,8|2,0:0|0:0,0:0:0:0:
315,133,88001,1,8,0:1:0:0:
412,133,88247,1,8,0:1:0:0:
460,56,88493,5,8,0:0:0:0:
460,56,88616,1,8,0:1:0:0:
460,56,88739,1,8,0:0:0:0:
460,56,88862,1,8,0:0:0:0:
460,56,88985,2,0,P|465:101|413:137,1,97.50000371933,12|2,0:1|0:0,0:0:0:0:
418,232,89477,2,0,P|381:258|324:231,1,97.50000371933,8|2,0:0|0:0,0:0:0:0:
248,291,89969,2,8,P|206:272|186:176,1,146.250005578995,8|2,0:1|0:0,0:1:0:0:
180,157,90460,1,2,0:0:0:0:
265,109,90706,6,0,P|278:156|255:200,2,97.50000371933,8|0|8,0:1|0:0|0:1,0:0:0:0:
182,56,91444,2,0,P|155:16|108:4,1,97.50000371933,8|8,0:0|0:1,0:0:0:0:
19,45,91936,1,8,0:1:0:0:
49,137,92182,1,8,0:1:0:0:
10,226,92428,5,8,0:0:0:0:
10,226,92551,1,8,0:1:0:0:
10,226,92673,1,8,0:0:0:0:
10,226,92796,1,8,0:0:0:0:
10,226,92919,2,0,B|53:245|53:245|111:234,2,97.50000371933,12|2|8,0:1|0:0|0:0,0:0:0:0:
28,129,93657,1,8,0:1:0:0:
121,157,93903,6,0,B|177:185|177:185|257:158,1,146.250005578995,8|2,0:1|0:0,0:0:0:0:
268,136,94395,1,2,0:0:0:0:
308,47,94641,2,0,B|357:47|357:47|412:128|412:128|468:128,1,195.00000743866,8|2,0:1|0:0,0:0:0:0:
510,211,95378,1,8,0:0:0:0:
412,212,95624,1,8,0:1:0:0:
379,304,95870,2,0,L|281:361,1,97.50000371933,8|8,0:1|0:1,0:0:0:0:
229,311,96362,5,8,0:0:0:0:
229,311,96485,1,8,0:1:0:0:
229,311,96608,1,8,0:0:0:0:
229,311,96731,1,8,0:0:0:0:
229,311,96834,2,0,B|252:268|252:268|240:218,2,97.50000371933,12|2|8,0:1|0:0|0:0,0:0:0:0:
158,378,97574,1,8,0:1:0:0:
63,352,97821,2,0,B|24:326|24:326|43:213,1,146.250005578995,8|0,0:1|0:0,0:0:0:0:
58,215,98315,1,2,0:0:0:0:
151,186,98562,6,0,B|193:162|193:162|206:65|206:65|168:31,1,195.00000743866,8|8,0:1|0:1,0:0:0:0:
77,0,99303,1,8,0:0:0:0:
97,95,99550,1,8,0:1:0:0:
10,139,99796,1,8,0:1:0:0:
6,236,100043,1,8,0:1:0:0:
114,277,100290,5,8,0:0:0:0:
114,277,100414,1,8,0:1:0:0:
114,277,100537,1,8,0:0:0:0:
114,277,100661,1,8,0:0:0:0:
114,277,100784,2,0,B|155:253|155:253|215:258,2,97.50000371933,12|2|8,0:1|0:0|0:0,0:0:0:0:
60,358,101525,1,8,0:1:0:0:
157,364,101772,2,0,B|258:350|258:350|290:313,1,146.250005578995,8|2,0:1|0:0,0:0:0:0:
283,295,102266,1,2,0:0:0:0:
268,198,102513,6,0,B|221:112|221:112|235:66|235:66|288:54,1,195.00000743866,8|8,0:1|0:1,0:0:0:0:
363,0,103253,1,8,0:0:0:0:
369,97,103500,1,8,0:1:0:0:
459,133,103747,2,0,L|504:232,1,97.50000371933,8|8,0:1|0:1,0:0:0:0:
470,324,104241,5,8,0:0:0:0:
470,324,104364,1,8,0:1:0:0:
470,324,104488,1,8,0:0:0:0:
470,324,104611,1,8,0:0:0:0:
470,324,104735,2,0,B|430:354|430:354|374:343,2,97.50000371933,12|2|8,0:1|0:0|0:0,0:0:0:0:
507,233,105475,1,8,0:1:0:0:
413,205,105722,2,0,B|364:198|364:198|281:278,1,146.250005578995,8|0,0:1|0:0,0:0:0:0:
294,289,106216,1,2,0:0:0:0:
232,364,106463,6,0,B|185:376|185:376|145:349|145:349|132:247,1,195.00000743866,8|8,0:1|0:1,0:0:0:0:
196,177,107204,1,8,0:0:0:0:
100,158,107451,1,8,0:1:0:0:
71,64,107698,1,8,0:1:0:0:
152,10,107945,1,8,0:1:0:0:
229,74,108192,2,0,L|274:58,3,48.750001859665,8|8|8|8,0:0|0:1|0:0|0:0,0:0:0:0:
285,44,108670,6,0,P|330:53|378:15,1,97.5,12|2,0:1|0:0,0:0:0:0:
385,19,109012,2,0,P|418:29|447:62,1,65,2|2,0:0|0:0,0:0:0:0:
500,108,109355,2,0,P|513:152|477:212,1,97.5,8|2,0:1|0:0,0:0:0:0:
483,203,109698,2,0,P|452:209|428:234,1,65,2|2,0:0|0:0,0:0:0:0:
347,229,110041,2,0,P|333:274|350:329,1,97.5,8|2,0:1|0:0,0:0:0:0:
345,337,110384,2,0,P|329:368|284:387,1,65,2|2,0:0|0:0,0:0:0:0:
228,366,110727,1,2,0:0:0:0:
228,366,111464,6,0,L|292:273,1,97.5,8|2,0:1|0:0,0:0:0:0:
295,276,111819,2,0,L|266:214,1,65,2|2,0:0|0:0,0:0:0:0:
320,150,112174,2,0,L|271:48,1,97.5,8|2,0:1|0:0,0:0:0:0:
275,46,112529,2,0,L|207:40,1,65,2|2,0:0|0:0,0:0:0:0:
150,101,112884,2,0,L|37:92,1,97.5,8|2,0:1|0:0,0:0:0:0:
37,87,113239,2,0,L|-2:142,1,65,2|2,0:0|0:0,0:0:0:0:
29,218,113594,1,2,0:0:0:0:
29,218,114274,6,0,B|62:215|62:215|115:264,1,97.5,8|2,0:1|0:0,0:0:0:0:
112,276,114631,2,0,B|121:308|121:308|154:330,1,65,2|2,0:0|0:0,0:0:0:0:
231,295,114988,2,0,B|244:264|244:264|313:243,1,97.5,8|2,0:1|0:0,0:0:0:0:
322,252,115345,2,0,B|354:260|354:260|389:242,1,65,2|2,0:0|0:0,0:0:0:0:
438,176,115702,2,0,B|418:148|418:148|434:78,1,97.5,8|2,0:1|0:0,0:0:0:0:
446,75,116059,2,0,B|469:51|469:51|471:11,1,65,2|2,0:0|0:0,0:0:0:0:
392,13,116416,1,2,0:0:0:0:
392,13,117131,6,0,L|301:58,1,97.5,8|2,0:1|0:0,0:0:0:0:
297,69,117483,2,0,L|317:140,1,65,2|2,0:0|0:0,0:0:0:0:
282,211,117836,2,0,L|197:267,1,97.5,8|2,0:1|0:0,0:0:0:0:
186,265,118188,2,0,L|134:212,1,65,2|2,0:0|0:0,0:0:0:0:
69,196,118542,5,8,0:0:0:0:
39,103,118807,5,8,0:1:0:0:
120,48,119072,5,8,0:1:0:0:
120,48,119248,2,0,B|180:65|180:65|227:43,2,97.5,8|8|8,0:0|0:1|0:1,0:0:0:0:
44,74,119944,5,12,0:1:0:0:
25,144,120095,2,0,L|-4:167,2,29.2499991073609,8|8|8,0:1|0:1|0:0,0:0:0:0:
99,170,120398,1,8,0:1:0:0:
99,170,120550,2,0,L|168:159,1,58.4999982147217,2|2,0:0|0:0,0:0:0:0:
214,113,120853,1,8,0:1:0:0:
214,113,121004,6,0,P|271:123|327:143,1,116.999996429443,12|8,0:1|0:1,0:0:0:0:
398,121,121459,2,0,P|423:136|446:157,1,58.4999982147217,8|2,0:0|0:0,0:0:0:0:
512,199,121762,1,8,0:1:0:0:
512,199,121913,1,8,0:1:0:0:
465,257,122065,2,0,L|399:272,1,58.4999982147217,8|8,0:0|0:1,0:0:0:0:
350,222,122388,5,12,0:1:0:0:
279,241,122534,2,0,L|250:232,2,29.2499991073609,8|8|8,0:1|0:1|0:0,0:0:0:0:
290,318,122827,1,8,0:1:0:0:
290,318,122973,2,0,L|228:337,1,58.4999982147217,2|2,0:0|0:0,0:0:0:0:
163,366,123266,1,8,0:1:0:0:
163,366,123412,6,0,P|108:346|47:305,1,116.999996429443,12|8,0:1|0:1,0:0:0:0:
7,259,123871,1,8,0:0:0:0:
80,244,124024,2,0,P|102:222|111:183,1,58.4999982147217,8|8,0:1|0:1,0:0:0:0:
80,132,124330,1,8,0:1:0:0:
80,132,124483,1,8,0:0:0:0:
149,107,124636,1,8,0:1:0:0:
146,34,124788,6,0,P|189:20|250:24,1,97.5,12|2,0:1|0:0,0:0:0:0:
255,28,125091,2,0,L|255:95,1,65,8|8,0:0|0:1,0:0:0:0:
310,140,125394,5,8,0:1:0:0:
398,98,125621,5,2,0:0:0:0:
484,152,125848,5,12,0:1:0:0:
484,152,126000,2,0,L|498:255,1,97.5,8|2,0:1|0:0,0:0:0:0:
493,259,126303,2,0,P|464:275|431:272,1,65,8|8,0:0|0:1,0:0:0:0:
369,311,126606,2,0,P|326:292|306:243,1,97.5,8|2,0:1|0:0,0:0:0:0:
303,237,126909,2,0,P|276:217|246:217,1,65,8|8,0:0|0:1,0:0:0:0:
183,173,127232,5,12,0:1:0:0:
118,208,127383,2,0,L|74:217,2,29.2499991073609,0|2|8,0:0|0:0|0:0,0:0:0:0:
161,274,127686,1,8,0:1:0:0:
161,274,127838,2,0,L|225:305,1,58.4999982147217,8|8,0:1|0:1,0:0:0:0:
365,384,128292,6,0,P|384:362|391:321,1,58.4999982147217,12|0,0:1|0:0,0:0:0:0:
451,292,128595,1,2,0:0:0:0:
412,231,128747,2,0,P|413:177|450:114,2,116.999996429443,8|8|8,0:0|0:1|0:0,0:0:0:0:
292,333,129656,5,12,0:1:0:0:
227,366,129807,2,0,L|199:388,2,29.2499991073609,8|8|8,0:1|0:1|0:0,0:0:0:0:
194,306,130110,1,8,0:1:0:0:
194,306,130262,2,0,L|174:240,1,58.4999982147217,2|2,0:0|0:0,0:0:0:0:
124,203,130565,1,8,0:1:0:0:
124,203,130716,6,0,P|144:147|178:92,1,116.999996429443,8|8,0:1|0:1,0:0:0:0:
181,26,131171,2,0,P|208:10|235:2,1,58.4999982147217,8|2,0:0|0:0,0:0:0:0:
311,0,131474,1,8,0:1:0:0:
311,0,131625,1,8,0:1:0:0:
333,68,131777,2,0,L|386:97,1,58.4999982147217,8|8,0:0|0:1,0:0:0:0:
458,84,132080,5,12,0:1:0:0:
496,147,132232,2,0,L|515:175,2,29.2499991073609,8|8|8,0:1|0:1|0:0,0:0:0:0:
436,184,132535,1,8,0:1:0:0:
436,184,132686,2,0,L|372:191,1,58.4999982147217,2|2,0:0|0:0,0:0:0:0:
322,237,132989,1,8,0:1:0:0:
322,237,133141,6,0,P|263:223|205:190,1,116.999996429443,12|8,0:1|0:1,0:0:0:0:
192,128,133595,2,0,P|165:115|123:108,1,58.4999982147217,8|2,0:0|0:0,0:0:0:0:
73,72,133898,1,8,0:1:0:0:
73,72,134050,1,8,0:1:0:0:
23,128,134201,1,8,0:0:0:0:
23,128,134353,1,8,0:1:0:0:
63,188,134504,6,0,P|69:235|36:285,1,97.5,12|2,0:1|0:0,0:0:0:0:
37,288,134807,2,0,L|69:350,1,65,8|8,0:0|0:1,0:0:0:0:
132,384,135110,5,8,0:1:0:0:
228,367,135338,5,2,0:0:0:0:
247,274,135565,5,8,0:1:0:0:
247,274,135716,2,0,L|183:181,1,97.5,12|2,0:1|0:0,0:0:0:0:
192,182,136019,2,0,P|197:151|218:123,1,65,8|8,0:0|0:1,0:0:0:0:
217,48,136322,2,0,P|262:34|313:37,1,97.5,8|2,0:1|0:0,0:0:0:0:
326,38,136625,2,0,L|389:84,1,65,8|8,0:0|0:1,0:0:0:0:
452,53,136928,5,8,0:1:0:0:
484,121,137080,2,0,L|514:126,2,29.2499991073609,8|8|8,0:1|0:1|0:0,0:0:0:0:
432,179,137383,1,8,0:1:0:0:
432,179,137535,2,0,P|405:185|364:182,1,58.4999982147217,8|8,0:1|0:1,0:0:0:0:
245,76,137989,6,0,P|217:68|176:72,1,58.4999982147217,12|0,0:1|0:0,0:0:0:0:
119,41,138292,1,2,0:0:0:0:
72,98,138444,2,0,P|48:112|24:140,1,58.4999982147217,8|0,0:0|0:0,0:0:0:0:
50,206,138747,2,0,P|36:230|29:266,1,58.4999982147217,8|8,0:1|0:1,0:0:0:0:
75,320,139050,1,8,0:0:0:0:
231,372,139353,5,12,0:1:0:0:
302,356,139504,2,0,L|324:378,2,29.2499991073609,2|2|8,0:0|0:0|0:0,0:0:0:0:
288,284,139807,1,2,0:0:0:0:
288,284,139959,2,0,L|222:259,1,58.4999982147217,8|8,0:1|0:1,0:0:0:0:
114,166,140413,2,0,B|4:124|4:124|9:65,1,175.499994644165,12|8,0:1|0:1,0:0:0:0:
9,65,141777,5,8,0:1:0:0:
71,27,141928,2,0,L|84:-5,2,29.2499991073609,2|2|8,0:0|0:0|0:0,0:0:0:0:
141,61,142232,1,2,0:0:0:0:
141,61,142383,2,0,L|115:115,1,58.4999982147217,8|8,0:1|0:1,0:0:0:0:
208,238,142838,2,0,B|157:343|157:343|215:401,1,175.499994644165,12|8,0:1|0:1,0:0:0:0:
198,384,144201,5,8,0:1:0:0:
153,327,144353,2,0,L|124:318,2,29.2499991073609,2|2|8,0:0|0:0|0:0,0:0:0:0:
217,291,144656,1,2,0:0:0:0:
217,291,144807,2,0,L|267:252,1,58.4999982147217,8|8,0:1|0:1,0:0:0:0:
313,90,145262,2,0,B|405:19|405:19|480:22,1,175.499994644165,12|8,0:1|0:1,0:0:0:0:
464,21,146625,5,8,0:1:0:0:
394,41,146777,2,0,L|358:39,2,29.2499991073609,2|2|8,0:0|0:0|0:0,0:0:0:0:
437,105,147080,1,2,0:0:0:0:
437,105,147232,2,0,L|451:168,1,58.4999982147217,8|8,0:1|0:1,0:0:0:0:
296,250,147686,2,0,L|272:135,1,116.999996429443,12|8,0:1|0:1,0:0:0:0:
334,91,148141,1,8,0:0:0:0:
334,91,148292,1,8,0:1:0:0:
399,126,148444,2,0,P|409:159|405:207,1,58.4999982147217,12|0,0:1|0:0,0:0:0:0:
375,250,148747,1,12,0:1:0:0:
250,355,149050,6,0,B|212:370|212:370|123:346,1,116.999996429443,8|8,0:1|0:0,0:0:0:0:
14,255,149656,1,8,0:1:0:0:
14,255,149807,2,0,P|33:235|64:221,1,58.4999982147217,8|8,0:1|0:0,0:0:0:0:
135,225,150110,2,0,P|178:191|156:129,1,116.999996429443,8|8,0:1|0:1,0:0:0:0:
149,64,150565,2,0,P|168:44|199:30,1,58.4999982147217,8|2,0:0|0:0,0:0:0:0:
265,0,150868,1,8,0:1:0:0:
265,0,151019,1,8,0:1:0:0:
323,46,151171,1,8,0:0:0:0:
226,181,151474,6,0,B|263:227|263:227|320:254,1,116.999996429443,12|8,0:1|0:0,0:0:0:0:
477,209,152080,1,8,0:1:0:0:
477,209,152232,2,0,P|493:236|486:281,1,58.4999982147217,8|8,0:1|0:0,0:0:0:0:
460,328,152535,2,0,L|331:320,1,116.999996429443,8|8,0:1|0:1,0:0:0:0:
284,369,152989,1,8,0:0:0:0:
179,258,153292,1,8,0:1:0:0:
179,258,153444,1,8,0:1:0:0:
245,228,153595,2,0,P|255:200|249:161,1,58.4999982147217,8|2,0:0|0:0,0:0:0:0:
264,97,153898,6,0,B|237:65|237:65|138:45,1,116.999996429443,8|8,0:1|0:0,0:0:0:0:
5,109,154504,1,8,0:1:0:0:
5,109,154656,2,0,P|13:138|42:163,1,58.4999982147217,8|8,0:1|0:0,0:0:0:0:
105,167,154959,2,0,P|129:218|93:277,1,116.999996429443,8|8,0:1|0:1,0:0:0:0:
46,312,155413,2,0,P|54:341|83:366,1,58.4999982147217,8|2,0:0|0:0,0:0:0:0:
148,384,155716,1,8,0:1:0:0:
148,384,155868,1,8,0:1:0:0:
194,325,156019,2,0,L|243:294,1,58.4999982147217,8|8,0:0|0:1,0:0:0:0:
274,223,156322,6,0,B|357:240|357:240|411:226,1,116.999996429443,12|8,0:1|0:0,0:0:0:0:
502,125,156928,1,8,0:1:0:0:
502,125,157080,2,0,L|471:70,1,58.4999982147217,8|8,0:1|0:0,0:0:0:0:
403,54,157383,2,0,B|374:100|374:100|299:106,1,116.999996429443,12|8,0:1|0:1,0:0:0:0:
251,64,157838,1,8,0:0:0:0:
141,191,158141,1,8,0:1:0:0:
141,191,158292,1,8,0:1:0:0:
76,218,158444,2,0,P|50:212|25:187,1,58.4999982147217,8|8,0:0|0:1,0:0:0:0:
0,118,158747,6,0,P|46:87|122:44,1,116.999996429443,12|8,0:1|0:0,0:0:0:0:
241,6,159353,1,8,0:1:0:0:
241,6,159504,2,0,P|268:12|306:28,1,58.4999982147217,8|8,0:1|0:0,0:0:0:0:
373,31,159807,2,0,P|362:85|401:127,1,116.999996429443,12|8,0:1|0:1,0:0:0:0:
475,139,160262,2,0,P|490:164|490:204,1,58.4999982147217,8|2,0:0|0:0,0:0:0:0:
448,253,160565,1,8,0:1:0:0:
448,253,160716,1,8,0:1:0:0:
371,243,160868,2,0,P|345:249|306:273,1,58.4999982147217,8|0,0:0|0:0,0:0:0:0:
283,335,161171,6,0,P|271:361|236:379,1,58.4999982147217,12|2,0:1|0:0,0:0:0:0:
177,355,161474,2,0,P|189:329|224:311,1,58.4999982147217,8|2,0:0|0:0,0:0:0:0:
246,248,161777,1,8,0:1:0:0:
246,248,161928,1,8,0:1:0:0:
199,186,162080,1,8,0:0:0:0:
237,124,162212,2,0,P|265:113|304:116,1,65,12|2,0:1|0:0,0:0:0:0:
356,162,162514,1,8,0:1:0:0:
424,135,162666,2,0,P|432:106|423:71,1,58.4999982147217,8|2,0:0|0:0,0:0:0:0:
419,0,162969,5,8,0:1:0:0:
419,0,163120,1,8,0:1:0:0:
344,30,163272,1,8,0:0:0:0:
344,30,163423,1,8,0:1:0:0:
265,17,163595,2,0,B|208:5|208:5|166:70,2,116.999996429443,12|8|8,0:1|0:0|0:1,0:0:0:0:
297,91,164337,1,8,0:1:0:0:
297,91,164486,1,8,0:0:0:0:
371,101,164634,6,0,B|430:101|430:101|477:158,1,116.999996429443,12|8,0:1|0:1,0:0:0:0:
452,218,165080,2,0,L|498:275,1,58.4999982147217,8|2,0:0|0:0,0:0:0:0:
506,338,165397,1,8,0:1:0:0:
506,338,165545,1,8,0:1:0:0:
445,375,165694,2,0,P|414:377|377:357,1,58.4999982147217,8|8,0:0|0:1,0:0:0:0:
354,302,166019,6,0,B|299:281|299:281|242:330,2,116.999996429443,12|8|8,0:1|0:0|0:1,0:0:0:0:
412,256,166765,1,8,0:1:0:0:
412,256,166914,1,8,0:0:0:0:
406,184,167063,2,0,B|379:153|379:153|301:155,1,116.999996429443,12|8,0:1|0:1,0:0:0:0:
237,120,167511,6,0,P|207:127|179:149,1,58.4999982147217,8|8,0:0|0:1,0:0:0:0:
160,212,167810,1,8,0:0:0:0:
160,212,167959,1,8,0:1:0:0:
88,206,168108,1,8,0:0:0:0:
5,65,168424,1,12,0:1:0:0:
166,5,168722,6,0,P|193:5|234:22,1,58.4999982147217,8|8,0:0|0:1,0:0:0:0:
276,66,169021,2,0,P|305:66|332:75,2,58.4999982147217,8|8|8,0:1|0:1|0:0,0:0:0:0:
224,117,169468,2,0,P|205:167|145:175,1,116.999996429443,12|8,0:1|0:1,0:0:0:0:
81,145,169916,2,0,P|55:156|27:195,1,58.4999982147217,8|8,0:0|0:1,0:0:0:0:
0,244,170215,1,8,0:0:0:0:
0,244,170364,1,8,0:1:0:0:
56,292,170513,1,8,0:0:0:0:
215,350,170848,5,12,0:1:0:0:
372,278,171154,2,0,P|401:282|429:295,1,58.4999982147217,8|8,0:0|0:1,0:0:0:0:
457,361,171460,2,0,P|485:364|512:376,2,58.4999982147217,8|8|8,0:1|0:1|0:0,0:0:0:0:
387,377,171919,2,0,P|333:371|301:313,1,116.999996429443,12|8,0:1|0:1,0:0:0:0:
254,265,172378,2,0,P|262:236|286:214,1,58.4999982147217,8|8,0:0|0:1,0:0:0:0:
353,199,172684,1,8,0:0:0:0:
353,199,172837,1,8,0:1:0:0:
377,132,172990,1,8,0:0:0:0:
282,0,173292,5,12,0:1:0:0:
150,77,173595,2,0,P|122:83|89:82,1,58.4999982147217,8|8,0:0|0:1,0:0:0:0:
57,144,173898,2,0,P|29:150|-4:149,2,58.4999982147217,8|8|8,0:1|0:1|0:0,0:0:0:0:
117,183,174352,2,0,P|137:235|91:291,1,116.999996429443,12|8,0:1|0:1,0:0:0:0:
72,347,174807,2,0,P|90:370|124:387,1,58.4999982147217,8|8,0:0|0:1,0:0:0:0:
193,384,175110,1,8,0:0:0:0:
193,384,175261,1,8,0:1:0:0:
234,324,175413,1,8,0:0:0:0:
205,158,175716,5,12,0:1:0:0:
318,44,176019,2,0,P|346:37|380:39,1,58.4999982147217,8|8,0:0|0:1,0:0:0:0:
440,74,176322,2,0,P|468:67|502:69,2,58.4999982147217,8|8|8,0:1|0:1|0:0,0:0:0:0:
385,121,176776,2,0,P|372:175|418:221,1,116.999996429443,12|8,0:1|0:1,0:0:0:0:
477,251,177231,2,0,P|480:282|459:314,1,58.4999982147217,8|8,0:0|0:1,0:0:0:0:
443,377,177534,1,8,0:0:0:0:
443,377,177685,1,8,0:1:0:0:
372,348,177837,2,0,L|313:322,1,58.4999982147217,8|8,0:0|0:1,0:0:0:0:
244,275,178145,6,0,L|159:291,2,65,8|2|2,0:1|0:0|0:0,0:0:0:0:
267,251,178626,1,8,0:0:0:0:
224,102,178947,1,8,0:0:0:0:
367,30,179267,1,8,0:0:0:0:
367,30,179428,2,0,P|384:67|383:288,1,260,8|0,0:1|0:0,0:0:0:0:
