osu file format v14

[General]
AudioFilename: audio.mp3
AudioLeadIn: 0
PreviewTime: 25676
Countdown: 0
SampleSet: Normal
StackLeniency: 0.7
Mode: 1
LetterboxInBreaks: 0
WidescreenStoryboard: 1

[Editor]
Bookmarks: 25676,56478
DistanceSpacing: 1.2
BeatDivisor: 12
GridSize: 16
TimelineZoom: 2.2

[Metadata]
Title:thank u, next
TitleUnicode:thank u, next
Artist:SCRIPT
ArtistUnicode:SCRIPT
Creator:op45667
Version:slay
Source:
Tags:ariana grande nightcore pitched hyperpop remix instrumental electronic english vocals you speed up sped-up speed-up
BeatmapID:3591571
BeatmapSetID:1754031

[Difficulty]
HPDrainRate:6
CircleSize:5
OverallDifficulty:6.5
ApproachRate:5
SliderMultiplier:1.4
SliderTickRate:1

[Events]
//Background and Video events
0,0,"5884d7840023df349d208be8.jpg",0,-70
//Break Periods
//Storyboard Layer 0 (Background)
//Storyboard Layer 1 (Fail)
//Storyboard Layer 2 (Pass)
//Storyboard Layer 3 (Foreground)
//Storyboard Layer 4 (Overlay)
//Storyboard Sound Samples

[TimingPoints]
62,320.855614973262,4,1,0,70,1,0
62,-100,4,1,0,70,0,0
1024,-90.9090909090909,4,1,0,80,0,0
1104,-92.9791447778263,4,1,0,80,0,0
1184,-95.1456680177351,4,1,0,80,0,0
1265,-97.4154701611544,4,1,0,80,0,0
1345,-99.7963157196163,4,1,0,80,0,0
2307,-90.9090909090909,4,1,0,80,0,0
2387,-92.9791447778263,4,1,0,80,0,0
2467,-95.1456680177351,4,1,0,80,0,0
2548,-97.4154701611544,4,1,0,80,0,0
2628,-99.7963157196163,4,1,0,80,0,0
3591,-90.9090909090909,4,1,0,80,0,0
3671,-92.9791447778263,4,1,0,80,0,0
3751,-95.1456680177351,4,1,0,80,0,0
3832,-97.4154701611544,4,1,0,80,0,0
3912,-99.7963157196163,4,1,0,80,0,0
4874,-98.0392156862745,4,1,0,80,0,0
4955,-96.1538461538461,4,1,0,80,0,0
5035,-94.3396226415094,4,1,0,80,0,0
5115,-92.5925925925926,4,1,0,80,0,0
5195,-90.9090909090909,4,1,0,80,0,0
9045,-90.9090909090909,4,1,0,80,0,0
9206,-90.3980951313394,4,1,0,80,0,0
9286,-90.1448266785417,4,1,0,80,0,0
9366,-89.8928926184451,4,1,0,80,0,0
9527,-89.3932256025774,4,1,0,80,0,0
9607,-89.1454693598107,4,1,0,80,0,0
9687,-88.8991616809054,4,1,0,80,0,0
9767,-88.6541327453791,4,1,0,80,0,0
9848,-88.4104508225708,4,1,0,80,0,0
10008,-87.9270838279232,4,1,0,80,0,0
10061,-87.7671852537086,4,1,0,80,0,0
10115,-87.6077904351567,4,1,0,80,0,0
10168,-87.4490499972454,4,1,0,80,0,0
10329,-86.9565217391304,4,1,0,80,0,0
20596,-86.9565217391304,4,1,0,80,0,0
20757,-86.7995278105687,4,1,0,80,0,0
20837,-86.721243235743,4,1,0,80,0,0
20917,-86.6431748138688,4,1,0,80,0,0
20997,-86.5651718881335,4,1,0,80,0,0
21078,-86.4873092846721,4,1,0,80,0,0
21158,-86.4095866251785,4,1,0,80,0,0
21238,-86.3320035327056,4,1,0,80,0,0
21318,-86.2545596316585,4,1,0,80,0,0
21398,-86.1772545477892,4,1,0,80,0,0
21559,-86.0231333410181,4,1,0,80,0,0
21612,-85.9718081246798,4,1,0,80,0,0
21666,-85.9206179410842,4,1,0,80,0,0
21719,-85.8694886815427,4,1,0,80,0,0
21799,-85.792871985024,4,1,0,80,0,0
21880,-85.7163918884864,4,1,0,80,0,0
22040,-85.5638400366898,4,1,0,80,0,0
22120,-85.487840636987,4,1,0,80,0,0
22201,-85.4119031736501,4,1,0,80,0,0
22281,-85.3361004986188,4,1,0,80,0,0
22361,-85.2604322533394,4,1,0,80,0,0
22441,-85.1848980805287,4,1,0,80,0,0
22521,-85.1094976241684,4,1,0,80,0,0
22602,-85.0342305294997,4,1,0,80,0,0
22682,-84.9591686235595,4,1,0,80,0,0
22842,-84.8092978129378,4,1,0,80,0,0
22896,-84.7594822551786,4,1,0,80,0,0
22949,-84.7096534273949,4,1,0,80,0,0
23003,-84.6599548254481,4,1,0,80,0,0
23083,-84.5854803947773,4,1,0,80,0,0
23163,-84.5111368776177,4,1,0,80,0,0
23324,-84.3629123764611,4,1,0,80,0,0
23404,-84.2889594106516,4,1,0,80,0,0
23484,-84.2151359863908,4,1,0,80,0,0
23564,-84.1414417636046,4,1,0,80,0,0
23644,-84.0678764034081,4,1,0,80,0,0
23725,-83.9944395681006,4,1,0,80,0,0
23805,-83.9212013487816,4,1,0,80,0,0
23885,-83.8480204320856,4,1,0,80,0,0
23965,-83.7749670345505,4,1,0,80,0,0
24126,-83.6292414660541,4,1,0,80,0,0
24179,-83.5808021583906,4,1,0,80,0,0
24233,-83.5324189317874,4,1,0,80,0,0
24286,-83.4840219930308,4,1,0,80,0,0
24366,-83.4116707941542,4,1,0,80,0,0
24447,-83.3393754380526,4,1,0,80,0,0
24687,-105.263157894737,4,1,0,90,0,0
24928,-99.2728265455538,4,1,0,90,0,0
25088,-95.64426454821,4,1,0,90,0,0
25249,-92.2715218711188,4,1,0,90,0,0
25409,-89.1285456449564,4,1,0,90,0,0
25570,-86.1927044771077,4,1,0,90,0,0
25730,-66.6666666666667,4,1,0,100,0,1
26051,-68.3715336487084,4,1,0,100,0,1
26211,-69.2570656058331,4,1,0,100,0,1
26291,-69.708513849339,4,1,0,100,0,1
26372,-70.1658369556447,4,1,0,100,0,1
26452,-70.6292501151257,4,1,0,100,0,1
26532,-71.0987746837171,4,1,0,100,0,1
26693,-72.0569076633962,4,1,0,100,0,1
26853,-73.0411638086877,4,1,0,100,0,1
26933,-73.5434715460309,4,1,0,100,0,1
27013,-74.0526810773184,4,1,0,100,0,1
27174,-75.0926643478052,4,1,0,100,0,1
27334,-76.1622163814265,4,1,0,100,0,1
27414,-76.70852906793,4,1,0,100,0,1
27495,-77.2626761009545,4,1,0,100,0,1
27575,-77.8249483436905,4,1,0,100,0,1
27655,-78.3954643520144,4,1,0,100,0,1
27816,-79.5619003519023,4,1,0,100,0,1
27976,-80.7635711066709,4,1,0,100,0,1
28056,-81.3781553362505,4,1,0,100,0,1
28136,-82.002097613657,4,1,0,100,0,1
28217,-82.6357498781123,4,1,0,100,0,1
28297,-83.3333333333333,4,1,0,100,0,1
28457,-81.6326530612245,4,1,0,100,0,1
28618,-80,4,1,0,100,0,1
28698,-79.2079207920792,4,1,0,100,0,1
28778,-78.4313725490196,4,1,0,100,0,1
28858,-77.6699029126214,4,1,0,100,0,1
28939,-76.9230769230769,4,1,0,100,0,1
29019,-76.1904761904762,4,1,0,100,0,1
29099,-75.4716981132076,4,1,0,100,0,1
29259,-74.0740740740741,4,1,0,100,0,1
29340,-73.394495412844,4,1,0,100,0,1
29420,-72.7272727272727,4,1,0,100,0,1
29473,-72.2891740455841,4,1,0,100,0,1
29527,-71.856270214067,4,1,0,100,0,1
29580,-71.4285714285714,4,1,0,100,0,1
29901,-100,4,1,0,100,0,1
30061,-96.4911942136161,4,1,0,100,0,1
30142,-94.8276270808737,4,1,0,100,0,1
30222,-93.2203626831431,4,1,0,100,0,1
30382,-90.1639270357437,4,1,0,100,0,1
30543,-87.301552658114,4,1,0,100,0,1
30623,-85.9375268554771,4,1,0,100,0,1
30703,-84.6153976331381,4,1,0,100,0,1
30783,-83.3333333333333,4,1,0,100,0,1
30864,-66.6666666666667,4,1,0,100,0,1
31184,-68.3760683760684,4,1,0,100,0,1
31345,-69.2640692640693,4,1,0,100,0,1
31425,-69.7167755991285,4,1,0,100,0,1
31505,-70.1754385964912,4,1,0,100,0,1
31586,-70.6401766004415,4,1,0,100,0,1
31666,-71.1111111111111,4,1,0,100,0,1
31826,-72.0720720720721,4,1,0,100,0,1
31987,-73.0593607305936,4,1,0,100,0,1
32067,-73.5632183908046,4,1,0,100,0,1
32147,-74.0740740740741,4,1,0,100,0,1
32227,-74.5920745920746,4,1,0,100,0,1
32307,-75.1173708920188,4,1,0,100,0,1
32468,-76.1904761904762,4,1,0,100,0,1
32548,-76.7386091127098,4,1,0,100,0,1
32628,-77.2946859903382,4,1,0,100,0,1
32709,-77.8588807785888,4,1,0,100,0,1
32789,-78.4313725490196,4,1,0,100,0,1
32949,-79.6019900497512,4,1,0,100,0,1
33110,-80.8080808080808,4,1,0,100,0,1
33190,-81.4249363867685,4,1,0,100,0,1
33270,-82.0512820512821,4,1,0,100,0,1
33430,-83.3333333333333,4,1,0,100,0,1
33511,-82.478648339911,4,1,0,100,0,1
33591,-81.6413170377265,4,1,0,100,0,1
33751,-80.016579435259,4,1,0,100,0,1
33832,-79.2282534289988,4,1,0,100,0,1
33912,-78.4553091099951,4,1,0,100,0,1
33992,-77.6972402717228,4,1,0,100,0,1
34072,-76.9537400287191,4,1,0,100,0,1
34152,-76.2243343138324,4,1,0,100,0,1
34233,-75.5086261054463,4,1,0,100,0,1
34393,-74.1167323711499,4,1,0,100,0,1
34473,-73.4398799111084,4,1,0,100,0,1
34553,-72.7752779469803,4,1,0,100,0,1
34607,-72.3388525466531,4,1,0,100,0,1
34660,-71.9075786273418,4,1,0,100,0,1
34714,-71.4814677146803,4,1,0,100,0,1
35035,-100,4,1,0,100,0,1
35195,-96.4911942136161,4,1,0,100,0,1
35275,-94.8276270808737,4,1,0,100,0,1
35356,-93.2203626831431,4,1,0,100,0,1
35516,-90.1639270357437,4,1,0,100,0,1
35676,-87.301552658114,4,1,0,100,0,1
35757,-85.9375268554771,4,1,0,100,0,1
35837,-84.6153976331381,4,1,0,100,0,1
35917,-83.3333333333333,4,1,0,100,0,1
35997,-66.6666666666667,4,1,0,100,0,1
36291,-71.4285714285714,4,1,0,100,0,1
36398,-74.0740740740741,4,1,0,100,0,1
36479,-76.9230769230769,4,1,0,100,0,1
36559,-80,4,1,0,100,0,1
36639,-83.3333333333333,4,1,0,100,0,1
37548,-71.4285714285714,4,1,0,100,0,1
37655,-74.0740740740741,4,1,0,100,0,1
37736,-76.9230769230769,4,1,0,100,0,1
37816,-80,4,1,0,100,0,1
37896,-83.3333333333333,4,1,0,100,0,1
38832,-71.4285714285714,4,1,0,100,0,1
38939,-74.0740740740741,4,1,0,100,0,1
39020,-76.9230769230769,4,1,0,100,0,1
39100,-80,4,1,0,100,0,1
39180,-83.3333333333333,4,1,0,100,0,1
39366,-83.3333333333333,4,1,0,100,0,1
39447,-81.1110921851896,4,1,0,100,0,1
39527,-79.0043555101193,4,1,0,100,0,1
39687,-75.10287215914,4,1,0,100,0,1
39767,-73.2931491427633,4,1,0,100,0,1
39848,-71.5686414840473,4,1,0,100,0,1
40168,-100,4,1,0,100,0,1
40329,-96.5167118686601,4,1,0,100,0,1
40489,-93.267921431103,4,1,0,100,0,1
40570,-91.724101241394,4,1,0,100,0,1
40650,-90.2306385351597,4,1,0,100,0,1
40730,-88.7850301336392,4,1,0,100,0,1
40810,-87.3850122470095,4,1,0,100,0,1
40971,-84.7133849689653,4,1,0,100,0,1
41051,-83.4379088457533,4,1,0,100,0,1
41131,-66.6666666666667,4,1,0,100,0,1
41398,-71.4285714285714,4,1,0,100,0,1
41505,-74.0740740740741,4,1,0,100,0,1
41586,-76.9230769230769,4,1,0,100,0,1
41666,-80,4,1,0,100,0,1
41746,-83.3333333333333,4,1,0,100,0,1
42682,-71.4285714285714,4,1,0,100,0,1
42789,-74.0740740740741,4,1,0,100,0,1
42870,-76.9230769230769,4,1,0,100,0,1
42950,-80,4,1,0,100,0,1
43030,-83.3333333333333,4,1,0,100,0,1
43965,-71.4285714285714,4,1,0,100,0,1
44072,-74.0740740740741,4,1,0,100,0,1
44153,-76.9230769230769,4,1,0,100,0,1
44233,-80,4,1,0,100,0,1
44313,-83.3333333333333,4,1,0,100,0,1
44500,-83.3333333333333,4,1,0,100,0,1
44580,-81.0811029948927,4,1,0,100,0,1
44660,-78.9473476454348,4,1,0,100,0,1
44741,-76.9230769230769,4,1,0,100,0,1
44821,-75.0000187500047,4,1,0,100,0,1
44901,-73.1707138608015,4,1,0,100,0,1
44981,-71.4285714285714,4,1,0,100,0,1
45302,-83.3333333333333,4,1,0,100,0,1
45382,-83.9120467490795,4,1,0,100,0,1
45463,-84.4988541955371,4,1,0,100,0,1
45543,-85.0939266762653,4,1,0,100,0,1
45623,-85.6973666056216,4,1,0,100,0,1
45783,-86.9304426063485,4,1,0,100,0,1
45944,-88.1995214293967,4,1,0,100,0,1
46024,-88.8480582701105,4,1,0,100,0,1
46104,-89.5062032274147,4,1,0,100,0,1
46265,-90.8521018633766,4,1,0,100,0,0
50757,-80,4,1,0,90,0,0
50837,-81.2182741116751,4,1,0,90,0,0
50917,-82.4742268041237,4,1,0,90,0,0
50997,-83.7696335078534,4,1,0,90,0,0
51078,-85.1063829787234,4,1,0,90,0,0
51158,-86.4864864864865,4,1,0,90,0,0
51238,-87.9120879120879,4,1,0,90,0,0
51318,-89.3854748603352,4,1,0,90,0,0
51398,-90.9090909090909,4,1,0,90,0,0
51559,-90.9090909090909,4,1,0,90,0,0
51719,-90.3742397267083,4,1,0,90,0,0
51799,-90.1091672561308,4,1,0,90,0,0
51880,-89.8456451815781,4,1,0,90,0,0
52040,-89.3231981277858,4,1,0,90,0,0
52120,-89.0642464942086,4,1,0,90,0,0
52201,-88.8067919434478,4,1,0,90,0,0
52281,-88.5508215302468,4,1,0,90,0,0
52361,-88.2963224581696,4,1,0,90,0,0
52441,-88.0432820774693,4,1,0,90,0,0
52521,-87.7916878829912,4,1,0,90,0,0
52682,-87.292788742722,4,1,0,90,0,0
52842,-86.7995278105687,4,1,0,90,0,0
53003,-86.3118100449685,4,1,0,90,0,0
53083,-86.070074812109,4,1,0,90,0,0
53163,-85.8296161957053,4,1,0,90,0,0
53243,-85.5904974006166,4,1,0,90,0,0
53324,-85.3527072598452,4,1,0,90,0,0
53404,-85.1162347301475,4,1,0,90,0,0
53484,-84.8810688903243,4,1,0,90,0,0
53564,-84.6471989395399,4,1,0,90,0,0
53644,-84.414614195668,4,1,0,90,0,0
53805,-83.9532581839735,4,1,0,90,0,0
53965,-83.4969177112827,4,1,0,90,0,0
54045,-83.2706028125479,4,1,0,90,0,0
54126,-83.0455114316299,4,1,0,90,0,0
54206,-82.8216336732885,4,1,0,90,0,0
54286,-82.5989597487009,4,1,0,90,0,0
54366,-82.3774799740346,4,1,0,90,0,0
54447,-82.1571847690438,4,1,0,90,0,0
54527,-81.9380646556881,4,1,0,90,0,0
54607,-81.7201102567728,4,1,0,90,0,0
54767,-83.3333333333333,4,1,0,90,0,0
54928,-85.4700854700855,4,1,0,90,0,0
55008,-87.719298245614,4,1,0,90,0,0
55088,-90.0900900900901,4,1,0,90,0,0
55168,-92.5925925925926,4,1,0,90,0,0
55249,-95.2380952380952,4,1,0,90,0,0
55329,-98.0392156862745,4,1,0,90,0,0
55409,-103.092783505155,4,1,0,90,0,0
55489,-105.263157894737,4,1,0,90,0,0
55730,-99.2728265455538,4,1,0,90,0,0
55890,-95.64426454821,4,1,0,90,0,0
56051,-92.2715218711188,4,1,0,90,0,0
56211,-89.1285456449564,4,1,0,90,0,0
56372,-86.2068965517241,4,1,0,90,0,0
56532,-66.6666666666667,4,1,0,90,0,1
56853,-68.3715336487084,4,1,0,90,0,1
57013,-69.2570656058331,4,1,0,90,0,1
57094,-69.708513849339,4,1,0,90,0,1
57174,-70.1658369556447,4,1,0,90,0,1
57254,-70.6292501151257,4,1,0,90,0,1
57334,-71.0987746837171,4,1,0,90,0,1
57414,-71.5746348083195,4,1,0,90,0,1
57495,-72.0569076633962,4,1,0,90,0,1
57655,-73.0411638086877,4,1,0,90,0,1
57735,-73.5434715460309,4,1,0,90,0,1
57816,-74.0526810773184,4,1,0,90,0,1
57976,-75.0926643478052,4,1,0,90,0,1
58136,-76.1622163814265,4,1,0,90,0,1
58217,-76.70852906793,4,1,0,90,0,1
58297,-77.2626761009545,4,1,0,90,0,1
58377,-77.8249483436905,4,1,0,90,0,1
58457,-78.3954643520144,4,1,0,90,0,1
58537,-78.97434439448,4,1,0,90,0,1
58618,-79.5619003519023,4,1,0,90,0,1
58778,-80.7635711066709,4,1,0,90,0,1
58858,-81.3781553362505,4,1,0,90,0,1
58939,-82.002097613657,4,1,0,90,0,1
59019,-82.6357498781123,4,1,0,90,0,1
59099,-83.2792712064418,4,1,0,90,0,1
59259,-81.6326530612245,4,1,0,90,0,1
59420,-80,4,1,0,90,0,1
59500,-79.2079207920792,4,1,0,90,0,1
59580,-78.4313725490196,4,1,0,90,0,1
59660,-77.6699029126214,4,1,0,90,0,1
59741,-76.9230769230769,4,1,0,90,0,1
59821,-76.1904761904762,4,1,0,90,0,1
59901,-75.4716981132076,4,1,0,90,0,1
60061,-74.0740740740741,4,1,0,90,0,1
60142,-73.394495412844,4,1,0,90,0,1
60222,-72.7272727272727,4,1,0,90,0,1
60275,-72.2891740455841,4,1,0,90,0,1
60329,-71.856270214067,4,1,0,90,0,1
60382,-71.4285714285714,4,1,0,90,0,1
60703,-100,4,1,0,90,0,1
60783,-98.227485032587,4,1,0,90,0,1
60864,-96.5167118686601,4,1,0,90,0,1
60944,-94.8645097639297,4,1,0,90,0,1
61024,-93.267921431103,4,1,0,90,0,1
61184,-90.2306385351597,4,1,0,90,0,1
61345,-87.3850122470095,4,1,0,90,0,1
61425,-86.0284616562544,4,1,0,90,0,1
61505,-84.7133849689653,4,1,0,90,0,1
61586,-83.4379088457533,4,1,0,90,0,1
61666,-66.6666666666667,4,1,0,90,0,1
61987,-68.3715336487084,4,1,0,90,0,1
62147,-69.2570656058331,4,1,0,90,0,1
62227,-69.708513849339,4,1,0,90,0,1
62307,-70.1658369556447,4,1,0,90,0,1
62388,-70.6292501151257,4,1,0,90,0,1
62468,-71.0987746837171,4,1,0,90,0,1
62548,-71.5746348083195,4,1,0,90,0,1
62628,-72.0569076633962,4,1,0,90,0,1
62789,-73.0411638086877,4,1,0,90,0,1
62869,-73.5434715460309,4,1,0,90,0,1
62949,-74.0526810773184,4,1,0,90,0,1
63110,-75.0926643478052,4,1,0,90,0,1
63190,-75.6236302669968,4,1,0,90,0,1
63270,-76.1622163814265,4,1,0,90,0,1
63350,-76.70852906793,4,1,0,90,0,1
63430,-77.2626761009545,4,1,0,90,0,1
63511,-77.8249483436905,4,1,0,90,0,1
63591,-78.3954643520144,4,1,0,90,0,1
63751,-79.5619003519023,4,1,0,90,0,1
63832,-80.1582644773841,4,1,0,90,0,1
63912,-80.7635711066709,4,1,0,90,0,1
63992,-81.3781553362505,4,1,0,90,0,1
64072,-82.002097613657,4,1,0,90,0,1
64233,-83.3333333333333,4,1,0,90,0,1
64313,-82.4742268041237,4,1,0,90,0,1
64393,-81.6326530612245,4,1,0,90,0,1
64553,-80,4,1,0,90,0,1
64634,-79.2079207920792,4,1,0,90,0,1
64714,-78.4313725490196,4,1,0,90,0,1
64794,-77.6699029126214,4,1,0,90,0,1
64874,-76.9230769230769,4,1,0,90,0,1
64955,-76.1904761904762,4,1,0,90,0,1
65035,-75.4716981132076,4,1,0,90,0,1
65195,-74.0740740740741,4,1,0,90,0,1
65275,-73.394495412844,4,1,0,90,0,1
65356,-72.7272727272727,4,1,0,90,0,1
65409,-72.2891740455841,4,1,0,90,0,1
65463,-71.856270214067,4,1,0,90,0,1
65516,-71.4285714285714,4,1,0,90,0,1
65837,-100,4,1,0,90,0,1
65917,-98.2142681760236,4,1,0,90,0,1
65997,-96.4911942136161,4,1,0,90,0,1
66078,-94.8276270808737,4,1,0,90,0,1
66158,-93.2203626831431,4,1,0,90,0,1
66318,-90.1639270357437,4,1,0,90,0,1
66479,-87.301552658114,4,1,0,90,0,1
66559,-85.9375268554771,4,1,0,90,0,1
66639,-84.6153976331381,4,1,0,90,0,1
66719,-83.3333333333333,4,1,0,90,0,1
66799,-66.6666666666667,4,1,0,90,0,1
67067,-71.4285714285714,4,1,0,100,0,1
67174,-74.0740740740741,4,1,0,100,0,1
67255,-76.9230769230769,4,1,0,100,0,1
67335,-80,4,1,0,100,0,1
67415,-83.3333333333333,4,1,0,100,0,1
68350,-71.4285714285714,4,1,0,100,0,1
68457,-74.0740740740741,4,1,0,100,0,1
68538,-76.9230769230769,4,1,0,100,0,1
68618,-80,4,1,0,100,0,1
68698,-83.3333333333333,4,1,0,100,0,1
69634,-71.4285714285714,4,1,0,100,0,1
69741,-74.0740740740741,4,1,0,100,0,1
69822,-76.9230769230769,4,1,0,100,0,1
69902,-80,4,1,0,100,0,1
69982,-83.3333333333333,4,1,0,100,0,1
70168,-83.3333333333333,4,1,0,100,0,1
70249,-81.1110921851896,4,1,0,100,0,1
70329,-79.0043555101193,4,1,0,100,0,1
70409,-77.0042275320915,4,1,0,100,0,1
70489,-75.10287215914,4,1,0,100,0,1
70570,-73.2931491427633,4,1,0,100,0,1
70650,-71.5686414840473,4,1,0,100,0,1
70971,-100,4,1,0,100,0,1
71051,-98.2142681760236,4,1,0,100,0,1
71131,-96.4911942136161,4,1,0,100,0,1
71211,-94.8276270808737,4,1,0,100,0,1
71291,-93.2203626831431,4,1,0,100,0,1
71372,-91.6666743055562,4,1,0,100,0,1
71452,-90.1639270357437,4,1,0,100,0,1
71532,-88.7096559573413,4,1,0,100,0,1
71612,-87.301552658114,4,1,0,100,0,1
71773,-84.6153976331381,4,1,0,100,0,1
71853,-83.3333333333333,4,1,0,100,0,1
71933,-66.6666666666667,4,1,0,100,0,1
72201,-71.4285714285714,4,1,0,100,0,1
72308,-74.0740740740741,4,1,0,100,0,1
72389,-76.9230769230769,4,1,0,100,0,1
72469,-80,4,1,0,100,0,1
72549,-83.3333333333333,4,1,0,100,0,1
73484,-71.4285714285714,4,1,0,100,0,1
73591,-74.0740740740741,4,1,0,100,0,1
73672,-76.9230769230769,4,1,0,100,0,1
73752,-80,4,1,0,100,0,1
73832,-83.3333333333333,4,1,0,100,0,1
74767,-71.4285714285714,4,1,0,100,0,1
74874,-74.0740740740741,4,1,0,100,0,1
74955,-76.9230769230769,4,1,0,100,0,1
75035,-80,4,1,0,100,0,1
75115,-83.3333333333333,4,1,0,100,0,1
75783,-83.3333333333333,4,1,0,100,0,1
75944,-80.4761613514845,4,1,0,100,0,1
76024,-79.1198705598918,4,1,0,100,0,1
76104,-77.8084775448624,4,1,0,100,0,1
76184,-76.5398477928587,4,1,0,100,0,1
76265,-75.3119231577386,4,1,0,100,0,1
76345,-74.1228304247535,4,1,0,100,0,1
76425,-72.9706497452595,4,1,0,100,0,1
76505,-71.8537402745963,4,1,0,100,0,1
76586,-70.7705068159075,4,1,0,100,0,1
76666,-69.7194489374756,4,1,0,100,0,1
76746,-68.6992012343872,4,1,0,100,0,1
76826,-67.7083368598092,4,1,0,100,0,1
76906,-66.7456490180046,4,1,0,100,0,1
77067,-83.3333333333333,4,1,0,100,0,0
77388,-90.9090909090909,4,1,0,80,0,0
78350,-90.9090909090909,4,1,0,60,0,0
79634,-90.9090909090909,4,1,0,40,0,0
80917,-90.9090909090909,4,1,0,20,0,0

[HitObjects]
276,208,62,5,8,0:0:0:0:
75,152,222,1,0,0:0:0:0:
75,152,543,1,8,0:0:0:0:
75,152,703,1,0,0:0:0:0:
473,298,1024,1,0,0:0:0:0:
171,172,1104,1,0,0:0:0:0:
473,298,1184,1,0,0:0:0:0:
346,209,1265,1,0,0:0:0:0:
473,298,1345,1,8,0:0:0:0:
473,298,1505,1,0,0:0:0:0:
313,222,1826,1,8,0:0:0:0:
313,222,1987,1,0,0:0:0:0:
239,223,2307,1,8,0:0:0:0:
271,195,2388,1,8,0:0:0:0:
271,195,2468,1,8,0:0:0:0:
290,195,2548,1,8,0:0:0:0:
290,195,2628,1,0,0:0:0:0:
336,166,3110,1,8,0:0:0:0:
336,166,3591,1,0,0:0:0:0:
259,211,3671,1,0,0:0:0:0:
336,166,3751,1,0,0:0:0:0:
259,211,3832,1,0,0:0:0:0:
336,166,3912,1,8,0:0:0:0:
336,166,4393,1,8,0:0:0:0:
370,198,4874,1,8,0:0:0:0:
316,226,4955,1,8,0:0:0:0:
370,198,5035,1,8,0:0:0:0:
370,198,5115,1,8,0:0:0:0:
259,153,5195,1,4,0:0:0:0:
340,299,5356,1,8,0:0:0:0:
285,220,5436,1,0,0:0:0:0:
254,130,5516,1,8,0:0:0:0:
239,152,5676,1,0,0:0:0:0:
177,104,5757,1,0,0:0:0:0:
239,152,5837,1,8,0:0:0:0:
455,298,5917,1,8,0:0:0:0:
239,152,5997,1,0,0:0:0:0:
177,104,6158,1,8,0:0:0:0:
237,123,6211,1,8,0:0:0:0:
232,137,6265,1,8,0:0:0:0:
177,104,6318,1,0,0:0:0:0:
177,104,6479,1,0,0:0:0:0:
463,281,6639,1,8,0:0:0:0:
323,292,6719,1,0,0:0:0:0:
177,104,6799,1,8,0:0:0:0:
337,156,6880,1,0,0:0:0:0:
240,209,6960,1,8,0:0:0:0:
162,119,7120,1,8,0:0:0:0:
323,292,7201,1,8,0:0:0:0:
161,119,7281,1,0,0:0:0:0:
174,84,7441,1,8,0:0:0:0:
229,72,7495,1,0,0:0:0:0:
212,72,7548,1,0,0:0:0:0:
229,72,7602,1,8,0:0:0:0:
174,84,7762,1,0,0:0:0:0:
308,224,7922,1,8,0:0:0:0:
308,224,8003,1,0,0:0:0:0:
397,216,8083,1,8,0:0:0:0:
230,147,8243,1,0,0:0:0:0:
247,208,8324,1,8,0:0:0:0:
230,147,8404,1,8,0:0:0:0:
256,182,8484,1,8,0:0:0:0:
230,147,8564,1,0,0:0:0:0:
169,93,8725,1,8,0:0:0:0:
440,124,8778,1,8,0:0:0:0:
440,124,8832,1,8,0:0:0:0:
170,98,8885,1,0,0:0:0:0:
170,98,9045,1,0,0:0:0:0:
256,182,9206,1,8,0:0:0:0:
277,99,9286,1,0,0:0:0:0:
198,70,9366,1,8,0:0:0:0:
198,70,9527,1,0,0:0:0:0:
255,49,9607,1,0,0:0:0:0:
197,75,9687,1,8,0:0:0:0:
195,86,9767,1,8,0:0:0:0:
195,88,9848,1,0,0:0:0:0:
198,70,10008,1,8,0:0:0:0:
187,42,10061,1,8,0:0:0:0:
332,166,10115,1,8,0:0:0:0:
198,70,10168,1,0,0:0:0:0:
187,42,10329,1,0,0:0:0:0:
224,65,10489,1,8,0:0:0:0:
278,164,10570,1,0,0:0:0:0:
272,220,10650,1,8,0:0:0:0:
214,148,10810,1,0,0:0:0:0:
214,148,10890,1,8,0:0:0:0:
198,95,10971,1,0,0:0:0:0:
214,148,11051,1,8,0:0:0:0:
214,148,11131,1,0,0:0:0:0:
195,111,11291,1,8,0:0:0:0:
399,211,11345,1,0,0:0:0:0:
399,211,11398,1,0,0:0:0:0:
195,111,11452,1,8,0:0:0:0:
326,189,11532,1,8,0:0:0:0:
295,216,11612,1,0,0:0:0:0:
197,48,11773,1,8,0:0:0:0:
366,111,11853,1,0,0:0:0:0:
176,127,11933,1,0,0:0:0:0:
291,188,12013,1,8,0:0:0:0:
274,186,12094,1,0,0:0:0:0:
290,126,12174,1,0,0:0:0:0:
237,143,12254,1,8,0:0:0:0:
274,186,12334,1,8,0:0:0:0:
206,58,12414,1,0,0:0:0:0:
442,213,12575,1,8,0:0:0:0:
363,210,12628,1,8,0:0:0:0:
288,117,12682,1,8,0:0:0:0:
232,67,12735,1,0,0:0:0:0:
326,189,12816,1,8,0:0:0:0:
237,51,12896,1,0,0:0:0:0:
322,180,13056,1,8,0:0:0:0:
250,131,13136,1,0,0:0:0:0:
408,222,13217,1,8,0:0:0:0:
408,222,13377,1,0,0:0:0:0:
215,61,13457,1,8,0:0:0:0:
288,143,13537,1,8,0:0:0:0:
322,180,13618,1,8,0:0:0:0:
292,160,13698,1,0,0:0:0:0:
291,157,13858,1,8,0:0:0:0:
291,157,13912,1,8,0:0:0:0:
291,157,13965,1,0,0:0:0:0:
291,157,14019,1,0,0:0:0:0:
268,151,14099,1,8,0:0:0:0:
291,157,14179,1,0,0:0:0:0:
248,104,14340,1,8,0:0:0:0:
248,104,14420,1,0,0:0:0:0:
345,210,14500,1,8,0:0:0:0:
192,79,14580,1,0,0:0:0:0:
296,133,14660,1,0,0:0:0:0:
345,210,14741,1,8,0:0:0:0:
285,116,14821,1,0,0:0:0:0:
201,95,14901,1,8,0:0:0:0:
285,121,14981,1,0,0:0:0:0:
241,137,15142,1,8,0:0:0:0:
223,123,15195,1,8,0:0:0:0:
214,49,15249,1,8,0:0:0:0:
285,119,15302,1,0,0:0:0:0:
252,162,15382,1,8,0:0:0:0:
301,103,15463,1,0,0:0:0:0:
226,140,15623,1,8,0:0:0:0:
226,140,15703,1,0,0:0:0:0:
292,259,15783,1,8,0:0:0:0:
292,259,15944,1,0,0:0:0:0:
134,178,16024,1,0,0:0:0:0:
134,178,16104,1,8,0:0:0:0:
134,178,16184,1,8,0:0:0:0:
143,131,16265,1,0,0:0:0:0:
143,131,16425,1,8,0:0:0:0:
281,151,16479,1,0,0:0:0:0:
281,151,16532,1,0,0:0:0:0:
114,106,16586,1,8,0:0:0:0:
114,106,16666,1,8,0:0:0:0:
114,106,16746,1,0,0:0:0:0:
230,95,16906,1,8,0:0:0:0:
327,103,16987,1,0,0:0:0:0:
293,42,17067,1,8,0:0:0:0:
291,78,17147,1,0,0:0:0:0:
268,80,17227,1,0,0:0:0:0:
268,80,17307,1,8,0:0:0:0:
178,60,17388,1,8,0:0:0:0:
327,103,17468,1,8,0:0:0:0:
178,60,17548,1,0,0:0:0:0:
194,51,17709,1,8,0:0:0:0:
266,117,17762,1,0,0:0:0:0:
312,287,17816,1,8,0:0:0:0:
193,54,17869,1,8,0:0:0:0:
190,36,17949,1,8,0:0:0:0:
172,38,18029,1,0,0:0:0:0:
197,68,18190,1,8,0:0:0:0:
200,52,18270,1,0,0:0:0:0:
335,296,18350,1,8,0:0:0:0:
276,118,18511,1,0,0:0:0:0:
211,118,18591,1,8,0:0:0:0:
272,148,18671,1,8,0:0:0:0:
211,118,18751,1,0,0:0:0:0:
211,118,18832,1,0,0:0:0:0:
211,118,18992,1,8,0:0:0:0:
266,80,19045,1,8,0:0:0:0:
205,144,19099,1,8,0:0:0:0:
205,144,19152,1,0,0:0:0:0:
211,118,19233,1,8,0:0:0:0:
205,144,19313,1,0,0:0:0:0:
286,105,19473,1,8,0:0:0:0:
286,105,19553,1,0,0:0:0:0:
199,115,19634,1,8,0:0:0:0:
367,48,19714,1,8,0:0:0:0:
52,204,19794,1,0,0:0:0:0:
174,177,19874,1,0,0:0:0:0:
52,204,19955,1,8,0:0:0:0:
52,204,20035,1,0,0:0:0:0:
236,122,20115,1,0,0:0:0:0:
276,48,20275,1,0,0:0:0:0:
359,58,20329,1,8,0:0:0:0:
359,58,20382,1,8,0:0:0:0:
161,158,20436,1,0,0:0:0:0:
161,158,20516,1,8,0:0:0:0:
161,158,20596,1,0,0:0:0:0:
462,246,20757,1,0,0:0:0:0:
426,166,20837,1,0,0:0:0:0:
152,78,20917,1,8,0:0:0:0:
370,295,20997,1,8,0:0:0:0:
152,78,21078,1,0,0:0:0:0:
152,78,21158,1,8,0:0:0:0:
152,78,21238,1,0,0:0:0:0:
462,246,21318,1,8,0:0:0:0:
262,137,21398,1,0,0:0:0:0:
262,137,21559,1,8,0:0:0:0:
382,89,21612,1,8,0:0:0:0:
262,137,21666,1,8,0:0:0:0:
262,137,21719,1,0,0:0:0:0:
263,206,21799,1,8,0:0:0:0:
222,59,21880,1,0,0:0:0:0:
222,59,22040,1,8,0:0:0:0:
351,104,22120,1,0,0:0:0:0:
222,59,22201,1,8,0:0:0:0:
222,59,22281,1,8,0:0:0:0:
225,30,22361,1,0,0:0:0:0:
351,104,22441,1,8,0:0:0:0:
183,99,22521,1,8,0:0:0:0:
188,80,22602,1,0,0:0:0:0:
188,80,22682,1,0,0:0:0:0:
188,80,22842,1,8,0:0:0:0:
368,85,22896,1,0,0:0:0:0:
188,80,22949,1,0,0:0:0:0:
286,82,23003,1,8,0:0:0:0:
317,215,23083,1,8,0:0:0:0:
188,80,23163,1,0,0:0:0:0:
317,215,23324,1,8,0:0:0:0:
259,140,23404,1,0,0:0:0:0:
317,215,23484,1,8,0:0:0:0:
317,215,23564,1,0,0:0:0:0:
317,215,23644,1,8,0:0:0:0:
226,140,23725,1,8,0:0:0:0:
317,215,23805,1,0,0:0:0:0:
317,215,23885,1,8,0:0:0:0:
317,215,23965,1,0,0:0:0:0:
317,215,24126,1,8,0:0:0:0:
392,95,24179,1,8,0:0:0:0:
226,140,24233,1,8,0:0:0:0:
226,140,24286,1,0,0:0:0:0:
317,215,24366,1,8,0:0:0:0:
317,215,24447,1,0,0:0:0:0:
317,215,24687,1,8,0:0:0:0:
317,215,24928,1,0,0:0:0:0:
317,215,25088,1,8,0:0:0:0:
275,124,25249,1,0,0:0:0:0:
317,215,25409,1,8,0:0:0:0:
317,215,25570,1,8,0:0:0:0:
317,215,25730,1,4,0:0:0:0:
414,243,26051,1,0,0:0:0:0:
230,171,26211,1,0,0:0:0:0:
230,171,26291,1,8,0:0:0:0:
204,120,26372,1,0,0:0:0:0:
248,90,26452,1,8,0:0:0:0:
248,90,26532,1,0,0:0:0:0:
216,71,26693,1,8,0:0:0:0:
204,120,26853,1,0,0:0:0:0:
194,105,26933,1,8,0:0:0:0:
194,105,27013,1,0,0:0:0:0:
237,88,27174,1,0,0:0:0:0:
177,186,27334,1,8,0:0:0:0:
177,186,27414,1,8,0:0:0:0:
177,186,27495,1,0,0:0:0:0:
226,117,27575,1,8,0:0:0:0:
226,117,27655,1,0,0:0:0:0:
237,88,27816,1,8,0:0:0:0:
237,88,27976,1,0,0:0:0:0:
237,88,28056,1,0,0:0:0:0:
237,88,28136,1,8,0:0:0:0:
339,228,28217,1,8,0:0:0:0:
242,194,28297,1,0,0:0:0:0:
285,136,28457,1,8,0:0:0:0:
285,136,28618,1,0,0:0:0:0:
285,136,28698,1,0,0:0:0:0:
285,136,28778,1,8,0:0:0:0:
285,136,28858,1,8,0:0:0:0:
285,136,28939,1,0,0:0:0:0:
401,246,29019,1,0,0:0:0:0:
244,101,29099,1,8,0:0:0:0:
244,101,29259,1,0,0:0:0:0:
244,101,29340,1,0,0:0:0:0:
244,101,29420,1,8,0:0:0:0:
264,89,29473,1,8,0:0:0:0:
192,82,29527,1,8,0:0:0:0:
244,101,29580,1,0,0:0:0:0:
473,281,29901,1,8,0:0:0:0:
444,327,30061,1,0,0:0:0:0:
285,160,30142,1,0,0:0:0:0:
444,327,30222,1,8,0:0:0:0:
444,327,30382,1,0,0:0:0:0:
378,246,30543,1,8,0:0:0:0:
378,246,30623,1,0,0:0:0:0:
378,246,30703,1,8,0:0:0:0:
262,79,30783,1,8,0:0:0:0:
259,97,30864,1,0,0:0:0:0:
414,243,31184,1,0,0:0:0:0:
230,171,31345,1,0,0:0:0:0:
230,171,31425,1,8,0:0:0:0:
263,121,31505,1,0,0:0:0:0:
229,155,31586,1,0,0:0:0:0:
330,90,31666,1,8,0:0:0:0:
366,246,31826,1,0,0:0:0:0:
204,120,31987,1,8,0:0:0:0:
194,105,32067,1,8,0:0:0:0:
194,105,32147,1,0,0:0:0:0:
212,139,32227,1,8,0:0:0:0:
237,88,32307,1,0,0:0:0:0:
177,186,32468,1,8,0:0:0:0:
177,186,32548,1,0,0:0:0:0:
177,186,32628,1,8,0:0:0:0:
226,117,32709,1,8,0:0:0:0:
226,117,32789,1,0,0:0:0:0:
237,88,32949,1,8,0:0:0:0:
237,88,33110,1,8,0:0:0:0:
237,88,33190,1,0,0:0:0:0:
237,88,33270,1,8,0:0:0:0:
242,194,33430,1,0,0:0:0:0:
235,142,33511,1,0,0:0:0:0:
285,136,33591,1,8,0:0:0:0:
285,136,33751,1,0,0:0:0:0:
285,136,33832,1,0,0:0:0:0:
285,136,33912,1,8,0:0:0:0:
285,136,33992,1,0,0:0:0:0:
285,136,34072,1,8,0:0:0:0:
190,131,34152,1,8,0:0:0:0:
244,101,34233,1,0,0:0:0:0:
244,101,34393,1,8,0:0:0:0:
244,101,34473,1,0,0:0:0:0:
366,221,34553,1,8,0:0:0:0:
191,40,34607,1,8,0:0:0:0:
192,82,34660,1,8,0:0:0:0:
244,101,34714,1,0,0:0:0:0:
249,85,35035,1,8,0:0:0:0:
220,92,35195,1,8,0:0:0:0:
214,145,35275,1,0,0:0:0:0:
220,92,35356,1,8,0:0:0:0:
220,92,35516,1,0,0:0:0:0:
220,92,35676,1,8,0:0:0:0:
220,92,35757,1,0,0:0:0:0:
220,92,35837,1,8,0:0:0:0:
204,112,35917,1,8,0:0:0:0:
174,301,35997,1,0,0:0:0:0:
241,133,36318,1,8,0:0:0:0:
432,278,36398,1,0,0:0:0:0:
230,171,36479,1,8,0:0:0:0:
400,177,36559,1,8,0:0:0:0:
204,120,36639,1,0,0:0:0:0:
330,90,36799,1,8,0:0:0:0:
237,168,36880,1,8,0:0:0:0:
366,246,36960,1,0,0:0:0:0:
204,120,37120,1,0,0:0:0:0:
194,105,37201,1,8,0:0:0:0:
194,105,37281,1,0,0:0:0:0:
237,88,37441,1,0,0:0:0:0:
177,186,37602,1,8,0:0:0:0:
177,186,37682,1,8,0:0:0:0:
177,186,37762,1,0,0:0:0:0:
314,190,37842,1,8,0:0:0:0:
226,117,37922,1,0,0:0:0:0:
237,88,38083,1,8,0:0:0:0:
337,195,38163,1,8,0:0:0:0:
237,88,38243,1,0,0:0:0:0:
237,88,38324,1,0,0:0:0:0:
237,88,38404,1,8,0:0:0:0:
157,78,38484,1,8,0:0:0:0:
242,194,38564,1,0,0:0:0:0:
285,136,38725,1,8,0:0:0:0:
285,136,38885,1,0,0:0:0:0:
285,136,38965,1,8,0:0:0:0:
285,136,39045,1,8,0:0:0:0:
314,190,39126,1,8,0:0:0:0:
285,136,39206,1,0,0:0:0:0:
244,101,39366,1,8,0:0:0:0:
239,116,39447,1,8,0:0:0:0:
244,101,39527,1,0,0:0:0:0:
244,101,39687,1,8,0:0:0:0:
222,90,39767,1,0,0:0:0:0:
244,101,39848,1,0,0:0:0:0:
188,65,40168,1,8,0:0:0:0:
174,65,40329,1,0,0:0:0:0:
174,65,40489,1,8,0:0:0:0:
176,146,40570,1,0,0:0:0:0:
176,146,40650,1,0,0:0:0:0:
174,65,40730,1,0,0:0:0:0:
174,65,40810,1,8,0:0:0:0:
174,65,40971,1,0,0:0:0:0:
174,65,41051,1,8,0:0:0:0:
181,208,41131,1,0,0:0:0:0:
414,243,41452,1,0,0:0:0:0:
245,175,41532,1,8,0:0:0:0:
205,115,41612,1,8,0:0:0:0:
127,152,41693,1,8,0:0:0:0:
204,120,41773,1,0,0:0:0:0:
330,90,41933,1,8,0:0:0:0:
245,150,42013,1,8,0:0:0:0:
366,246,42094,1,0,0:0:0:0:
204,120,42254,1,0,0:0:0:0:
194,105,42334,1,8,0:0:0:0:
194,105,42414,1,0,0:0:0:0:
237,88,42575,1,0,0:0:0:0:
177,186,42735,1,8,0:0:0:0:
177,186,42816,1,8,0:0:0:0:
177,186,42896,1,0,0:0:0:0:
127,152,42976,1,8,0:0:0:0:
226,117,43056,1,0,0:0:0:0:
237,88,43217,1,8,0:0:0:0:
250,149,43297,1,0,0:0:0:0:
237,88,43377,1,0,0:0:0:0:
148,59,43457,1,8,0:0:0:0:
237,88,43537,1,8,0:0:0:0:
148,59,43618,1,8,0:0:0:0:
242,194,43698,1,0,0:0:0:0:
285,136,43858,1,8,0:0:0:0:
183,88,44019,1,8,0:0:0:0:
285,136,44099,1,0,0:0:0:0:
285,136,44179,1,8,0:0:0:0:
127,152,44259,1,8,0:0:0:0:
285,136,44340,1,0,0:0:0:0:
244,101,44500,1,8,0:0:0:0:
154,122,44580,1,8,0:0:0:0:
244,101,44660,1,0,0:0:0:0:
182,64,44741,1,0,0:0:0:0:
244,101,44821,1,8,0:0:0:0:
231,23,44901,1,8,0:0:0:0:
244,101,44981,1,0,0:0:0:0:
182,64,45302,1,8,0:0:0:0:
232,55,45382,1,8,0:0:0:0:
182,64,45463,1,0,0:0:0:0:
232,55,45543,1,0,0:0:0:0:
232,55,45623,1,8,0:0:0:0:
232,55,45783,1,0,0:0:0:0:
203,56,45944,1,8,0:0:0:0:
184,144,46024,1,8,0:0:0:0:
203,56,46104,1,0,0:0:0:0:
241,293,46265,1,12,0:0:0:0:
239,286,46505,1,8,0:0:0:0:
239,286,46746,1,0,0:0:0:0:
395,308,47067,1,0,0:0:0:0:
326,259,47227,1,8,0:0:0:0:
326,259,47334,1,8,0:0:0:0:
241,124,47441,1,8,0:0:0:0:
241,124,47548,1,0,0:0:0:0:
302,177,47869,1,8,0:0:0:0:
257,178,48029,1,0,0:0:0:0:
257,178,48350,1,0,0:0:0:0:
257,178,48511,1,8,0:0:0:0:
386,119,48618,1,0,0:0:0:0:
379,123,48725,1,8,0:0:0:0:
379,123,48832,1,0,0:0:0:0:
439,151,49072,1,0,0:0:0:0:
473,271,49152,1,8,0:0:0:0:
306,184,49313,1,0,0:0:0:0:
306,184,49634,1,8,0:0:0:0:
306,184,49794,1,0,0:0:0:0:
306,184,49901,1,8,0:0:0:0:
306,184,50008,1,8,0:0:0:0:
241,102,50115,1,0,0:0:0:0:
241,102,50436,1,8,0:0:0:0:
241,102,50596,1,0,0:0:0:0:
217,70,50757,1,8,0:0:0:0:
217,70,50837,1,8,0:0:0:0:
217,70,50917,1,8,0:0:0:0:
222,48,50997,1,8,0:0:0:0:
222,48,51078,1,0,0:0:0:0:
294,268,51158,1,0,0:0:0:0:
294,268,51238,1,8,0:0:0:0:
294,268,51318,1,8,0:0:0:0:
222,48,51398,1,0,0:0:0:0:
377,274,51559,1,8,0:0:0:0:
377,274,51719,1,8,0:0:0:0:
292,182,51799,1,8,0:0:0:0:
292,182,51880,1,0,0:0:0:0:
292,182,52040,1,8,0:0:0:0:
261,86,52120,1,8,0:0:0:0:
292,182,52201,1,0,0:0:0:0:
292,182,52281,1,0,0:0:0:0:
292,182,52361,1,8,0:0:0:0:
389,251,52441,1,8,0:0:0:0:
292,182,52521,1,0,0:0:0:0:
292,182,52682,1,0,0:0:0:0:
292,182,52842,1,8,0:0:0:0:
292,182,53003,1,8,0:0:0:0:
175,206,53083,1,8,0:0:0:0:
179,242,53163,1,0,0:0:0:0:
245,55,53243,1,0,0:0:0:0:
181,186,53324,1,8,0:0:0:0:
181,186,53404,1,0,0:0:0:0:
181,186,53484,1,8,0:0:0:0:
181,186,53564,1,8,0:0:0:0:
181,186,53644,1,0,0:0:0:0:
181,186,53805,1,8,0:0:0:0:
181,186,53965,1,0,0:0:0:0:
263,118,54045,1,8,0:0:0:0:
412,272,54126,1,8,0:0:0:0:
263,118,54206,1,0,0:0:0:0:
412,272,54286,1,0,0:0:0:0:
193,108,54366,1,8,0:0:0:0:
412,272,54447,1,0,0:0:0:0:
259,168,54527,1,0,0:0:0:0:
412,272,54607,1,8,0:0:0:0:
259,168,54767,1,0,0:0:0:0:
259,168,54928,1,8,0:0:0:0:
259,168,55008,1,8,0:0:0:0:
259,168,55088,1,0,0:0:0:0:
259,168,55168,1,8,0:0:0:0:
259,168,55249,1,0,0:0:0:0:
259,168,55489,1,8,0:0:0:0:
259,168,55730,1,0,0:0:0:0:
259,168,55890,1,8,0:0:0:0:
246,101,56051,1,0,0:0:0:0:
246,101,56211,1,8,0:0:0:0:
246,101,56372,1,8,0:0:0:0:
317,215,56532,1,4,0:0:0:0:
414,243,56853,1,0,0:0:0:0:
230,171,57013,1,0,0:0:0:0:
230,171,57094,1,8,0:0:0:0:
204,120,57174,1,0,0:0:0:0:
248,90,57254,1,8,0:0:0:0:
248,90,57334,1,0,0:0:0:0:
230,160,57414,1,0,0:0:0:0:
216,71,57495,1,8,0:0:0:0:
204,120,57655,1,0,0:0:0:0:
194,105,57735,1,8,0:0:0:0:
194,105,57816,1,0,0:0:0:0:
237,88,57976,1,0,0:0:0:0:
177,186,58136,1,8,0:0:0:0:
177,186,58217,1,8,0:0:0:0:
177,186,58297,1,0,0:0:0:0:
226,117,58377,1,8,0:0:0:0:
226,117,58457,1,0,0:0:0:0:
218,92,58537,1,0,0:0:0:0:
237,88,58618,1,8,0:0:0:0:
237,88,58778,1,0,0:0:0:0:
237,88,58858,1,0,0:0:0:0:
237,88,58939,1,8,0:0:0:0:
339,228,59019,1,8,0:0:0:0:
242,194,59099,1,0,0:0:0:0:
285,136,59259,1,8,0:0:0:0:
285,136,59420,1,0,0:0:0:0:
285,136,59500,1,0,0:0:0:0:
285,136,59580,1,8,0:0:0:0:
285,136,59660,1,8,0:0:0:0:
285,136,59741,1,0,0:0:0:0:
401,246,59821,1,0,0:0:0:0:
244,101,59901,1,8,0:0:0:0:
244,101,60061,1,8,0:0:0:0:
244,101,60142,1,0,0:0:0:0:
312,310,60222,1,8,0:0:0:0:
312,310,60275,1,8,0:0:0:0:
192,82,60329,1,8,0:0:0:0:
244,101,60382,1,0,0:0:0:0:
473,281,60703,1,8,0:0:0:0:
323,203,60783,1,8,0:0:0:0:
444,327,60864,1,0,0:0:0:0:
218,92,60944,1,8,0:0:0:0:
444,327,61024,1,8,0:0:0:0:
444,327,61184,1,0,0:0:0:0:
378,246,61345,1,8,0:0:0:0:
378,246,61425,1,0,0:0:0:0:
378,246,61505,1,8,0:0:0:0:
262,79,61586,1,8,0:0:0:0:
259,97,61666,1,0,0:0:0:0:
414,243,61987,1,0,0:0:0:0:
230,171,62147,1,0,0:0:0:0:
230,171,62227,1,8,0:0:0:0:
263,121,62307,1,0,0:0:0:0:
229,155,62388,1,0,0:0:0:0:
330,90,62468,1,8,0:0:0:0:
167,158,62548,1,8,0:0:0:0:
366,246,62628,1,0,0:0:0:0:
204,120,62789,1,8,0:0:0:0:
194,105,62869,1,8,0:0:0:0:
194,105,62949,1,0,0:0:0:0:
237,88,63110,1,0,0:0:0:0:
183,117,63190,1,0,0:0:0:0:
177,186,63270,1,8,0:0:0:0:
177,186,63350,1,0,0:0:0:0:
177,186,63430,1,8,0:0:0:0:
226,117,63511,1,8,0:0:0:0:
226,117,63591,1,0,0:0:0:0:
237,88,63751,1,8,0:0:0:0:
246,88,63832,1,0,0:0:0:0:
237,88,63912,1,8,0:0:0:0:
237,88,63992,1,0,0:0:0:0:
237,88,64072,1,8,0:0:0:0:
242,194,64233,1,0,0:0:0:0:
235,142,64313,1,0,0:0:0:0:
285,136,64393,1,8,0:0:0:0:
285,136,64553,1,0,0:0:0:0:
285,136,64634,1,0,0:0:0:0:
285,136,64714,1,8,0:0:0:0:
285,136,64794,1,0,0:0:0:0:
285,136,64874,1,8,0:0:0:0:
190,131,64955,1,8,0:0:0:0:
244,101,65035,1,0,0:0:0:0:
244,101,65195,1,8,0:0:0:0:
244,101,65275,1,8,0:0:0:0:
161,32,65356,1,0,0:0:0:0:
161,32,65409,1,8,0:0:0:0:
192,82,65463,1,8,0:0:0:0:
244,101,65516,1,0,0:0:0:0:
249,85,65837,1,8,0:0:0:0:
220,92,65917,1,0,0:0:0:0:
220,92,65997,1,8,0:0:0:0:
214,145,66078,1,0,0:0:0:0:
220,92,66158,1,8,0:0:0:0:
220,92,66318,1,0,0:0:0:0:
220,92,66479,1,8,0:0:0:0:
220,92,66559,1,0,0:0:0:0:
220,92,66639,1,8,0:0:0:0:
204,112,66719,1,8,0:0:0:0:
174,301,66799,1,0,0:0:0:0:
241,133,67120,1,8,0:0:0:0:
432,278,67201,1,0,0:0:0:0:
230,171,67281,1,8,0:0:0:0:
400,177,67361,1,8,0:0:0:0:
204,120,67441,1,0,0:0:0:0:
330,90,67602,1,8,0:0:0:0:
237,168,67682,1,8,0:0:0:0:
366,246,67762,1,0,0:0:0:0:
305,115,67842,1,8,0:0:0:0:
204,120,67922,1,0,0:0:0:0:
194,105,68003,1,8,0:0:0:0:
194,105,68083,1,0,0:0:0:0:
237,88,68243,1,0,0:0:0:0:
177,186,68404,1,8,0:0:0:0:
177,186,68484,1,8,0:0:0:0:
177,186,68564,1,0,0:0:0:0:
314,190,68644,1,8,0:0:0:0:
226,117,68725,1,0,0:0:0:0:
237,88,68885,1,8,0:0:0:0:
305,115,68965,1,8,0:0:0:0:
237,88,69045,1,0,0:0:0:0:
237,88,69126,1,0,0:0:0:0:
237,88,69206,1,8,0:0:0:0:
157,78,69286,1,8,0:0:0:0:
242,194,69366,1,0,0:0:0:0:
285,136,69527,1,8,0:0:0:0:
285,136,69687,1,0,0:0:0:0:
285,136,69767,1,8,0:0:0:0:
285,136,69848,1,8,0:0:0:0:
314,190,69928,1,8,0:0:0:0:
285,136,70008,1,0,0:0:0:0:
244,101,70168,1,8,0:0:0:0:
305,115,70249,1,8,0:0:0:0:
244,101,70329,1,0,0:0:0:0:
244,101,70409,1,8,0:0:0:0:
244,101,70489,1,8,0:0:0:0:
305,115,70570,1,0,0:0:0:0:
244,101,70650,1,0,0:0:0:0:
188,65,70971,1,8,0:0:0:0:
175,50,71051,1,0,0:0:0:0:
174,65,71131,1,0,0:0:0:0:
251,348,71211,1,8,0:0:0:0:
174,65,71291,1,8,0:0:0:0:
176,146,71372,1,0,0:0:0:0:
176,146,71452,1,0,0:0:0:0:
174,65,71532,1,0,0:0:0:0:
174,65,71612,1,8,0:0:0:0:
174,65,71773,1,0,0:0:0:0:
174,65,71853,1,8,0:0:0:0:
181,208,71933,1,0,0:0:0:0:
414,243,72254,1,0,0:0:0:0:
245,175,72334,1,8,0:0:0:0:
205,115,72414,1,8,0:0:0:0:
127,152,72495,1,8,0:0:0:0:
204,120,72575,1,0,0:0:0:0:
330,90,72735,1,8,0:0:0:0:
123,209,72816,1,8,0:0:0:0:
366,246,72896,1,0,0:0:0:0:
123,209,72976,1,8,0:0:0:0:
204,120,73056,1,0,0:0:0:0:
201,206,73136,1,8,0:0:0:0:
194,105,73217,1,0,0:0:0:0:
237,88,73377,1,0,0:0:0:0:
177,186,73537,1,8,0:0:0:0:
177,186,73618,1,8,0:0:0:0:
177,186,73698,1,0,0:0:0:0:
127,152,73778,1,8,0:0:0:0:
226,117,73858,1,0,0:0:0:0:
237,88,74019,1,8,0:0:0:0:
290,119,74099,1,8,0:0:0:0:
237,88,74179,1,0,0:0:0:0:
148,59,74259,1,8,0:0:0:0:
237,88,74340,1,8,0:0:0:0:
148,59,74420,1,8,0:0:0:0:
242,194,74500,1,0,0:0:0:0:
285,136,74660,1,8,0:0:0:0:
183,88,74821,1,8,0:0:0:0:
285,136,74901,1,0,0:0:0:0:
285,136,74981,1,8,0:0:0:0:
263,86,75061,1,8,0:0:0:0:
285,136,75142,1,0,0:0:0:0:
330,125,75302,1,8,0:0:0:0:
263,86,75382,1,8,0:0:0:0:
244,101,75463,1,0,0:0:0:0:
182,64,75543,1,0,0:0:0:0:
244,101,75623,1,8,0:0:0:0:
231,23,75703,1,8,0:0:0:0:
244,101,75783,1,0,0:0:0:0:
110,130,75944,1,8,0:0:0:0:
269,113,76024,1,0,0:0:0:0:
182,64,76104,1,8,0:0:0:0:
232,55,76184,1,8,0:0:0:0:
182,64,76265,1,0,0:0:0:0:
232,55,76345,1,0,0:0:0:0:
232,55,76425,1,8,0:0:0:0:
330,125,76505,1,8,0:0:0:0:
232,55,76586,1,0,0:0:0:0:
290,117,76666,1,0,0:0:0:0:
203,56,76746,1,8,0:0:0:0:
397,266,76826,1,0,0:0:0:0:
392,271,76906,1,8,0:0:0:0:
338,228,77067,1,0,0:0:0:0:
