osu file format v14

[General]
AudioFilename: audio.mp3
AudioLeadIn: 0
PreviewTime: 25676
Countdown: 0
SampleSet: Normal
StackLeniency: 0.7
Mode: 1
LetterboxInBreaks: 0
WidescreenStoryboard: 0

[Editor]
Bookmarks: 25676,56478
DistanceSpacing: 1.2
BeatDivisor: 4
GridSize: 16
TimelineZoom: 2.2

[Metadata]
Title:thank u, next
TitleUnicode:thank u, next
Artist:SCRIPT
ArtistUnicode:SCRIPT
Creator:op45667
Version:oni
Source:
Tags:ariana grande nightcore pitched hyperpop remix instrumental electronic english vocals you speed up sped-up speed-up
BeatmapID:3589588
BeatmapSetID:1754031

[Difficulty]
HPDrainRate:5
CircleSize:5
OverallDifficulty:6
ApproachRate:5
SliderMultiplier:1.4
SliderTickRate:1

[Events]
//Background and Video events
0,0,"5884d7840023df349d208be8.jpg",0,-70
//Break Periods
//Storyboard Layer 0 (Background)
//Storyboard Layer 1 (Fail)
//Storyboard Layer 2 (Pass)
//Storyboard Layer 3 (Foreground)
//Storyboard Layer 4 (Overlay)
//Storyboard Sound Samples

[TimingPoints]
62,320.855614973262,4,1,0,70,1,0
62,-111.111111111111,4,1,0,70,0,0
4874,-107.52688172043,4,1,0,80,0,0
5035,-105.263157894737,4,1,0,80,0,0
5115,-103.092783505155,4,1,0,80,0,0
5195,-100,4,1,0,90,0,0
24687,-98.0392156862745,4,1,0,90,0,0
24927,-96.1538461538461,4,1,0,90,0,0
25088,-94.3396226415094,4,1,0,90,0,0
25248,-92.5925925925926,4,1,0,90,0,0
25409,-90.9090909090909,4,1,0,90,0,0
25569,-88.4955752212389,4,1,0,100,0,0
25730,-86.9565217391304,4,1,0,100,0,1
29741,-95.2380952380952,4,1,0,100,0,1
30142,-93.4579439252336,4,1,0,100,0,1
30302,-91.743119266055,4,1,0,100,0,1
30463,-90.0900900900901,4,1,0,100,0,1
30783,-88.4955752212389,4,1,0,100,0,1
31024,-86.9565217391304,4,1,0,100,0,1
34854,-95.2380952380952,4,1,0,100,0,1
35255,-93.4579439252336,4,1,0,100,0,1
35415,-91.743119266055,4,1,0,100,0,1
35576,-90.0900900900901,4,1,0,100,0,1
35676,-90.0900900900901,4,1,0,100,0,1
35757,-89.2857142857143,4,1,0,100,0,1
35837,-88.4955752212389,4,1,0,100,0,1
35917,-87.719298245614,4,1,0,100,0,1
35997,-86.9565217391304,4,1,0,100,0,1
40008,-95.2380952380952,4,1,0,100,0,1
40409,-93.4579439252336,4,1,0,100,0,1
40570,-91.743119266055,4,1,0,100,0,1
40890,-90.0900900900901,4,1,0,100,0,1
41211,-88.4955752212389,4,1,0,100,0,1
41452,-86.9565217391304,4,1,0,100,0,1
45222,-88.4955752212389,4,1,0,100,0,1
45302,-88.4955752212389,4,1,0,100,0,1
45382,-88.4955752212389,4,1,0,100,0,1
45463,-89.2857142857143,4,1,0,100,0,1
45543,-89.6860986547085,4,1,0,100,0,1
45623,-89.8876404494382,4,1,0,100,0,1
45703,-90.0900900900901,4,1,0,100,0,1
46024,-91.743119266055,4,1,0,100,0,1
46104,-92.5925925925926,4,1,0,100,0,1
46184,-93.4579439252336,4,1,0,100,0,1
46265,-95.2380952380952,4,1,0,90,0,0
55730,-92.5925925925926,4,1,0,90,0,0
55890,-90.0900900900901,4,1,0,90,0,0
56051,-87.719298245614,4,1,0,90,0,0
56211,-85.4700854700855,4,1,0,90,0,0
56372,-84.0336134453781,4,1,0,90,0,0
56532,-83.3333333333333,4,1,0,100,0,1
60623,-90.9090909090909,4,1,0,100,0,1
61104,-89.2857142857143,4,1,0,100,0,1
61265,-87.719298245614,4,1,0,100,0,1
61586,-86.2068965517241,4,1,0,100,0,1
61746,-84.7457627118644,4,1,0,100,0,1
61906,-83.3333333333333,4,1,0,100,0,1
65757,-90.9090909090909,4,1,0,100,0,1
66078,-89.2857142857143,4,1,0,100,0,1
66238,-87.719298245614,4,1,0,100,0,1
66398,-86.2068965517241,4,1,0,100,0,1
66880,-84.7457627118644,4,1,0,100,0,1
67040,-83.3333333333333,4,1,0,100,0,1
70890,-90.9090909090909,4,1,0,100,0,1
71211,-88.4955752212389,4,1,0,100,0,1
71693,-86.2068965517241,4,1,0,100,0,1
72013,-83.3333333333333,4,1,0,100,0,1
76024,-83.3333333333333,4,1,0,100,0,1
76184,-84.7457627118644,4,1,0,100,0,1
76265,-86.2068965517241,4,1,0,100,0,1
76345,-87.719298245614,4,1,0,100,0,1
76425,-89.2857142857143,4,1,0,100,0,1
76505,-90.9090909090909,4,1,0,100,0,1
76666,-92.5925925925929,4,1,0,100,0,1
77067,-95.2380952380954,4,1,0,100,0,0
77388,-95.2380952380954,4,1,0,80,0,0
78350,-95.2380952380954,4,1,0,60,0,0
79634,-95.2380952380954,4,1,0,40,0,0
80917,-95.2380952380954,4,1,0,20,0,0

[HitObjects]
276,208,62,5,8,0:0:0:0:
75,152,222,1,0,0:0:0:0:
75,152,543,1,8,0:0:0:0:
75,152,703,1,0,0:0:0:0:
473,298,1024,1,0,0:0:0:0:
473,298,1184,1,0,0:0:0:0:
473,298,1345,1,8,0:0:0:0:
473,298,1505,1,0,0:0:0:0:
313,222,1826,1,8,0:0:0:0:
313,222,1987,1,0,0:0:0:0:
239,223,2307,1,8,0:0:0:0:
239,223,2468,1,0,0:0:0:0:
239,223,2628,1,8,0:0:0:0:
336,166,3110,1,8,0:0:0:0:
336,166,3591,1,0,0:0:0:0:
336,166,3751,1,0,0:0:0:0:
336,166,3912,1,8,0:0:0:0:
336,166,4393,1,8,0:0:0:0:
370,198,4874,1,0,0:0:0:0:
370,198,5035,1,8,0:0:0:0:
370,198,5115,1,8,0:0:0:0:
259,153,5195,1,4,0:0:0:0:
254,130,5516,1,8,0:0:0:0:
239,152,5676,1,0,0:0:0:0:
177,104,5757,1,0,0:0:0:0:
239,152,5837,1,8,0:0:0:0:
239,152,5997,1,0,0:0:0:0:
177,104,6158,1,8,0:0:0:0:
232,137,6238,1,8,0:0:0:0:
177,104,6318,1,0,0:0:0:0:
177,104,6479,1,0,0:0:0:0:
177,104,6799,1,8,0:0:0:0:
240,209,6960,1,8,0:0:0:0:
240,209,7040,1,0,0:0:0:0:
162,119,7120,1,8,0:0:0:0:
161,119,7281,1,0,0:0:0:0:
174,84,7441,1,8,0:0:0:0:
212,72,7602,1,0,0:0:0:0:
174,84,7682,1,8,0:0:0:0:
174,84,7762,1,0,0:0:0:0:
397,216,8003,1,8,0:0:0:0:
301,242,8083,1,8,0:0:0:0:
230,147,8243,1,0,0:0:0:0:
246,92,8324,1,0,0:0:0:0:
230,147,8404,1,8,0:0:0:0:
246,208,8484,1,8,0:0:0:0:
230,147,8564,1,0,0:0:0:0:
169,93,8725,1,8,0:0:0:0:
170,98,8885,1,0,0:0:0:0:
170,98,8965,1,8,0:0:0:0:
170,98,9045,1,0,0:0:0:0:
198,70,9366,1,8,0:0:0:0:
198,70,9527,1,0,0:0:0:0:
255,49,9607,1,0,0:0:0:0:
197,75,9687,1,8,0:0:0:0:
195,88,9848,1,0,0:0:0:0:
198,70,10008,1,8,0:0:0:0:
187,42,10088,1,8,0:0:0:0:
198,70,10168,1,0,0:0:0:0:
187,42,10249,1,8,0:0:0:0:
187,42,10329,1,0,0:0:0:0:
306,148,10570,1,0,0:0:0:0:
272,220,10650,1,8,0:0:0:0:
214,148,10810,1,0,0:0:0:0:
214,148,10890,1,8,0:0:0:0:
198,95,10971,1,0,0:0:0:0:
214,148,11051,1,8,0:0:0:0:
214,148,11131,1,0,0:0:0:0:
195,111,11291,1,8,0:0:0:0:
195,111,11452,1,8,0:0:0:0:
195,111,11532,1,8,0:0:0:0:
295,216,11612,1,0,0:0:0:0:
252,134,11853,1,8,0:0:0:0:
295,216,11933,1,8,0:0:0:0:
274,186,12094,1,0,0:0:0:0:
290,126,12174,1,0,0:0:0:0:
237,143,12254,1,8,0:0:0:0:
274,186,12334,1,8,0:0:0:0:
206,58,12414,1,0,0:0:0:0:
442,213,12575,1,8,0:0:0:0:
232,67,12735,1,0,0:0:0:0:
237,49,12816,1,8,0:0:0:0:
237,51,12896,1,0,0:0:0:0:
225,120,13136,1,0,0:0:0:0:
408,222,13217,1,8,0:0:0:0:
408,222,13377,1,0,0:0:0:0:
288,143,13457,1,0,0:0:0:0:
288,143,13537,1,8,0:0:0:0:
292,160,13698,1,0,0:0:0:0:
291,157,13858,1,8,0:0:0:0:
291,157,13939,1,0,0:0:0:0:
291,157,14019,1,8,0:0:0:0:
291,157,14099,1,8,0:0:0:0:
291,157,14179,1,0,0:0:0:0:
345,210,14500,1,8,0:0:0:0:
296,133,14660,1,0,0:0:0:0:
345,210,14741,1,8,0:0:0:0:
285,116,14821,1,0,0:0:0:0:
285,121,14981,1,0,0:0:0:0:
285,121,15142,1,8,0:0:0:0:
285,121,15222,1,8,0:0:0:0:
285,119,15302,1,0,0:0:0:0:
301,103,15463,1,0,0:0:0:0:
292,259,15783,1,8,0:0:0:0:
292,259,15944,1,0,0:0:0:0:
134,178,16024,1,8,0:0:0:0:
134,178,16104,1,8,0:0:0:0:
134,178,16184,1,8,0:0:0:0:
143,131,16265,1,0,0:0:0:0:
143,131,16425,1,8,0:0:0:0:
114,106,16586,1,8,0:0:0:0:
114,106,16666,1,8,0:0:0:0:
114,106,16746,1,0,0:0:0:0:
187,123,16987,1,0,0:0:0:0:
293,42,17067,1,8,0:0:0:0:
268,80,17227,1,0,0:0:0:0:
268,80,17307,1,8,0:0:0:0:
178,60,17388,1,8,0:0:0:0:
178,60,17548,1,0,0:0:0:0:
194,51,17709,1,8,0:0:0:0:
312,287,17789,1,8,0:0:0:0:
193,54,17869,1,0,0:0:0:0:
190,36,17949,1,8,0:0:0:0:
172,38,18029,1,0,0:0:0:0:
335,296,18350,1,8,0:0:0:0:
276,118,18511,1,0,0:0:0:0:
211,118,18591,1,8,0:0:0:0:
272,148,18671,1,8,0:0:0:0:
211,118,18751,1,0,0:0:0:0:
211,118,18832,1,0,0:0:0:0:
211,118,18992,1,8,0:0:0:0:
205,144,19072,1,8,0:0:0:0:
205,144,19152,1,0,0:0:0:0:
211,118,19233,1,8,0:0:0:0:
205,144,19313,1,0,0:0:0:0:
207,93,19553,1,0,0:0:0:0:
199,115,19634,1,8,0:0:0:0:
52,204,19794,1,0,0:0:0:0:
174,177,19874,1,0,0:0:0:0:
52,204,19955,1,8,0:0:0:0:
52,204,20035,1,0,0:0:0:0:
236,122,20115,1,0,0:0:0:0:
193,148,20275,1,8,0:0:0:0:
161,158,20436,1,0,0:0:0:0:
161,158,20516,1,8,0:0:0:0:
161,158,20596,1,0,0:0:0:0:
152,78,20917,1,8,0:0:0:0:
370,295,20997,1,8,0:0:0:0:
152,78,21078,1,0,0:0:0:0:
152,78,21158,1,8,0:0:0:0:
152,78,21238,1,0,0:0:0:0:
262,137,21398,1,0,0:0:0:0:
262,137,21559,1,8,0:0:0:0:
262,137,21639,1,8,0:0:0:0:
262,137,21719,1,0,0:0:0:0:
222,59,21880,1,0,0:0:0:0:
244,152,22040,1,8,0:0:0:0:
341,249,22120,1,0,0:0:0:0:
222,59,22201,1,8,0:0:0:0:
222,59,22281,1,8,0:0:0:0:
225,30,22361,1,0,0:0:0:0:
183,99,22521,1,8,0:0:0:0:
188,80,22682,1,0,0:0:0:0:
187,130,22762,1,0,0:0:0:0:
188,80,22842,1,8,0:0:0:0:
188,80,23003,1,0,0:0:0:0:
317,215,23083,1,8,0:0:0:0:
188,80,23163,1,0,0:0:0:0:
202,82,23484,1,8,0:0:0:0:
317,215,23644,1,8,0:0:0:0:
197,98,23725,1,8,0:0:0:0:
317,215,23805,1,0,0:0:0:0:
227,102,23965,1,0,0:0:0:0:
227,102,24126,1,8,0:0:0:0:
169,199,24206,1,8,0:0:0:0:
233,202,24286,1,0,0:0:0:0:
317,215,24366,1,8,0:0:0:0:
317,215,24447,1,0,0:0:0:0:
317,215,24687,1,8,0:0:0:0:
317,215,24928,1,0,0:0:0:0:
317,215,25088,1,8,0:0:0:0:
275,124,25249,1,0,0:0:0:0:
317,215,25409,1,8,0:0:0:0:
317,215,25570,1,8,0:0:0:0:
317,215,25730,1,4,0:0:0:0:
414,243,26051,1,0,0:0:0:0:
230,171,26211,1,8,0:0:0:0:
230,171,26291,1,8,0:0:0:0:
204,120,26372,1,0,0:0:0:0:
330,90,26532,1,8,0:0:0:0:
366,246,26693,1,0,0:0:0:0:
204,120,26853,1,0,0:0:0:0:
194,105,26933,1,8,0:0:0:0:
194,105,27013,1,0,0:0:0:0:
237,88,27174,1,0,0:0:0:0:
177,186,27334,1,8,0:0:0:0:
177,186,27414,1,8,0:0:0:0:
177,186,27495,1,0,0:0:0:0:
226,117,27575,1,8,0:0:0:0:
226,117,27655,1,0,0:0:0:0:
237,88,27816,1,8,0:0:0:0:
237,88,27976,1,0,0:0:0:0:
242,194,28297,1,0,0:0:0:0:
285,136,28457,1,8,0:0:0:0:
285,136,28618,1,0,0:0:0:0:
285,136,28698,1,0,0:0:0:0:
285,136,28778,1,8,0:0:0:0:
285,136,28858,1,8,0:0:0:0:
285,136,28939,1,0,0:0:0:0:
244,101,29099,1,8,0:0:0:0:
244,101,29259,1,0,0:0:0:0:
244,101,29340,1,8,0:0:0:0:
244,101,29420,1,8,0:0:0:0:
192,82,29500,1,8,0:0:0:0:
244,101,29580,1,0,0:0:0:0:
473,281,29901,1,8,0:0:0:0:
323,203,29981,1,8,0:0:0:0:
444,327,30061,1,0,0:0:0:0:
444,327,30222,1,8,0:0:0:0:
444,327,30382,1,0,0:0:0:0:
378,246,30543,1,8,0:0:0:0:
378,246,30623,1,0,0:0:0:0:
378,246,30703,1,8,0:0:0:0:
259,97,30864,1,0,0:0:0:0:
414,243,31184,1,0,0:0:0:0:
230,171,31344,1,0,0:0:0:0:
230,171,31424,1,8,0:0:0:0:
204,120,31505,1,0,0:0:0:0:
330,90,31665,1,8,0:0:0:0:
366,246,31826,1,0,0:0:0:0:
204,120,31986,1,8,0:0:0:0:
194,105,32066,1,8,0:0:0:0:
194,105,32146,1,0,0:0:0:0:
237,88,32307,1,0,0:0:0:0:
177,186,32467,1,8,0:0:0:0:
177,186,32547,1,0,0:0:0:0:
177,186,32628,1,8,0:0:0:0:
226,117,32708,1,8,0:0:0:0:
226,117,32788,1,0,0:0:0:0:
237,88,32949,1,8,0:0:0:0:
237,88,33109,1,8,0:0:0:0:
242,194,33430,1,0,0:0:0:0:
285,136,33590,1,8,0:0:0:0:
285,136,33751,1,0,0:0:0:0:
285,136,33831,1,0,0:0:0:0:
285,136,33911,1,8,0:0:0:0:
285,136,33991,1,0,0:0:0:0:
285,136,34072,1,8,0:0:0:0:
244,101,34233,1,0,0:0:0:0:
244,101,34392,1,8,0:0:0:0:
244,101,34473,1,8,0:0:0:0:
244,101,34553,1,8,0:0:0:0:
192,82,34633,1,8,0:0:0:0:
244,101,34713,1,0,0:0:0:0:
249,85,35035,1,8,0:0:0:0:
220,92,35115,1,0,0:0:0:0:
220,92,35195,1,8,0:0:0:0:
220,92,35356,1,8,0:0:0:0:
220,92,35516,1,0,0:0:0:0:
220,92,35676,1,8,0:0:0:0:
220,92,35757,1,0,0:0:0:0:
220,92,35837,1,8,0:0:0:0:
204,112,35917,1,8,0:0:0:0:
174,301,35997,1,0,0:0:0:0:
241,133,36318,1,8,0:0:0:0:
296,215,36398,1,8,0:0:0:0:
230,171,36479,1,8,0:0:0:0:
286,217,36559,1,8,0:0:0:0:
204,120,36639,1,0,0:0:0:0:
330,90,36799,1,8,0:0:0:0:
237,168,36880,1,8,0:0:0:0:
366,246,36960,1,0,0:0:0:0:
204,120,37120,1,0,0:0:0:0:
194,105,37200,1,8,0:0:0:0:
194,105,37280,1,0,0:0:0:0:
237,88,37441,1,0,0:0:0:0:
177,186,37601,1,8,0:0:0:0:
177,186,37682,1,8,0:0:0:0:
177,186,37762,1,0,0:0:0:0:
296,130,37842,1,8,0:0:0:0:
226,117,37922,1,0,0:0:0:0:
237,88,38083,1,8,0:0:0:0:
237,88,38243,1,0,0:0:0:0:
242,194,38564,1,0,0:0:0:0:
285,136,38724,1,8,0:0:0:0:
285,136,38885,1,0,0:0:0:0:
285,136,38965,1,0,0:0:0:0:
285,136,39045,1,8,0:0:0:0:
130,58,39126,1,8,0:0:0:0:
285,136,39206,1,0,0:0:0:0:
244,101,39366,1,8,0:0:0:0:
244,101,39526,1,0,0:0:0:0:
244,101,39607,1,8,0:0:0:0:
244,101,39687,1,8,0:0:0:0:
244,101,39848,1,0,0:0:0:0:
188,65,40168,1,8,0:0:0:0:
175,50,40249,1,0,0:0:0:0:
174,65,40329,1,0,0:0:0:0:
174,65,40489,1,8,0:0:0:0:
174,65,40650,1,0,0:0:0:0:
174,65,40730,1,0,0:0:0:0:
174,65,40810,1,8,0:0:0:0:
174,65,40971,1,0,0:0:0:0:
174,65,41051,1,8,0:0:0:0:
181,208,41131,1,0,0:0:0:0:
414,243,41452,1,0,0:0:0:0:
303,46,41532,1,0,0:0:0:0:
230,171,41612,1,8,0:0:0:0:
389,68,41693,1,8,0:0:0:0:
204,120,41773,1,0,0:0:0:0:
330,90,41933,1,8,0:0:0:0:
247,90,42013,1,8,0:0:0:0:
366,246,42094,1,0,0:0:0:0:
204,120,42254,1,0,0:0:0:0:
194,105,42334,1,8,0:0:0:0:
194,105,42414,1,0,0:0:0:0:
237,88,42575,1,0,0:0:0:0:
177,186,42735,1,8,0:0:0:0:
177,186,42816,1,8,0:0:0:0:
177,186,42896,1,0,0:0:0:0:
379,67,42976,1,8,0:0:0:0:
226,117,43056,1,0,0:0:0:0:
237,88,43217,1,8,0:0:0:0:
237,88,43377,1,0,0:0:0:0:
242,194,43698,1,0,0:0:0:0:
285,136,43858,1,8,0:0:0:0:
183,88,44019,1,8,0:0:0:0:
285,136,44099,1,0,0:0:0:0:
285,136,44179,1,8,0:0:0:0:
232,55,44259,1,8,0:0:0:0:
285,136,44340,1,0,0:0:0:0:
244,101,44500,1,8,0:0:0:0:
244,101,44660,1,0,0:0:0:0:
182,64,44741,1,0,0:0:0:0:
244,101,44821,1,8,0:0:0:0:
182,64,44901,1,0,0:0:0:0:
244,101,44981,1,0,0:0:0:0:
182,64,45302,1,8,0:0:0:0:
232,55,45382,1,8,0:0:0:0:
182,64,45463,1,0,0:0:0:0:
232,55,45543,1,0,0:0:0:0:
232,55,45623,1,8,0:0:0:0:
232,55,45783,1,0,0:0:0:0:
232,55,45864,1,0,0:0:0:0:
203,56,45944,1,8,0:0:0:0:
203,56,46104,1,0,0:0:0:0:
241,293,46265,1,12,0:0:0:0:
239,286,46505,1,8,0:0:0:0:
239,286,46746,1,0,0:0:0:0:
395,308,47067,1,0,0:0:0:0:
326,259,47227,1,8,0:0:0:0:
326,259,47334,1,8,0:0:0:0:
241,124,47441,1,8,0:0:0:0:
241,124,47548,1,0,0:0:0:0:
302,177,47869,1,8,0:0:0:0:
257,178,48029,1,0,0:0:0:0:
257,178,48350,1,0,0:0:0:0:
257,178,48511,1,8,0:0:0:0:
386,119,48618,1,0,0:0:0:0:
379,123,48725,1,8,0:0:0:0:
379,123,48832,1,0,0:0:0:0:
439,151,49072,1,0,0:0:0:0:
473,271,49152,1,8,0:0:0:0:
306,184,49313,1,0,0:0:0:0:
306,184,49634,1,8,0:0:0:0:
306,184,49794,1,0,0:0:0:0:
306,184,49901,1,8,0:0:0:0:
306,184,50008,1,8,0:0:0:0:
241,102,50115,1,0,0:0:0:0:
241,102,50436,1,8,0:0:0:0:
241,102,50596,1,0,0:0:0:0:
217,70,50757,1,8,0:0:0:0:
217,70,50837,1,8,0:0:0:0:
217,70,50917,1,0,0:0:0:0:
222,48,50997,1,0,0:0:0:0:
222,48,51078,1,8,0:0:0:0:
222,48,51398,1,0,0:0:0:0:
377,274,51559,1,8,0:0:0:0:
377,274,51719,1,8,0:0:0:0:
292,182,51799,1,8,0:0:0:0:
292,182,51880,1,0,0:0:0:0:
292,182,52040,1,8,0:0:0:0:
292,182,52201,1,0,0:0:0:0:
292,182,52281,1,0,0:0:0:0:
292,182,52361,1,8,0:0:0:0:
292,182,52521,1,0,0:0:0:0:
292,182,52602,1,8,0:0:0:0:
292,182,52682,1,0,0:0:0:0:
292,182,52842,1,8,0:0:0:0:
292,182,53003,1,8,0:0:0:0:
175,206,53083,1,8,0:0:0:0:
179,242,53163,1,0,0:0:0:0:
181,186,53324,1,8,0:0:0:0:
181,186,53404,1,0,0:0:0:0:
181,186,53484,1,8,0:0:0:0:
181,186,53564,1,8,0:0:0:0:
181,186,53644,1,0,0:0:0:0:
181,186,53805,1,8,0:0:0:0:
181,186,53965,1,0,0:0:0:0:
412,272,54126,1,8,0:0:0:0:
412,272,54286,1,0,0:0:0:0:
193,108,54366,1,8,0:0:0:0:
412,272,54447,1,0,0:0:0:0:
259,168,54527,1,0,0:0:0:0:
412,272,54607,1,8,0:0:0:0:
259,168,54767,1,0,0:0:0:0:
259,168,54928,1,8,0:0:0:0:
259,168,55008,1,8,0:0:0:0:
259,168,55088,1,0,0:0:0:0:
259,168,55168,1,8,0:0:0:0:
259,168,55249,1,0,0:0:0:0:
259,168,55489,1,8,0:0:0:0:
259,168,55730,1,0,0:0:0:0:
259,168,55890,1,8,0:0:0:0:
246,101,56051,1,0,0:0:0:0:
246,101,56211,1,8,0:0:0:0:
246,101,56372,1,8,0:0:0:0:
317,215,56532,1,4,0:0:0:0:
414,243,56853,1,0,0:0:0:0:
230,171,57013,1,8,0:0:0:0:
230,171,57093,1,8,0:0:0:0:
204,120,57174,1,0,0:0:0:0:
330,90,57334,1,8,0:0:0:0:
366,246,57495,1,0,0:0:0:0:
204,120,57655,1,0,0:0:0:0:
194,105,57735,1,8,0:0:0:0:
194,105,57815,1,0,0:0:0:0:
237,88,57976,1,0,0:0:0:0:
177,186,58136,1,8,0:0:0:0:
177,186,58216,1,8,0:0:0:0:
177,186,58297,1,0,0:0:0:0:
226,117,58377,1,8,0:0:0:0:
226,117,58457,1,0,0:0:0:0:
237,88,58618,1,8,0:0:0:0:
237,88,58778,1,0,0:0:0:0:
242,194,59099,1,0,0:0:0:0:
285,136,59259,1,8,0:0:0:0:
286,93,59420,1,8,0:0:0:0:
285,136,59500,1,0,0:0:0:0:
286,93,59580,1,8,0:0:0:0:
285,136,59660,1,8,0:0:0:0:
285,136,59741,1,0,0:0:0:0:
244,101,59901,1,8,0:0:0:0:
244,101,60061,1,0,0:0:0:0:
244,101,60142,1,8,0:0:0:0:
244,101,60222,1,8,0:0:0:0:
192,82,60302,1,8,0:0:0:0:
244,101,60382,1,0,0:0:0:0:
473,281,60703,1,8,0:0:0:0:
323,203,60783,1,8,0:0:0:0:
444,327,60863,1,0,0:0:0:0:
175,49,60944,1,0,0:0:0:0:
444,327,61024,1,8,0:0:0:0:
444,327,61184,1,0,0:0:0:0:
378,246,61345,1,8,0:0:0:0:
378,246,61425,1,0,0:0:0:0:
378,246,61505,1,8,0:0:0:0:
259,97,61666,1,0,0:0:0:0:
414,243,61986,1,0,0:0:0:0:
230,171,62146,1,0,0:0:0:0:
230,171,62226,1,8,0:0:0:0:
204,120,62307,1,0,0:0:0:0:
330,90,62467,1,8,0:0:0:0:
366,246,62628,1,0,0:0:0:0:
183,77,62709,1,0,0:0:0:0:
204,120,62788,1,8,0:0:0:0:
194,105,62868,1,8,0:0:0:0:
194,105,62948,1,0,0:0:0:0:
237,88,63109,1,0,0:0:0:0:
177,186,63269,1,8,0:0:0:0:
177,186,63349,1,0,0:0:0:0:
177,186,63430,1,8,0:0:0:0:
226,117,63510,1,8,0:0:0:0:
226,117,63590,1,0,0:0:0:0:
237,88,63751,1,8,0:0:0:0:
237,88,63911,1,8,0:0:0:0:
242,194,64232,1,0,0:0:0:0:
285,136,64392,1,8,0:0:0:0:
285,136,64553,1,0,0:0:0:0:
285,136,64633,1,0,0:0:0:0:
285,136,64713,1,8,0:0:0:0:
285,136,64793,1,0,0:0:0:0:
285,136,64874,1,8,0:0:0:0:
244,101,65035,1,0,0:0:0:0:
244,101,65194,1,8,0:0:0:0:
244,101,65275,1,8,0:0:0:0:
244,101,65356,1,8,0:0:0:0:
192,82,65435,1,8,0:0:0:0:
244,101,65515,1,0,0:0:0:0:
249,85,65837,1,8,0:0:0:0:
220,92,65917,1,0,0:0:0:0:
220,92,65997,1,8,0:0:0:0:
220,92,66158,1,8,0:0:0:0:
220,92,66318,1,0,0:0:0:0:
220,92,66478,1,8,0:0:0:0:
220,92,66559,1,0,0:0:0:0:
220,92,66639,1,8,0:0:0:0:
204,112,66719,1,8,0:0:0:0:
174,301,66799,1,0,0:0:0:0:
241,133,67120,1,8,0:0:0:0:
274,142,67201,1,8,0:0:0:0:
230,171,67281,1,8,0:0:0:0:
274,142,67361,1,8,0:0:0:0:
204,120,67441,1,0,0:0:0:0:
330,90,67601,1,8,0:0:0:0:
237,168,67682,1,8,0:0:0:0:
366,246,67762,1,0,0:0:0:0:
204,120,67922,1,0,0:0:0:0:
194,105,68002,1,8,0:0:0:0:
194,105,68082,1,0,0:0:0:0:
237,88,68243,1,0,0:0:0:0:
177,186,68403,1,8,0:0:0:0:
272,140,68484,1,0,0:0:0:0:
213,75,68564,1,8,0:0:0:0:
272,140,68644,1,8,0:0:0:0:
226,117,68724,1,0,0:0:0:0:
237,88,68885,1,8,0:0:0:0:
237,88,69045,1,0,0:0:0:0:
242,194,69366,1,0,0:0:0:0:
285,136,69526,1,8,0:0:0:0:
285,136,69687,1,0,0:0:0:0:
285,136,69767,1,0,0:0:0:0:
157,28,69848,1,8,0:0:0:0:
272,144,69928,1,8,0:0:0:0:
285,136,70008,1,0,0:0:0:0:
244,101,70168,1,8,0:0:0:0:
244,101,70328,1,0,0:0:0:0:
244,101,70409,1,8,0:0:0:0:
244,101,70489,1,8,0:0:0:0:
213,327,70570,1,8,0:0:0:0:
244,101,70649,1,0,0:0:0:0:
188,65,70970,1,8,0:0:0:0:
175,50,71051,1,0,0:0:0:0:
174,65,71131,1,0,0:0:0:0:
174,65,71291,1,8,0:0:0:0:
276,67,71372,1,8,0:0:0:0:
174,65,71452,1,0,0:0:0:0:
174,65,71532,1,0,0:0:0:0:
174,65,71612,1,8,0:0:0:0:
174,65,71773,1,0,0:0:0:0:
174,65,71853,1,8,0:0:0:0:
181,208,71933,1,0,0:0:0:0:
414,243,72254,1,0,0:0:0:0:
245,175,72334,1,8,0:0:0:0:
309,137,72414,1,8,0:0:0:0:
198,95,72495,1,8,0:0:0:0:
204,120,72575,1,0,0:0:0:0:
330,90,72735,1,8,0:0:0:0:
366,246,72896,1,0,0:0:0:0:
204,120,73056,1,0,0:0:0:0:
194,105,73136,1,8,0:0:0:0:
194,105,73216,1,0,0:0:0:0:
237,88,73377,1,0,0:0:0:0:
177,186,73537,1,8,0:0:0:0:
177,186,73618,1,8,0:0:0:0:
177,186,73698,1,0,0:0:0:0:
148,80,73778,1,0,0:0:0:0:
199,68,73858,1,8,0:0:0:0:
237,88,74019,1,8,0:0:0:0:
237,88,74179,1,0,0:0:0:0:
242,194,74500,1,0,0:0:0:0:
285,136,74660,1,8,0:0:0:0:
183,88,74821,1,8,0:0:0:0:
285,136,74901,1,0,0:0:0:0:
272,126,74981,1,8,0:0:0:0:
234,78,75061,1,8,0:0:0:0:
285,136,75142,1,0,0:0:0:0:
244,101,75302,1,8,0:0:0:0:
244,101,75462,1,0,0:0:0:0:
182,64,75543,1,0,0:0:0:0:
244,101,75623,1,8,0:0:0:0:
182,64,75703,1,0,0:0:0:0:
244,101,75783,1,0,0:0:0:0:
182,64,76104,1,8,0:0:0:0:
232,55,76184,1,8,0:0:0:0:
182,64,76265,1,0,0:0:0:0:
232,55,76345,1,8,0:0:0:0:
232,55,76425,1,8,0:0:0:0:
232,55,76585,1,0,0:0:0:0:
203,56,76746,1,8,0:0:0:0:
397,266,76826,1,0,0:0:0:0:
392,271,76906,1,8,0:0:0:0:
338,228,77067,1,0,0:0:0:0:
