osu file format v14

[General]
AudioFilename: audio.mp3
AudioLeadIn: 0
PreviewTime: 25676
Countdown: 0
SampleSet: Normal
StackLeniency: 0.7
Mode: 1
LetterboxInBreaks: 0
WidescreenStoryboard: 1

[Editor]
Bookmarks: 25676,56478
DistanceSpacing: 1.2
BeatDivisor: 4
GridSize: 16
TimelineZoom: 1.7

[Metadata]
Title:thank u, next
TitleUnicode:thank u, next
Artist:SCRIPT
ArtistUnicode:SCRIPT
Creator:op45667
Version:muzukashii
Source:
Tags:ariana grande nightcore pitched hyperpop remix instrumental electronic english vocals you speed up sped-up speed-up
BeatmapID:3589587
BeatmapSetID:1754031

[Difficulty]
HPDrainRate:6
CircleSize:5
OverallDifficulty:5
ApproachRate:5
SliderMultiplier:1.4
SliderTickRate:1

[Events]
//Background and Video events
0,0,"5884d7840023df349d208be8.jpg",0,-70
//Break Periods
//Storyboard Layer 0 (Background)
//Storyboard Layer 1 (Fail)
//Storyboard Layer 2 (Pass)
//Storyboard Layer 3 (Foreground)
//Storyboard Layer 4 (Overlay)
//Storyboard Sound Samples

[TimingPoints]
62,320.855614973262,4,1,0,70,1,0
62,-125,4,1,0,70,0,0
4874,-120.481927710843,4,1,0,80,0,0
5035,-117.647058823529,4,1,0,80,0,0
5115,-114.942528735632,4,1,0,80,0,0
5195,-111.111111111111,4,1,0,90,0,0
24928,-108.695652173913,4,1,0,90,0,0
25088,-106.382978723404,4,1,0,90,0,0
25249,-104.166666666667,4,1,0,90,0,0
25409,-102.040816326531,4,1,0,90,0,0
25570,-100,4,1,0,90,0,0
25730,-97.0873786407767,4,1,0,100,0,1
25890,-95.2380952380953,4,1,0,100,0,1
29741,-105.263157894737,4,1,0,100,0,1
30142,-103.092783505155,4,1,0,100,0,1
30302,-101.010101010101,4,1,0,100,0,1
30463,-99.009900990099,4,1,0,100,0,1
30783,-97.0873786407767,4,1,0,100,0,1
31024,-95.2380952380953,4,1,0,100,0,1
34854,-105.263157894737,4,1,0,100,0,1
35255,-103.092783505155,4,1,0,100,0,1
35415,-101.010101010101,4,1,0,100,0,1
35576,-99.009900990099,4,1,0,100,0,1
35676,-99.009900990099,4,1,0,100,0,1
35757,-98.0392156862745,4,1,0,100,0,1
35837,-97.0873786407767,4,1,0,100,0,1
35917,-96.1538461538462,4,1,0,100,0,1
35997,-95.2380952380953,4,1,0,100,0,1
40061,-105.263157894737,4,1,0,100,0,1
40382,-103.092783505155,4,1,0,100,0,1
40596,-101.010101010101,4,1,0,100,0,1
40917,-99.009900990099,4,1,0,100,0,1
41024,-97.0873786407767,4,1,0,100,0,1
41238,-95.2380952380952,4,1,0,100,0,1
45222,-97.0873786407767,4,1,0,100,0,1
45302,-97.0873786407767,4,1,0,100,0,1
45382,-97.0873786407767,4,1,0,100,0,1
45463,-98.0392156862745,4,1,0,100,0,1
45543,-98.5221674876847,4,1,0,100,0,1
45623,-98.7654320987654,4,1,0,100,0,1
45703,-99.009900990099,4,1,0,100,0,1
46024,-101.010101010101,4,1,0,100,0,1
46104,-102.040816326531,4,1,0,100,0,1
46184,-103.092783505155,4,1,0,100,0,1
46265,-105.263157894737,4,1,0,90,0,0
55730,-105.263157894737,4,1,0,90,0,0
55890,-103.092783505155,4,1,0,90,0,0
56051,-101.010101010101,4,1,0,90,0,0
56211,-99.009900990099,4,1,0,90,0,0
56372,-97.0873786407767,4,1,0,90,0,0
56532,-95.2380952380953,4,1,0,100,0,1
56692,-93.4579439252337,4,1,0,100,0,1
56853,-90.9090909090909,4,1,0,100,0,1
60623,-100,4,1,0,100,0,1
61104,-98.0392156862745,4,1,0,100,0,1
61265,-96.1538461538462,4,1,0,100,0,1
61586,-94.3396226415095,4,1,0,100,0,1
61746,-92.5925925925926,4,1,0,100,0,1
61906,-90.9090909090909,4,1,0,100,0,1
65757,-100,4,1,0,100,0,1
66078,-98.0392156862745,4,1,0,100,0,1
66238,-96.1538461538462,4,1,0,100,0,1
66398,-94.3396226415095,4,1,0,100,0,1
66880,-92.5925925925926,4,1,0,100,0,1
67040,-90.9090909090909,4,1,0,100,0,1
70890,-100,4,1,0,100,0,1
71211,-97.0873786407767,4,1,0,100,0,1
71532,-94.3396226415094,4,1,0,100,0,1
71693,-92.5925925925926,4,1,0,100,0,1
71853,-90.9090909090909,4,1,0,100,0,1
76104,-90.9090909090909,4,1,0,100,0,1
76184,-92.2274402458415,4,1,0,100,0,1
76265,-93.5845892385209,4,1,0,100,0,1
76425,-96.4224382727656,4,1,0,100,0,1
76585,-99.4376799200521,4,1,0,100,0,1
76746,-102.647589270042,4,1,0,100,0,1
76826,-104.331532223315,4,1,0,100,0,1
76906,-106.071647154787,4,1,0,100,0,1
77067,-109.732143836894,4,1,0,100,0,0
77388,-105.263157894737,4,1,0,80,0,0
78350,-105.263157894737,4,1,0,60,0,0
79634,-105.263157894737,4,1,0,40,0,0
80917,-105.263157894737,4,1,0,20,0,0

[HitObjects]
276,208,62,5,8,0:0:0:0:
75,152,222,1,0,0:0:0:0:
75,152,543,1,8,0:0:0:0:
75,152,703,1,0,0:0:0:0:
473,298,1345,1,8,0:0:0:0:
473,298,1505,1,0,0:0:0:0:
313,222,1826,1,8,0:0:0:0:
313,222,1987,1,0,0:0:0:0:
239,223,2307,1,8,0:0:0:0:
239,223,2468,1,0,0:0:0:0:
239,223,2628,1,8,0:0:0:0:
336,166,3110,1,8,0:0:0:0:
336,166,3591,1,0,0:0:0:0:
336,166,3751,1,0,0:0:0:0:
336,166,3912,1,8,0:0:0:0:
336,166,4393,1,8,0:0:0:0:
370,198,4874,1,8,0:0:0:0:
267,182,5035,1,8,0:0:0:0:
259,153,5195,1,4,0:0:0:0:
239,152,5676,1,0,0:0:0:0:
239,152,5837,1,0,0:0:0:0:
239,152,5997,1,8,0:0:0:0:
177,104,6158,1,8,0:0:0:0:
177,104,6318,1,0,0:0:0:0:
177,104,6479,1,0,0:0:0:0:
240,209,6960,1,8,0:0:0:0:
162,119,7120,1,8,0:0:0:0:
161,119,7281,1,0,0:0:0:0:
174,84,7441,1,8,0:0:0:0:
212,72,7602,1,0,0:0:0:0:
174,84,7762,1,0,0:0:0:0:
397,216,8003,1,8,0:0:0:0:
230,147,8243,1,0,0:0:0:0:
230,147,8404,1,0,0:0:0:0:
230,147,8564,1,0,0:0:0:0:
169,93,8725,1,8,0:0:0:0:
170,98,8885,1,0,0:0:0:0:
170,98,9045,1,0,0:0:0:0:
198,70,9527,1,8,0:0:0:0:
197,75,9687,1,8,0:0:0:0:
195,88,9848,1,0,0:0:0:0:
198,70,10008,1,8,0:0:0:0:
303,126,10168,1,0,0:0:0:0:
203,38,10249,1,0,0:0:0:0:
187,42,10329,1,0,0:0:0:0:
272,220,10570,1,8,0:0:0:0:
214,148,10810,1,0,0:0:0:0:
214,148,10890,1,0,0:0:0:0:
198,95,10971,1,0,0:0:0:0:
214,148,11131,1,0,0:0:0:0:
195,111,11291,1,8,0:0:0:0:
195,111,11452,1,8,0:0:0:0:
295,216,11612,1,0,0:0:0:0:
228,198,11853,1,0,0:0:0:0:
274,186,12094,1,0,0:0:0:0:
290,126,12174,1,0,0:0:0:0:
238,129,12254,1,0,0:0:0:0:
275,118,12414,1,8,0:0:0:0:
442,213,12575,1,8,0:0:0:0:
305,144,12735,1,8,0:0:0:0:
237,51,12896,1,0,0:0:0:0:
237,156,13136,1,0,0:0:0:0:
226,89,13377,1,8,0:0:0:0:
226,89,13457,1,8,0:0:0:0:
226,89,13537,1,8,0:0:0:0:
444,180,13698,1,8,0:0:0:0:
444,180,13858,1,0,0:0:0:0:
444,180,14019,1,0,0:0:0:0:
291,157,14179,1,0,0:0:0:0:
296,133,14660,1,0,0:0:0:0:
285,116,14821,1,8,0:0:0:0:
341,120,14981,1,0,0:0:0:0:
285,121,15142,1,8,0:0:0:0:
285,121,15222,1,8,0:0:0:0:
231,71,15302,1,8,0:0:0:0:
231,71,15463,1,0,0:0:0:0:
214,89,15944,1,8,0:0:0:0:
134,178,16024,1,8,0:0:0:0:
134,178,16104,1,8,0:0:0:0:
197,89,16265,1,8,0:0:0:0:
143,131,16425,1,0,0:0:0:0:
114,106,16586,1,8,0:0:0:0:
114,106,16746,1,0,0:0:0:0:
293,42,16987,1,8,0:0:0:0:
227,83,17227,1,8,0:0:0:0:
268,80,17307,1,8,0:0:0:0:
178,60,17388,1,8,0:0:0:0:
178,60,17548,1,0,0:0:0:0:
194,51,17709,1,8,0:0:0:0:
193,54,17869,1,0,0:0:0:0:
172,38,18029,1,0,0:0:0:0:
196,240,18270,1,8,0:0:0:0:
276,118,18511,1,0,0:0:0:0:
211,118,18591,1,0,0:0:0:0:
272,148,18671,1,0,0:0:0:0:
211,118,18832,1,8,0:0:0:0:
211,118,18992,1,0,0:0:0:0:
205,144,19152,1,8,0:0:0:0:
205,144,19313,1,8,0:0:0:0:
286,219,19553,1,0,0:0:0:0:
52,204,19794,1,8,0:0:0:0:
52,204,19955,1,0,0:0:0:0:
236,122,20115,1,8,0:0:0:0:
193,148,20275,1,0,0:0:0:0:
161,158,20356,1,0,0:0:0:0:
161,158,20436,1,0,0:0:0:0:
161,158,20596,1,0,0:0:0:0:
264,55,21078,1,8,0:0:0:0:
248,115,21238,1,8,0:0:0:0:
262,137,21398,1,0,0:0:0:0:
262,137,21559,1,8,0:0:0:0:
262,137,21719,1,0,0:0:0:0:
227,113,21799,1,0,0:0:0:0:
222,59,21880,1,0,0:0:0:0:
222,59,22120,1,8,0:0:0:0:
225,30,22361,1,0,0:0:0:0:
183,99,22521,1,8,0:0:0:0:
161,140,22682,1,8,0:0:0:0:
337,101,22762,1,8,0:0:0:0:
337,101,22842,1,8,0:0:0:0:
188,80,23003,1,0,0:0:0:0:
188,80,23163,1,0,0:0:0:0:
317,215,23644,1,8,0:0:0:0:
317,215,23725,1,8,0:0:0:0:
317,215,23805,1,8,0:0:0:0:
201,51,23965,1,0,0:0:0:0:
317,215,24126,1,8,0:0:0:0:
201,51,24286,1,0,0:0:0:0:
201,51,24447,1,0,0:0:0:0:
317,215,24928,1,0,0:0:0:0:
317,215,25088,1,8,0:0:0:0:
275,124,25249,1,0,0:0:0:0:
317,215,25409,1,8,0:0:0:0:
317,215,25570,1,8,0:0:0:0:
317,215,25730,1,4,0:0:0:0:
414,243,26051,1,0,0:0:0:0:
230,171,26211,1,8,0:0:0:0:
230,171,26291,1,8,0:0:0:0:
204,120,26372,1,8,0:0:0:0:
330,90,26532,1,8,0:0:0:0:
366,246,26693,1,0,0:0:0:0:
204,120,26853,1,8,0:0:0:0:
194,105,27013,1,0,0:0:0:0:
177,186,27334,1,8,0:0:0:0:
177,186,27414,1,8,0:0:0:0:
177,186,27495,1,8,0:0:0:0:
226,117,27655,1,0,0:0:0:0:
393,126,27976,1,0,0:0:0:0:
237,88,28136,1,8,0:0:0:0:
242,194,28297,1,0,0:0:0:0:
285,136,28457,1,8,0:0:0:0:
285,136,28618,1,0,0:0:0:0:
285,136,28698,1,0,0:0:0:0:
172,78,28778,1,0,0:0:0:0:
285,136,28939,1,0,0:0:0:0:
244,101,29099,1,8,0:0:0:0:
223,66,29259,1,8,0:0:0:0:
244,101,29340,1,8,0:0:0:0:
244,101,29420,1,8,0:0:0:0:
244,101,29580,1,0,0:0:0:0:
473,281,29901,1,8,0:0:0:0:
444,327,30222,1,8,0:0:0:0:
378,246,30543,1,8,0:0:0:0:
378,246,30703,1,8,0:0:0:0:
259,97,30864,1,0,0:0:0:0:
414,243,31184,1,0,0:0:0:0:
230,171,31344,1,8,0:0:0:0:
230,171,31424,1,8,0:0:0:0:
204,120,31505,1,8,0:0:0:0:
330,90,31665,1,8,0:0:0:0:
366,246,31826,1,0,0:0:0:0:
204,120,31986,1,8,0:0:0:0:
194,105,32146,1,0,0:0:0:0:
177,186,32467,1,8,0:0:0:0:
276,25,32628,1,0,0:0:0:0:
276,25,32709,1,0,0:0:0:0:
226,117,32788,1,0,0:0:0:0:
195,194,33110,1,8,0:0:0:0:
183,82,33270,1,8,0:0:0:0:
242,194,33430,1,0,0:0:0:0:
285,136,33590,1,8,0:0:0:0:
285,136,33751,1,0,0:0:0:0:
285,136,33831,1,0,0:0:0:0:
172,78,33911,1,0,0:0:0:0:
285,136,34072,1,0,0:0:0:0:
244,101,34232,1,8,0:0:0:0:
223,66,34392,1,8,0:0:0:0:
244,101,34473,1,8,0:0:0:0:
244,101,34553,1,8,0:0:0:0:
244,101,34713,1,0,0:0:0:0:
249,85,35035,1,8,0:0:0:0:
220,92,35356,1,0,0:0:0:0:
220,92,35676,1,8,0:0:0:0:
220,92,35837,1,8,0:0:0:0:
174,301,35997,1,0,0:0:0:0:
232,52,36318,1,8,0:0:0:0:
232,52,36398,1,8,0:0:0:0:
204,120,36479,1,8,0:0:0:0:
288,84,36639,1,0,0:0:0:0:
366,246,36960,1,0,0:0:0:0:
204,120,37120,1,8,0:0:0:0:
194,105,37280,1,0,0:0:0:0:
177,186,37601,1,8,0:0:0:0:
177,186,37682,1,8,0:0:0:0:
177,186,37762,1,8,0:0:0:0:
237,63,37922,1,8,0:0:0:0:
198,73,38243,1,8,0:0:0:0:
237,88,38403,1,8,0:0:0:0:
242,194,38564,1,0,0:0:0:0:
285,136,38885,1,0,0:0:0:0:
285,136,38965,1,0,0:0:0:0:
172,78,39045,1,0,0:0:0:0:
285,136,39206,1,0,0:0:0:0:
223,66,39526,1,0,0:0:0:0:
244,101,39687,1,8,0:0:0:0:
244,101,39767,1,8,0:0:0:0:
244,101,39848,1,8,0:0:0:0:
188,65,40168,1,0,0:0:0:0:
174,65,40489,1,8,0:0:0:0:
174,65,40810,1,8,0:0:0:0:
174,65,40971,1,0,0:0:0:0:
181,208,41131,1,0,0:0:0:0:
187,48,41452,1,8,0:0:0:0:
187,47,41532,1,8,0:0:0:0:
230,171,41612,1,8,0:0:0:0:
204,120,41773,1,0,0:0:0:0:
232,87,42094,1,0,0:0:0:0:
204,120,42254,1,8,0:0:0:0:
208,71,42414,1,8,0:0:0:0:
177,186,42735,1,8,0:0:0:0:
177,186,42816,1,8,0:0:0:0:
177,186,42896,1,8,0:0:0:0:
198,73,43056,1,8,0:0:0:0:
198,73,43377,1,8,0:0:0:0:
211,205,43537,1,0,0:0:0:0:
242,194,43698,1,0,0:0:0:0:
285,136,44019,1,0,0:0:0:0:
285,136,44099,1,0,0:0:0:0:
172,78,44179,1,0,0:0:0:0:
285,136,44340,1,0,0:0:0:0:
223,66,44660,1,0,0:0:0:0:
244,101,44821,1,8,0:0:0:0:
244,101,44901,1,8,0:0:0:0:
244,101,44981,1,8,0:0:0:0:
182,64,45302,1,8,0:0:0:0:
232,55,45623,1,8,0:0:0:0:
203,56,45944,1,0,0:0:0:0:
203,56,46104,1,0,0:0:0:0:
241,293,46265,1,12,0:0:0:0:
239,286,46505,1,8,0:0:0:0:
239,286,46746,1,0,0:0:0:0:
395,308,47067,1,0,0:0:0:0:
326,259,47227,1,8,0:0:0:0:
326,259,47334,1,8,0:0:0:0:
241,124,47441,1,8,0:0:0:0:
241,124,47548,1,0,0:0:0:0:
208,26,47869,1,8,0:0:0:0:
257,178,48350,1,0,0:0:0:0:
257,178,48511,1,8,0:0:0:0:
386,119,48618,1,0,0:0:0:0:
379,123,48725,1,8,0:0:0:0:
379,123,48832,1,0,0:0:0:0:
473,271,49152,1,8,0:0:0:0:
306,184,49634,1,0,0:0:0:0:
306,184,49794,1,8,0:0:0:0:
306,184,49901,1,8,0:0:0:0:
189,104,50008,1,8,0:0:0:0:
241,102,50115,1,0,0:0:0:0:
241,102,50436,1,8,0:0:0:0:
241,102,50596,1,0,0:0:0:0:
217,70,50757,1,8,0:0:0:0:
222,48,51398,1,0,0:0:0:0:
377,274,51559,1,8,0:0:0:0:
377,274,51719,1,8,0:0:0:0:
221,38,51880,1,0,0:0:0:0:
292,182,52040,1,8,0:0:0:0:
292,182,52201,1,0,0:0:0:0:
292,182,52281,1,0,0:0:0:0:
251,48,52361,1,0,0:0:0:0:
251,48,52521,1,8,0:0:0:0:
292,182,52682,1,0,0:0:0:0:
292,182,53003,1,8,0:0:0:0:
288,60,53324,1,0,0:0:0:0:
378,151,53484,1,8,0:0:0:0:
378,151,53564,1,8,0:0:0:0:
378,151,53644,1,8,0:0:0:0:
181,186,53805,1,8,0:0:0:0:
181,186,53965,1,0,0:0:0:0:
412,272,54286,1,0,0:0:0:0:
412,272,54607,1,8,0:0:0:0:
259,168,54767,1,0,0:0:0:0:
294,117,54928,1,8,0:0:0:0:
259,168,55008,1,8,0:0:0:0:
259,168,55088,1,8,0:0:0:0:
259,168,55249,1,0,0:0:0:0:
259,168,55730,1,0,0:0:0:0:
259,168,55890,1,8,0:0:0:0:
246,101,56051,1,0,0:0:0:0:
246,101,56211,1,8,0:0:0:0:
246,101,56372,1,8,0:0:0:0:
317,215,56532,1,4,0:0:0:0:
414,243,56853,1,0,0:0:0:0:
230,171,57013,1,8,0:0:0:0:
230,171,57093,1,8,0:0:0:0:
204,120,57174,1,8,0:0:0:0:
330,90,57334,1,8,0:0:0:0:
366,246,57495,1,0,0:0:0:0:
204,120,57655,1,8,0:0:0:0:
194,105,57815,1,0,0:0:0:0:
177,186,58136,1,8,0:0:0:0:
177,186,58216,1,8,0:0:0:0:
177,186,58297,1,8,0:0:0:0:
226,117,58457,1,0,0:0:0:0:
245,253,58778,1,8,0:0:0:0:
237,88,58938,1,8,0:0:0:0:
242,194,59099,1,0,0:0:0:0:
285,136,59259,1,8,0:0:0:0:
285,136,59420,1,0,0:0:0:0:
172,78,59580,1,0,0:0:0:0:
285,136,59741,1,0,0:0:0:0:
244,101,59901,1,8,0:0:0:0:
223,66,60061,1,8,0:0:0:0:
244,101,60142,1,8,0:0:0:0:
244,101,60222,1,8,0:0:0:0:
244,101,60382,1,0,0:0:0:0:
473,281,60703,1,8,0:0:0:0:
444,327,61024,1,8,0:0:0:0:
378,246,61345,1,8,0:0:0:0:
378,246,61505,1,8,0:0:0:0:
259,97,61666,1,0,0:0:0:0:
414,243,61986,1,0,0:0:0:0:
230,171,62146,1,8,0:0:0:0:
204,120,62307,1,8,0:0:0:0:
330,90,62467,1,8,0:0:0:0:
366,246,62628,1,0,0:0:0:0:
171,101,62709,1,0,0:0:0:0:
204,120,62788,1,0,0:0:0:0:
194,105,62948,1,0,0:0:0:0:
177,186,63269,1,8,0:0:0:0:
177,186,63349,1,8,0:0:0:0:
177,186,63430,1,8,0:0:0:0:
226,117,63590,1,0,0:0:0:0:
234,223,63912,1,0,0:0:0:0:
237,88,64071,1,8,0:0:0:0:
242,194,64232,1,0,0:0:0:0:
285,136,64392,1,8,0:0:0:0:
241,19,64553,1,8,0:0:0:0:
285,136,64633,1,8,0:0:0:0:
172,78,64713,1,8,0:0:0:0:
285,136,64874,1,0,0:0:0:0:
244,101,65034,1,8,0:0:0:0:
223,66,65194,1,8,0:0:0:0:
244,101,65275,1,8,0:0:0:0:
244,101,65355,1,8,0:0:0:0:
244,101,65515,1,0,0:0:0:0:
277,64,65837,1,0,0:0:0:0:
220,92,66158,1,0,0:0:0:0:
220,92,66478,1,8,0:0:0:0:
220,92,66639,1,8,0:0:0:0:
174,301,66799,1,0,0:0:0:0:
272,44,67120,1,8,0:0:0:0:
272,44,67201,1,8,0:0:0:0:
230,171,67281,1,8,0:0:0:0:
204,120,67441,1,0,0:0:0:0:
366,246,67762,1,0,0:0:0:0:
226,68,67922,1,0,0:0:0:0:
194,105,68082,1,8,0:0:0:0:
210,30,68243,1,8,0:0:0:0:
177,186,68403,1,0,0:0:0:0:
217,29,68484,1,0,0:0:0:0:
217,29,68564,1,0,0:0:0:0:
226,117,68724,1,0,0:0:0:0:
198,73,69045,1,8,0:0:0:0:
237,88,69205,1,8,0:0:0:0:
242,194,69366,1,0,0:0:0:0:
285,136,69526,1,8,0:0:0:0:
285,136,69687,1,0,0:0:0:0:
285,136,69767,1,0,0:0:0:0:
172,78,69848,1,0,0:0:0:0:
285,136,70008,1,8,0:0:0:0:
223,66,70328,1,0,0:0:0:0:
244,101,70489,1,8,0:0:0:0:
244,101,70570,1,8,0:0:0:0:
244,101,70650,1,8,0:0:0:0:
188,65,70970,1,0,0:0:0:0:
174,65,71291,1,8,0:0:0:0:
174,65,71612,1,8,0:0:0:0:
174,65,71773,1,0,0:0:0:0:
181,208,71933,1,0,0:0:0:0:
223,59,72254,1,8,0:0:0:0:
223,48,72334,1,8,0:0:0:0:
223,59,72414,1,8,0:0:0:0:
204,120,72575,1,8,0:0:0:0:
154,180,72735,1,0,0:0:0:0:
366,246,72896,1,0,0:0:0:0:
204,120,73056,1,8,0:0:0:0:
194,105,73216,1,0,0:0:0:0:
177,186,73537,1,0,0:0:0:0:
177,186,73618,1,0,0:0:0:0:
177,186,73698,1,0,0:0:0:0:
226,117,73858,1,8,0:0:0:0:
148,179,74019,1,0,0:0:0:0:
148,169,74179,1,8,0:0:0:0:
237,88,74339,1,8,0:0:0:0:
242,194,74500,1,0,0:0:0:0:
214,47,74821,1,8,0:0:0:0:
214,47,74901,1,8,0:0:0:0:
214,47,74981,1,8,0:0:0:0:
214,47,75142,1,0,0:0:0:0:
182,64,75302,1,8,0:0:0:0:
205,58,75463,1,0,0:0:0:0:
244,101,75623,1,0,0:0:0:0:
280,89,75783,1,8,0:0:0:0:
182,64,76104,1,0,0:0:0:0:
177,180,76184,1,0,0:0:0:0:
177,180,76265,1,0,0:0:0:0:
232,55,76425,1,8,0:0:0:0:
232,55,76585,1,0,0:0:0:0:
203,56,76746,1,8,0:0:0:0:
397,266,76826,1,8,0:0:0:0:
392,271,76906,1,8,0:0:0:0:
338,228,77067,1,0,0:0:0:0:
