osu file format v14

[General]
AudioFilename: audio.mp3
AudioLeadIn: 0
PreviewTime: 25676
Countdown: 0
SampleSet: Normal
StackLeniency: 0.7
Mode: 1
LetterboxInBreaks: 0
WidescreenStoryboard: 1

[Editor]
Bookmarks: 25676,56478
DistanceSpacing: 1.2
BeatDivisor: 4
GridSize: 16
TimelineZoom: 1.7

[Metadata]
Title:thank u, next
TitleUnicode:thank u, next
Artist:SCRIPT
ArtistUnicode:SCRIPT
Creator:op45667
Version:futsuu
Source:
Tags:ariana grande nightcore pitched hyperpop remix instrumental electronic english vocals you speed up sped-up speed-up
BeatmapID:3590125
BeatmapSetID:1754031

[Difficulty]
HPDrainRate:7
CircleSize:5
OverallDifficulty:4
ApproachRate:5
SliderMultiplier:1.4
SliderTickRate:1

[Events]
//Background and Video events
0,0,"5884d7840023df349d208be8.jpg",0,-70
//Break Periods
//Storyboard Layer 0 (Background)
//Storyboard Layer 1 (Fail)
//Storyboard Layer 2 (Pass)
//Storyboard Layer 3 (Foreground)
//Storyboard Layer 4 (Overlay)
//Storyboard Sound Samples

[TimingPoints]
62,320.855614973262,4,1,0,70,1,0
62,-125,4,1,0,70,0,0
5195,-111.111111111111,4,1,0,90,0,0
24928,-108.695652173913,4,1,0,90,0,0
25088,-106.382978723404,4,1,0,90,0,0
25249,-104.166666666667,4,1,0,90,0,0
25409,-102.040816326531,4,1,0,90,0,0
25570,-100,4,1,0,90,0,0
25730,-97.0873786407767,4,1,0,100,0,1
25890,-95.2380952380953,4,1,0,100,0,1
45944,-105.263157894737,4,1,0,100,0,1
46104,-105.263157894737,4,1,0,100,0,1
46265,-105.263157894737,4,1,0,90,0,0
55730,-105.263157894737,4,1,0,90,0,0
55890,-103.092783505155,4,1,0,90,0,0
56051,-101.010101010101,4,1,0,90,0,0
56211,-99.009900990099,4,1,0,90,0,0
56372,-97.0873786407767,4,1,0,90,0,0
56532,-95.2380952380953,4,1,0,100,0,1
56692,-93.4579439252337,4,1,0,100,0,1
56853,-90.9090909090909,4,1,0,100,0,1
76104,-90.9090909090909,4,1,0,100,0,1
76265,-93.5530707859955,4,1,0,100,0,1
76425,-96.3554514060187,4,1,0,100,0,1
76585,-99.3309070103781,4,1,0,100,0,1
76746,-102.495982157499,4,1,0,100,0,1
76906,-105.869399508766,4,1,0,100,0,1
77067,-109.89010989011,4,1,0,100,0,0
77388,-117.647058823529,4,1,0,80,0,0
78350,-117.647058823529,4,1,0,60,0,0
79634,-117.647058823529,4,1,0,40,0,0
80917,-117.647058823529,4,1,0,20,0,0

[HitObjects]
276,208,62,5,8,0:0:0:0:
75,152,222,1,0,0:0:0:0:
75,152,543,1,8,0:0:0:0:
75,152,703,1,0,0:0:0:0:
473,298,1345,1,8,0:0:0:0:
473,298,1505,1,0,0:0:0:0:
313,222,1826,1,8,0:0:0:0:
313,222,1987,1,0,0:0:0:0:
239,223,2628,1,0,0:0:0:0:
336,166,3110,1,0,0:0:0:0:
336,166,3912,1,8,0:0:0:0:
336,166,4393,1,8,0:0:0:0:
259,153,5195,1,4,0:0:0:0:
297,82,5516,1,8,0:0:0:0:
216,120,5676,1,0,0:0:0:0:
239,152,5997,1,0,0:0:0:0:
177,104,6158,1,8,0:0:0:0:
290,132,6318,1,8,0:0:0:0:
177,104,6479,1,0,0:0:0:0:
306,71,6799,1,0,0:0:0:0:
162,119,6960,1,8,0:0:0:0:
161,119,7281,1,0,0:0:0:0:
174,84,7441,1,8,0:0:0:0:
306,71,7602,1,8,0:0:0:0:
174,84,7762,1,0,0:0:0:0:
397,216,8003,1,8,0:0:0:0:
235,55,8243,1,0,0:0:0:0:
230,147,8564,1,0,0:0:0:0:
169,93,8725,1,8,0:0:0:0:
170,98,9045,1,0,0:0:0:0:
265,94,9687,1,8,0:0:0:0:
294,104,9848,1,0,0:0:0:0:
265,94,10008,1,8,0:0:0:0:
265,94,10168,1,8,0:0:0:0:
187,42,10329,1,0,0:0:0:0:
291,71,10570,1,8,0:0:0:0:
181,42,10810,1,8,0:0:0:0:
214,148,10971,1,0,0:0:0:0:
214,148,11131,1,0,0:0:0:0:
195,111,11291,1,8,0:0:0:0:
295,216,11612,1,0,0:0:0:0:
291,71,11853,1,8,0:0:0:0:
223,72,12094,1,0,0:0:0:0:
472,313,12254,1,8,0:0:0:0:
368,258,12414,1,0,0:0:0:0:
442,213,12575,1,8,0:0:0:0:
237,51,12896,1,0,0:0:0:0:
291,71,13136,1,8,0:0:0:0:
249,55,13377,1,0,0:0:0:0:
226,89,13537,1,8,0:0:0:0:
444,180,13698,1,8,0:0:0:0:
444,180,13858,1,0,0:0:0:0:
291,157,14179,1,0,0:0:0:0:
301,75,14821,1,0,0:0:0:0:
229,62,14981,1,8,0:0:0:0:
285,121,15142,1,8,0:0:0:0:
229,62,15302,1,0,0:0:0:0:
231,71,15463,1,8,0:0:0:0:
225,77,15783,1,8,0:0:0:0:
225,77,15944,1,0,0:0:0:0:
197,89,16265,1,8,0:0:0:0:
313,100,16425,1,0,0:0:0:0:
307,100,16586,1,0,0:0:0:0:
114,106,16746,1,8,0:0:0:0:
293,42,16987,1,0,0:0:0:0:
313,42,17227,1,8,0:0:0:0:
239,35,17388,1,8,0:0:0:0:
229,48,17548,1,0,0:0:0:0:
194,51,17709,1,8,0:0:0:0:
172,38,18029,1,0,0:0:0:0:
229,65,18350,1,8,0:0:0:0:
276,118,18511,1,0,0:0:0:0:
267,40,18832,1,0,0:0:0:0:
211,118,18992,1,0,0:0:0:0:
267,40,19152,1,8,0:0:0:0:
205,144,19313,1,8,0:0:0:0:
157,88,19955,1,8,0:0:0:0:
236,122,20115,1,0,0:0:0:0:
193,148,20275,1,8,0:0:0:0:
157,88,20436,1,0,0:0:0:0:
161,158,20596,1,0,0:0:0:0:
133,89,20917,1,8,0:0:0:0:
264,55,21078,1,0,0:0:0:0:
262,137,21398,1,8,0:0:0:0:
262,137,21559,1,8,0:0:0:0:
245,42,21719,1,8,0:0:0:0:
222,59,21880,1,0,0:0:0:0:
222,59,22120,1,8,0:0:0:0:
225,30,22361,1,0,0:0:0:0:
143,93,22521,1,0,0:0:0:0:
161,140,22682,1,8,0:0:0:0:
337,101,22842,1,8,0:0:0:0:
188,80,23163,1,0,0:0:0:0:
317,215,23484,1,8,0:0:0:0:
317,215,23644,1,8,0:0:0:0:
317,215,23805,1,0,0:0:0:0:
201,51,23965,1,8,0:0:0:0:
317,215,24126,1,8,0:0:0:0:
201,51,24447,1,0,0:0:0:0:
317,215,25088,1,8,0:0:0:0:
275,124,25249,1,0,0:0:0:0:
317,215,25409,1,8,0:0:0:0:
317,215,25570,1,8,0:0:0:0:
317,215,25730,1,4,0:0:0:0:
414,243,26051,1,0,0:0:0:0:
230,171,26211,1,8,0:0:0:0:
204,120,26372,1,8,0:0:0:0:
366,246,26693,1,0,0:0:0:0:
204,120,26853,1,8,0:0:0:0:
194,105,27013,1,0,0:0:0:0:
177,186,27334,1,8,0:0:0:0:
177,186,27495,1,8,0:0:0:0:
226,117,27655,1,0,0:0:0:0:
199,52,27816,1,0,0:0:0:0:
199,52,27976,1,8,0:0:0:0:
296,149,28136,1,8,0:0:0:0:
242,194,28297,1,0,0:0:0:0:
257,115,28618,1,8,0:0:0:0:
172,78,28778,1,0,0:0:0:0:
257,115,28939,1,8,0:0:0:0:
223,66,29259,1,8,0:0:0:0:
244,101,29420,1,8,0:0:0:0:
244,101,29580,1,0,0:0:0:0:
205,45,29901,1,8,0:0:0:0:
378,246,30543,1,8,0:0:0:0:
378,246,30703,1,8,0:0:0:0:
259,97,30864,1,0,0:0:0:0:
414,243,31184,1,0,0:0:0:0:
230,171,31344,1,8,0:0:0:0:
204,120,31505,1,0,0:0:0:0:
366,246,31826,1,8,0:0:0:0:
204,120,31986,1,8,0:0:0:0:
194,105,32146,1,0,0:0:0:0:
177,186,32467,1,8,0:0:0:0:
201,37,32628,1,8,0:0:0:0:
226,117,32788,1,0,0:0:0:0:
221,120,32949,1,8,0:0:0:0:
221,120,33110,1,0,0:0:0:0:
183,82,33270,1,8,0:0:0:0:
203,55,33430,1,0,0:0:0:0:
285,136,33751,1,0,0:0:0:0:
172,78,33911,1,8,0:0:0:0:
285,136,34072,1,0,0:0:0:0:
223,66,34392,1,8,0:0:0:0:
244,101,34553,1,8,0:0:0:0:
244,101,34713,1,0,0:0:0:0:
249,85,35035,1,8,0:0:0:0:
220,92,35676,1,8,0:0:0:0:
220,92,35837,1,8,0:0:0:0:
174,301,35997,1,0,0:0:0:0:
232,52,36318,1,8,0:0:0:0:
232,52,36479,1,8,0:0:0:0:
204,120,36639,1,8,0:0:0:0:
366,246,36960,1,0,0:0:0:0:
204,120,37120,1,8,0:0:0:0:
194,105,37280,1,0,0:0:0:0:
177,186,37601,1,8,0:0:0:0:
177,186,37762,1,0,0:0:0:0:
258,237,37922,1,8,0:0:0:0:
310,87,38083,1,8,0:0:0:0:
216,78,38243,1,0,0:0:0:0:
240,249,38404,1,8,0:0:0:0:
242,194,38564,1,0,0:0:0:0:
285,136,38885,1,0,0:0:0:0:
227,52,39045,1,8,0:0:0:0:
285,136,39206,1,0,0:0:0:0:
223,66,39526,1,8,0:0:0:0:
244,101,39687,1,8,0:0:0:0:
244,101,39847,1,0,0:0:0:0:
188,65,40168,1,0,0:0:0:0:
174,65,40810,1,8,0:0:0:0:
174,65,40971,1,0,0:0:0:0:
181,208,41131,1,0,0:0:0:0:
187,48,41452,1,8,0:0:0:0:
230,171,41612,1,8,0:0:0:0:
204,120,41773,1,8,0:0:0:0:
232,87,42094,1,0,0:0:0:0:
204,120,42254,1,8,0:0:0:0:
208,71,42414,1,8,0:0:0:0:
221,29,42735,1,0,0:0:0:0:
177,186,42896,1,8,0:0:0:0:
221,29,43056,1,0,0:0:0:0:
221,29,43217,1,0,0:0:0:0:
198,73,43377,1,8,0:0:0:0:
214,78,43537,1,8,0:0:0:0:
242,194,43698,1,0,0:0:0:0:
285,136,44019,1,0,0:0:0:0:
214,78,44179,1,8,0:0:0:0:
285,136,44340,1,0,0:0:0:0:
223,66,44660,1,8,0:0:0:0:
244,101,44821,1,8,0:0:0:0:
244,101,44981,1,0,0:0:0:0:
182,64,45302,1,8,0:0:0:0:
203,56,45944,1,0,0:0:0:0:
203,56,46104,1,0,0:0:0:0:
241,293,46265,1,12,0:0:0:0:
239,286,46505,1,8,0:0:0:0:
239,286,46746,1,0,0:0:0:0:
326,259,47227,1,8,0:0:0:0:
210,47,47388,1,8,0:0:0:0:
241,124,47548,1,0,0:0:0:0:
208,26,47869,1,8,0:0:0:0:
257,178,48511,1,8,0:0:0:0:
210,47,48671,1,8,0:0:0:0:
379,123,48832,1,0,0:0:0:0:
473,271,49152,1,8,0:0:0:0:
306,184,49794,1,0,0:0:0:0:
306,184,49955,1,8,0:0:0:0:
241,102,50115,1,0,0:0:0:0:
241,102,50436,1,8,0:0:0:0:
241,102,50596,1,0,0:0:0:0:
217,70,50757,1,8,0:0:0:0:
222,48,51398,1,0,0:0:0:0:
377,274,51719,1,8,0:0:0:0:
221,38,51880,1,0,0:0:0:0:
292,182,52040,1,8,0:0:0:0:
292,182,52201,1,0,0:0:0:0:
251,48,52521,1,8,0:0:0:0:
292,182,52682,1,0,0:0:0:0:
292,182,53003,1,8,0:0:0:0:
221,38,53163,1,8,0:0:0:0:
288,60,53324,1,0,0:0:0:0:
378,151,53484,1,8,0:0:0:0:
181,186,53805,1,8,0:0:0:0:
181,186,53965,1,0,0:0:0:0:
412,272,54286,1,0,0:0:0:0:
412,272,54447,1,0,0:0:0:0:
412,272,54607,1,8,0:0:0:0:
259,168,54767,1,0,0:0:0:0:
259,168,55088,1,8,0:0:0:0:
259,168,55249,1,0,0:0:0:0:
259,168,55890,1,8,0:0:0:0:
246,101,56051,1,0,0:0:0:0:
246,101,56211,1,8,0:0:0:0:
246,101,56372,1,8,0:0:0:0:
317,215,56532,1,4,0:0:0:0:
414,243,56853,1,8,0:0:0:0:
230,171,57013,1,0,0:0:0:0:
204,120,57174,1,8,0:0:0:0:
366,246,57495,1,0,0:0:0:0:
204,120,57655,1,8,0:0:0:0:
194,105,57815,1,0,0:0:0:0:
177,186,58136,1,8,0:0:0:0:
177,186,58297,1,8,0:0:0:0:
226,117,58457,1,0,0:0:0:0:
199,52,58618,1,8,0:0:0:0:
199,52,58778,1,0,0:0:0:0:
296,149,58938,1,8,0:0:0:0:
242,194,59099,1,0,0:0:0:0:
257,115,59420,1,8,0:0:0:0:
172,78,59580,1,0,0:0:0:0:
257,115,59741,1,8,0:0:0:0:
223,66,60061,1,8,0:0:0:0:
244,101,60222,1,8,0:0:0:0:
244,101,60382,1,0,0:0:0:0:
473,281,60703,1,8,0:0:0:0:
378,246,61345,1,8,0:0:0:0:
378,246,61505,1,8,0:0:0:0:
259,97,61666,1,0,0:0:0:0:
414,243,61986,1,0,0:0:0:0:
230,171,62146,1,8,0:0:0:0:
204,120,62307,1,0,0:0:0:0:
366,246,62628,1,8,0:0:0:0:
204,120,62788,1,8,0:0:0:0:
194,105,62948,1,0,0:0:0:0:
177,186,63269,1,8,0:0:0:0:
201,37,63430,1,0,0:0:0:0:
226,117,63590,1,0,0:0:0:0:
221,120,63751,1,8,0:0:0:0:
221,120,63912,1,8,0:0:0:0:
183,82,64072,1,8,0:0:0:0:
203,55,64232,1,0,0:0:0:0:
285,136,64553,1,0,0:0:0:0:
172,78,64713,1,8,0:0:0:0:
285,136,64874,1,0,0:0:0:0:
451,128,65035,1,0,0:0:0:0:
223,66,65194,1,8,0:0:0:0:
244,101,65355,1,8,0:0:0:0:
244,101,65515,1,0,0:0:0:0:
249,85,65837,1,8,0:0:0:0:
220,92,66478,1,8,0:0:0:0:
220,92,66639,1,8,0:0:0:0:
174,301,66799,1,0,0:0:0:0:
232,52,67120,1,8,0:0:0:0:
232,52,67281,1,8,0:0:0:0:
204,120,67441,1,8,0:0:0:0:
366,246,67762,1,0,0:0:0:0:
204,120,67922,1,8,0:0:0:0:
194,105,68082,1,0,0:0:0:0:
177,186,68403,1,8,0:0:0:0:
177,186,68564,1,8,0:0:0:0:
258,237,68724,1,0,0:0:0:0:
310,87,68885,1,8,0:0:0:0:
216,78,69045,1,0,0:0:0:0:
190,249,69206,1,8,0:0:0:0:
242,194,69366,1,0,0:0:0:0:
285,136,69687,1,8,0:0:0:0:
227,52,69847,1,8,0:0:0:0:
285,136,70008,1,0,0:0:0:0:
223,66,70328,1,0,0:0:0:0:
244,101,70489,1,8,0:0:0:0:
244,101,70649,1,0,0:0:0:0:
188,65,70970,1,0,0:0:0:0:
174,65,71612,1,8,0:0:0:0:
174,65,71773,1,0,0:0:0:0:
181,208,71933,1,0,0:0:0:0:
187,48,72254,1,8,0:0:0:0:
230,171,72414,1,8,0:0:0:0:
204,120,72575,1,8,0:0:0:0:
232,87,72896,1,0,0:0:0:0:
204,120,73056,1,8,0:0:0:0:
208,71,73216,1,0,0:0:0:0:
221,29,73537,1,0,0:0:0:0:
177,186,73698,1,8,0:0:0:0:
221,29,73858,1,0,0:0:0:0:
221,29,74019,1,0,0:0:0:0:
198,73,74179,1,8,0:0:0:0:
214,78,74339,1,8,0:0:0:0:
242,194,74500,1,0,0:0:0:0:
285,136,74821,1,8,0:0:0:0:
214,78,74981,1,8,0:0:0:0:
285,136,75142,1,0,0:0:0:0:
223,66,75462,1,8,0:0:0:0:
244,101,75623,1,0,0:0:0:0:
244,101,75783,1,8,0:0:0:0:
182,64,76104,1,0,0:0:0:0:
182,64,76265,1,8,0:0:0:0:
232,55,76425,1,8,0:0:0:0:
232,55,76585,1,0,0:0:0:0:
203,56,76746,1,8,0:0:0:0:
392,271,76906,1,8,0:0:0:0:
338,228,77067,1,0,0:0:0:0:
