osu file format v14

[General]
AudioFilename: audio.mp3
AudioLeadIn: 0
PreviewTime: 52760
Countdown: 0
SampleSet: Soft
StackLeniency: 0.4
Mode: 0
LetterboxInBreaks: 0
EpilepsyWarning: 1
WidescreenStoryboard: 1

[Editor]
Bookmarks: 25511,39629
DistanceSpacing: 1
BeatDivisor: 4
GridSize: 8
TimelineZoom: 1

[Metadata]
Title:Baby Romantica (TV Size)
TitleUnicode:ベイビーロマンチカ (TV Size)
Artist:SCRIPT
ArtistUnicode:SCRIPT
Creator:Yahuri
Version:Pure Heart
Source:純情ロマンチカ
Tags:nao tomori naotoshi junjo junjou romantica bl yaoi gay takahashi misaki usagi usami akihiko shungiku nakamura anime ed ending
BeatmapID:1481075
BeatmapSetID:670518

[Difficulty]
HPDrainRate:6
CircleSize:4
OverallDifficulty:7
ApproachRate:8
SliderMultiplier:1.7
SliderTickRate:1

[Events]
//Background and Video events
0,0,"JUNJO.jpg",0,0
//Break Periods
//Storyboard Layer 0 (Background)
//Storyboard Layer 1 (Fail)
//Storyboard Layer 2 (Pass)
//Storyboard Layer 3 (Foreground)
Sprite,Foreground,Centre,"Lyrics\Yahuri.jpg",320,340 S,0,4341,,0.6 P,0,4341,,A F,0,4341,4782,0,1 MX,0,4341,7870,320 MY,0,4341,7870,240 F,0,7429,7870,1,0
Sprite,Foreground,Centre,"SB\white.jpg",320,240 S,0,39635,,15 F,0,39635,40076,0.4,0
Sprite,Foreground,Centre,"SB\white.jpg",320,240 S,0,41179,,15 F,0,41179,41620,0.4,0
Sprite,Foreground,Centre,"SB\white.jpg",320,240 S,0,43164,,15 F,0,43164,43606,0.4,0
Sprite,Foreground,Centre,"SB\white.jpg",320,240 S,0,44709,,15 F,0,44709,45150,0.4,0
Sprite,Foreground,Centre,"SB\white.jpg",320,240 S,0,46694,,15 F,0,46694,47135,0.4,0
Sprite,Foreground,Centre,"SB\white.jpg",320,240 S,0,48238,,15 F,0,48238,48679,0.4,0
Sprite,Foreground,Centre,"SB\white.jpg",320,240 S,0,51547,,15 F,0,51547,52209,0.4,0
Sprite,Foreground,Centre,"SB\white.jpg",320,240 S,0,53753,,15 F,0,53753,54194,1,0
Sprite,Foreground,Centre,"SB\white.jpg",320,240 S,0,57282,,15 F,0,57282,57723,1,0
Sprite,Foreground,Centre,"SB\white.jpg",320,240 S,0,64341,,15 F,0,64341,64782,1,0
Sprite,Foreground,Centre,"SB\white.jpg",320,240 S,0,65885,,15 F,0,65885,66326,1,0
Sprite,Foreground,Centre,"SB\white.jpg",320,240 S,0,66767,,15 F,0,66767,67209,1,0
Sprite,Foreground,Centre,"SB\white.jpg",320,240 S,0,67870,,15 F,0,67870,68311,1,0
Sprite,Foreground,Centre,"SB\white.jpg",320,240 S,0,71400,,15 F,0,71400,71841,1,0
Sprite,Foreground,Centre,"SB\white.jpg",320,240 S,0,72944,,15 F,0,72944,73385,1,0
Sprite,Foreground,Centre,"SB\white.jpg",320,240 S,0,73385,,15 F,0,73385,73826,1,0
Sprite,Foreground,Centre,"SB\white.jpg",320,240 S,0,73826,,15 F,0,73826,74267,1,0
Sprite,Foreground,Centre,"SB\white.jpg",320,240 S,0,74267,,15 F,0,74267,74709,1,0
Sprite,Foreground,Centre,"SB\white.jpg",320,240 S,0,74929,,15 F,0,74929,75370,1,0
Sprite,Foreground,Centre,"SB\white.jpg",320,240 S,0,76694,,15 F,0,76694,77135,1,0
Sprite,Foreground,Centre,"SB\white.jpg",320,240 S,0,77576,,15 F,0,77576,78017,1,0
Sprite,Foreground,Centre,"SB\white.jpg",320,240 S,0,78459,,15 F,0,78459,78900,1,0
Sprite,Foreground,Centre,"SB\white.jpg",320,240 S,0,80223,,15 F,0,80223,80664,1,0
Sprite,Foreground,Centre,"SB\white.jpg",320,240 S,0,81106,,15 F,0,81106,81547,1,0
Sprite,Foreground,Centre,"SB\white.jpg",320,240 S,0,81988,,15 F,0,81988,82429,1,0
Sprite,Foreground,Centre,"SB\white.jpg",320,240 S,0,83753,,15 F,0,83753,84194,1,0
Sprite,Foreground,Centre,"SB\white.jpg",320,240 S,0,84635,,15 F,0,84635,85076,1,0
//Storyboard Sound Samples

[TimingPoints]
812,441.176470588235,4,2,1,70,1,0
11400,-100,4,2,2,50,0,0
53753,-83.3333333333333,4,2,1,80,0,1
67760,-83.3333333333333,4,2,1,80,0,0
67870,-83.3333333333333,4,2,1,80,0,1
83753,-100,4,2,1,70,0,0
86400,-100,4,2,1,60,0,0
86841,-100,4,2,1,50,0,0
87282,-100,4,2,1,40,0,0
87723,-100,4,2,1,30,0,0
88164,-100,4,2,1,20,0,0
88606,-100,4,2,1,10,0,0
89047,-100,4,2,1,5,0,0

[Colours]
Combo1 : 171,104,193
Combo2 : 35,177,35
Combo3 : 141,36,176
Combo4 : 104,193,104
SliderBorder : 255,255,255

[HitObjects]
139,221,370,6,8,L|131:178,3,42.5
174,254,812,6,0,P|216:253|255:268,1,85,4|0,0:0|0:0,0:0:0:0:
329,326,1253,2,0,P|352:266|349:203,1,127.5,8|8,0:0|0:0,0:0:0:0:
380,168,1694,2,0,L|428:159,1,42.5,0|8,0:0|0:0,0:0:0:0:
451,124,1914,1,0,0:0:0:0:
423,34,2135,1,8,0:0:0:0:
342,81,2356,6,0,L|243:63,1,85,0|0,0:0|0:0,0:0:0:0:
202,141,2797,2,0,L|285:155,1,85,0|8,0:0|0:0,0:0:0:0:
315,244,3238,1,0,0:0:0:0:
315,244,3348,2,0,L|216:226,1,85,8|8,0:0|0:0,0:0:0:0:
202,261,3679,1,0,0:0:0:0:
113,229,3900,1,8,0:0:0:0:
131,321,4120,1,0,0:0:0:0:
43,290,4341,6,0,P|25:255|21:210,1,85,4|0,0:0|0:0,0:0:0:0:
53,122,4782,2,0,P|113:145|176:142,1,127.5,8|8,0:0|0:0,0:0:0:0:
211,111,5223,2,0,L|259:119,1,42.5,0|8,0:0|0:0,0:0:0:0:
290,91,5443,1,0,0:0:0:0:
376,54,5664,1,8,0:0:0:0:
462,91,5885,6,0,L|480:190,1,85,0|0,0:0|0:0,0:0:0:0:
402,231,6326,2,0,L|388:148,1,85,0|8,0:0|0:0,0:0:0:0:
299,118,6767,1,0,0:0:0:0:
299,118,6877,2,0,L|317:217,1,85,8|8,0:0|0:0,0:0:0:0:
282,231,7208,1,0,0:0:0:0:
256,321,7429,2,0,L|355:303,1,85,8|0,0:0|0:0,0:0:0:0:
201,257,7870,6,0,P|162:255|120:270,1,85,4|0,0:0|0:0,0:0:0:0:
28,294,8311,2,0,P|51:234|48:171,1,127.5,8|8,0:0|0:0,0:0:0:0:
76,134,8752,2,0,L|124:125,1,42.5,0|8,0:0|0:0,0:0:0:0:
150,92,8972,1,0,0:0:0:0:
236,126,9193,1,8,0:0:0:0:
177,199,9414,6,0,P|180:241|199:278,1,85,0|0,0:0|0:0,0:0:0:0:
288,308,9856,2,0,P|325:289|367:285,1,85,0|8,0:0|0:0,0:0:0:0:
458,304,10296,1,0,0:0:0:0:
429,214,10517,1,8,0:0:0:0:
429,214,10628,1,8,0:0:0:0:
429,214,10738,1,4,0:3:0:0:
458,125,10959,1,8,0:0:0:0:
329,45,11179,1,8,0:0:0:0:
329,45,11289,1,8,0:0:0:0:
329,45,11400,6,0,P|290:39|247:50,1,85,4|0,0:0|0:0,0:0:0:0:
216,139,11841,2,0,P|233:200|225:263,1,127.5,8|8,0:0|0:0,0:0:0:0:
198,301,12282,1,0,0:0:0:0:
285,336,12503,2,0,P|323:341|366:330,1,85,0|8,0:0|0:0,0:0:0:0:
446,279,12944,6,0,L|439:195,1,85
405,106,13385,2,0,L|335:153,1,85,0|8,0:0|0:0,0:0:0:0:
275,228,13826,1,0,0:0:0:0:
275,228,13936,2,0,L|330:253,1,42.5,8|0,0:0|0:0,0:0:0:0:
256,320,14267,2,0,L|165:277,1,85,0|8,0:0|0:0,0:0:0:0:
89,311,14709,1,0,0:0:0:0:
112,221,14929,6,0,P|123:180|118:138,1,85
149,50,15370,2,0,P|210:67|273:59,1,127.5,8|8,0:0|0:0,0:0:0:0:
311,32,15811,1,0,0:0:0:0:
342,120,16032,2,0,P|337:158|348:201,1,85,0|8,0:0|0:0,0:0:0:0:
386,288,16473,1,0,0:0:0:0:
292,279,16694,6,0,L|207:286,1,85
155,208,17135,2,8,L|239:200,1,85,8|0,0:0|0:0,0:0:0:0:
272,167,17466,2,8,L|279:82,1,85,8|0,0:0|0:0,0:0:0:0:
256,41,17797,1,0,0:0:0:0:
168,73,18017,2,8,L|83:80,1,85,8|0,0:0|0:0,0:0:0:0:
54,170,18459,6,0,P|65:211|60:253,1,85
87,342,18900,1,8,0:0:0:0:
149,272,19120,1,0,0:0:0:0:
184,302,19231,2,0,P|222:307|265:296,1,85,8|0,0:0|0:0,0:0:0:0:
300,263,19561,2,0,P|338:258|381:269,1,85,0|8,0:0|0:0,0:0:0:0:
463,320,20004,6,0,L|471:220,1,85
436,148,20445,2,0,L|428:63,1,85,0|8,0:0|0:0,0:0:0:0:
340,32,20885,2,0,L|335:88,1,42.5,0|8,0:0|0:0,0:0:0:0:
307,111,21106,2,0,L|207:119,1,85
191,153,21436,2,8,L|186:209,1,42.5,0|8,0:0|0:0,0:0:0:0:
217,284,21767,1,0,0:0:0:0:
165,361,21988,6,0,P|122:364|82:352,1,85,0|0,0:3|0:0,0:0:0:0:
51,264,22429,2,0,P|68:203|60:140,1,127.5,8|8,0:0|0:0,0:0:0:0:
30,103,22871,1,0,0:0:0:0:
115,64,23092,1,0,0:0:0:0:
198,103,23312,1,8,0:0:0:0:
283,65,23532,2,0,L|369:72,1,85
450,114,23973,5,0,0:0:0:0:
373,167,24195,2,8,L|288:159,1,85,8|0,0:0|0:0,0:0:0:0:
252,188,24525,1,8,0:0:0:0:
217,218,24635,2,8,L|212:266,2,42.5,0|8|0,0:0|0:0|0:0,0:0:0:0:
266,335,25076,1,8,0:0:0:0:
111,344,25297,1,8,0:0:0:0:
111,344,25407,1,8,0:0:0:0:
111,344,25517,6,0,P|98:306|101:262,1,85,4|0,0:2|0:0,0:0:0:0:
143,179,25959,2,0,P|160:118|152:55,1,127.5,8|8,0:0|0:0,0:0:0:0:
181,18,26400,1,0,0:0:0:0:
251,79,26620,2,0,P|289:84|332:73,1,85,0|8,0:0|0:0,0:0:0:0:
418,32,27062,1,0,0:0:0:0:
501,72,27282,5,0,0:0:0:0:
464,158,27503,2,0,L|455:257,1,85,0|8,0:0|0:0,0:0:0:0:
365,265,27944,2,0,L|308:260,1,42.5,0|8,0:0|0:0,0:0:0:0:
282,238,28164,1,0,0:0:0:0:
349,173,28385,2,0,L|357:73,1,85,0|8,0:0|0:0,0:0:0:0:
288,24,28827,1,0,0:0:0:0:
221,89,29047,6,0,P|178:92|138:80,1,85,0|0,0:3|0:0,0:0:0:0:
49,110,29488,1,8,0:0:0:0:
119,172,29709,2,0,L|114:228,1,42.5,0|8,0:0|0:0,0:0:0:0:
85,250,29929,1,0,0:0:0:0:
140,325,30150,1,0,0:0:0:0:
232,337,30370,1,8,0:0:0:0:
307,282,30591,1,0,0:0:0:0:
396,309,30811,6,0,L|480:301,1,85
510,212,31253,1,8,0:0:0:0:
468,128,31473,1,0,0:0:0:0:
431,157,31584,2,8,L|346:164,1,85,8|0,0:0|0:0,0:0:0:0:
307,137,31915,1,0,0:0:0:0:
277,225,32135,2,8,L|284:309,1,85,8|0,0:0|0:0,0:0:0:0:
197,344,32576,6,0,P|159:331|115:334,1,85,0|0,0:2|0:0,0:0:0:0:
24,307,33018,2,0,P|7:246|15:183,1,127.5,8|8,0:0|0:0,0:0:0:0:
45,147,33459,1,0,0:0:0:0:
137,163,33679,1,0,0:0:0:0:
205,100,33900,1,8,0:0:0:0:
297,116,34120,6,0,L|396:107,1,85
432,188,34561,2,0,L|332:196,1,85,0|8,0:0|0:0,0:0:0:0:
319,284,35003,2,0,L|323:340,1,42.5,0|8,0:0|0:0,0:0:0:0:
302,368,35224,1,0,0:0:0:0:
217,329,35444,1,0,0:0:0:0:
240,238,35664,1,8,0:0:0:0:
173,172,35885,1,0,0:0:0:0:
263,147,36105,5,0,0:0:0:0:
354,161,36326,1,0,0:0:0:0:
428,104,36546,1,8,0:0:0:0:
442,12,36767,2,0,L|488:7,2,42.5,0|8|0,0:0|0:0|0:0,0:0:0:0:
354,45,37209,2,0,P|316:58|272:55,1,85,0|8,0:2|0:0,0:0:0:0:
122,19,37650,6,0,L|129:105,1,85,4|0,0:0|0:0,0:0:0:0:
171,187,38091,2,0,L|163:273,1,85,0|8,0:0|0:0,0:0:0:0:
129,358,38532,1,0,0:0:0:0:
222,344,38753,2,0,L|308:351,1,85,8|0,0:0|0:0,0:0:0:0:
396,323,39194,1,8,0:0:0:0:
396,323,39304,1,8,0:0:0:0:
396,323,39414,1,4,0:3:0:0:
283,219,39635,6,0,P|291:163|357:220,1,170,4|8,0:0|0:0,0:0:0:0:
439,260,40297,2,0,P|455:221|453:179,1,85
509,104,40738,2,0,P|470:87|428:89,1,85,0|8,0:0|0:0,0:0:0:0:
352,144,41179,6,0,P|296:135|353:69,1,170,4|0,0:0|0:0,0:0:0:0:
429,89,41841,1,8,0:0:0:0:
435,182,42061,2,0,P|426:200|403:219,1,42.5,0|8,0:0|0:0,0:0:0:0:
374,246,42282,2,0,P|335:230|293:232,1,85
217,287,42723,2,0,P|201:248|203:206,1,85,8|0,0:0|0:0,0:0:0:0:
228,115,43164,6,0,P|176:63|146:129,1,170,4|8,0:0|0:0,0:0:0:0:
203,206,43826,2,0,P|186:217|157:222,2,42.5,0|8|0,0:0|0:0|0:0,0:0:0:0:
293,179,44267,2,0,P|295:221|279:260,1,85,0|8,0:0|0:0,0:0:0:0:
369,287,44709,6,0,P|435:316|383:368,1,170,4|0,0:0|0:0,0:0:0:0:
294,343,45370,1,8,0:0:0:0:
279,260,45591,2,0,P|286:241|306:219,1,42.5,0|8,0:0|0:0,0:0:0:0:
332,190,45811,2,0,P|334:147|318:108,1,85
344,18,46253,2,0,P|301:15|262:31,1,85,8|0,0:0|0:0,0:0:0:0:
227,118,46694,6,0,P|196:183|145:131,1,170,4|8,0:0|0:0,0:0:0:0:
174,43,47356,2,0,P|154:37|125:42,2,42.5,0|8|0,0:0|0:0|0:0,0:0:0:0:
145,131,47797,2,0,P|128:170|131:212,1,85,0|8,0:0|0:0,0:0:0:0:
75,287,48238,6,0,P|104:353|156:301,1,170,4|0,0:0|0:0,0:0:0:0:
131,212,48900,1,8,0:0:0:0:
222,236,49120,1,0,0:0:0:0:
196,146,49341,2,0,P|194:103|210:64,1,85
285,121,49782,2,0,P|296:104|322:89,2,42.5,8|8|0,0:0|0:0|0:0,0:0:0:0:
311,211,50223,5,12,0:3:0:0:
222,236,50444,1,0,0:0:0:0:
196,146,50664,1,0,0:0:0:0:
376,96,50885,5,12,0:3:0:0:
401,185,51106,1,0,0:0:0:0:
311,211,51326,1,0,0:0:0:0:
261,31,51547,5,12,0:0:0:0:
222,236,52209,1,12,0:3:0:0:
311,211,52429,1,12,0:3:0:0:
401,185,52650,1,12,0:3:0:0:
334,120,52870,5,12,0:3:0:0:
311,211,53091,2,0,L|315:256,1,42.5,8|8,0:0|0:0,0:0:0:0:
295,295,53311,1,8,0:0:0:0:
261,321,53421,1,8,0:0:0:0:
220,329,53531,1,8,0:0:0:0:
179,319,53641,1,8,0:0:0:0:
147,292,53752,5,4,0:0:0:0:
179,184,53973,1,0,0:3:0:0:
39,260,54194,1,8,0:0:0:0:
71,152,54414,2,0,L|85:94,1,50.9999984436036,0|8,0:0|0:0,0:0:0:0:
167,135,54635,2,0,L|179:184,1,50.9999984436036,0|8,0:0|0:0,0:0:0:0:
261,116,54856,1,0,0:0:0:0:
280,226,55076,1,8,0:0:0:0:
367,155,55297,6,0,P|402:135|462:129,1,101.999996887207
376,252,55738,2,0,P|340:232|280:226,1,101.999996887207,0|8,0:0|0:0,0:0:0:0:
174,265,56179,2,0,L|189:322,2,50.9999984436036,0|8|0,0:0|0:0|0:0,0:0:0:0:
183,168,56620,2,0,P|147:187|87:193,2,101.999996887207,0|8|0,0:0|0:0|0:0,0:0:0:0:
280,226,57282,6,0,P|315:245|375:251,1,101.999996887207,4|0,0:0|0:0,0:0:0:0:
457,174,57723,1,8,0:0:0:0:
484,283,57944,2,0,L|469:340,1,50.9999984436036,0|8,0:0|0:0,0:0:0:0:
389,300,58165,2,0,L|374:243,1,50.9999984436036,0|8,0:0|0:0,0:0:0:0:
294,319,58386,1,0,0:0:0:0:
205,251,58606,1,8,0:0:0:0:
118,322,58826,6,0,P|82:341|22:347,1,101.999996887207
109,226,59267,2,0,P|144:245|204:251,1,101.999996887207,0|8,0:0|0:0,0:0:0:0:
118,128,59709,2,0,P|82:147|64:153,2,50.9999984436036,0|8|0,0:0|0:0|0:0,0:0:0:0:
109,31,60150,2,0,P|144:50|204:56,1,101.999996887207,0|8,0:0|0:0,0:0:0:0:
312,23,60591,1,0,0:0:0:0:
405,84,60811,5,0,0:0:0:0:
372,191,61032,1,0,0:0:0:0:
339,298,61253,1,8,0:0:0:0:
262,215,61473,1,0,0:0:0:0:
262,215,61584,2,0,P|211:212|165:190,1,101.999996887207,8|8,0:0|0:0,0:0:0:0:
166,101,61914,1,0,0:0:0:0:
267,52,62135,1,8,0:0:0:0:
369,101,62356,6,0,P|418:103|464:77,1,101.999996887207
443,185,62797,2,0,P|441:234|467:280,1,101.999996887207,0|8,0:0|0:0,0:0:0:0:
370,347,63238,1,0,0:0:0:0:
370,347,63348,2,0,P|372:298|346:252,1,101.999996887207,8|8,0:0|0:0,0:0:0:0:
287,318,63679,1,0,0:0:0:0:
240,216,63900,1,8,0:0:0:0:
323,141,64120,1,0,0:0:0:0:
128,46,64341,6,0,B|97:28|62:76|97:127|148:139,1,152.999995330811,4|0,0:0|0:0,0:0:0:0:
232,119,64782,2,0,B|275:79|279:17|225:-7|196:36,1,152.999995330811,4|8,0:3|0:0,0:0:0:0:
128,46,65223,2,0,P|88:45|33:20,1,101.999996887207,8|0,0:0|0:0,0:0:0:0:
54,130,65664,1,8,0:0:0:0:
207,24,65885,6,0,B|312:17|291:93|397:74,1,203.999993774414,4|0,0:0|0:0,0:0:0:0:
488,9,66547,1,8,0:0:0:0:
390,187,66767,1,4,0:0:0:0:
398,74,66988,2,0,P|436:85|482:125,1,101.999996887207
382,299,67429,2,0,P|343:287|297:247,1,101.999996887207,8|0,0:0|0:0,0:0:0:0:
256,47,67870,5,4,0:0:0:0:
148,16,68091,1,0,0:3:0:0:
224,155,68312,1,8,0:0:0:0:
116,123,68532,2,0,L|59:138,1,50.9999984436036,0|8,0:0|0:0,0:0:0:0:
85,231,68753,2,0,L|98:280,1,50.9999984436036,0|8,0:0|0:0,0:0:0:0:
192,263,68973,1,0,0:0:0:0:
272,342,69194,1,8,0:0:0:0:
301,234,69414,6,0,P|341:236|396:261,1,101.999996887207
384,347,69745,1,0,0:3:0:0:
384,347,69856,2,0,P|434:342|479:319,1,101.999996887207,0|8,0:0|0:0,0:0:0:0:
512,211,70297,2,0,L|497:154,1,50.9999984436036,0|8,0:0|0:0,0:0:0:0:
443,81,70518,2,0,L|394:95,1,50.9999984436036,0|8,0:0|0:0,0:0:0:0:
326,164,70738,2,0,P|286:162|231:137,1,101.999996887207,0|8,0:0|0:0,0:0:0:0:
201,27,71179,1,0,0:0:0:0:
123,108,71400,5,4,0:0:0:0:
155,206,71621,1,0,0:3:0:0:
15,131,71842,1,8,0:0:0:0:
47,238,72061,2,0,L|60:286,1,50.9999984436036,0|8,0:0|0:0,0:0:0:0:
132,353,72282,2,0,L|180:340,1,50.9999984436036,0|8,0:0|0:0,0:0:0:0:
256,277,72503,1,0,0:0:0:0:
256,124,72723,1,8,0:0:0:0:
331,309,72944,6,0,B|384:326|431:309|431:309|445:282|431:261,1,152.999995330811,4|0,0:0|0:0,0:0:0:0:
337,226,73385,2,0,P|288:238|255:277,1,101.999996887207,4|8,0:0|0:0,0:0:0:0:
156,114,73826,6,0,B|209:97|256:114|256:114|270:141|256:162,1,152.999995330811,4|0,0:0|0:0,0:0:0:0:
163,196,74267,2,0,P|114:184|81:145,1,101.999996887207,4|8,0:0|0:0,0:0:0:0:
77,94,74598,1,8,0:0:0:0:
104,51,74709,1,4,0:3:0:0:
256,163,74929,6,0,B|227:209|251:255|251:255|295:328|215:328|231:294,1,203.999993774414,12|8,0:0|0:0,0:0:0:0:
325,213,75591,1,0,0:0:0:0:
158,248,75811,1,8,0:0:0:0:
211,85,76032,1,0,0:0:0:0:
353,239,76253,1,8,0:0:0:0:
239,111,76473,1,0,0:0:0:0:
186,274,76694,5,12,0:0:0:0:
71,146,76914,1,0,0:0:0:0:
239,111,77135,2,0,B|289:123|289:123|339:111,1,101.999996887207,8|0,0:0|0:0,0:0:0:0:
419,299,77576,1,12,0:0:0:0:
251,264,77796,1,0,0:0:0:0:
365,136,78017,2,0,P|373:111|377:86,2,50.9999984436036,8|0|0,0:0|0:0|0:0,0:0:0:0:
301,335,78459,6,0,B|255:364|209:340|209:340|136:296|136:376|170:360,1,203.999993774414,12|8,0:0|0:0,0:0:0:0:
251,264,79120,1,0,0:0:0:0:
83,229,79341,1,8,0:0:0:0:
198,102,79561,1,0,0:0:0:0:
279,292,79782,1,8,0:0:0:0:
394,165,80003,1,0,0:0:0:0:
446,328,80223,5,4,0:0:0:0:
394,165,80444,2,0,P|385:141|381:116,2,50.9999984436036,0|0|8,0:0|0:0|0:0,0:0:0:0:
279,292,80885,2,0,P|287:267|291:242,2,50.9999984436036,0|0|12,0:0|0:0|0:0,0:0:0:0:
142,191,81326,1,0,0:0:0:0:
90,354,81547,2,0,P|65:362|40:366,2,50.9999984436036,8|0|0,0:0|0:0|0:0,0:0:0:0:
193,120,81988,6,0,B|147:91|101:115|101:115|28:159|28:79|62:95,1,203.999993774414,12|8,0:0|0:0,0:0:0:0:
142,191,82650,1,0,0:0:0:0:
244,49,82870,1,8,0:0:0:0:
315,208,83091,1,8,0:0:0:0:
142,191,83311,1,8,0:3:0:0:
136,216,83422,1,4,0:3:0:0:
129,241,83532,1,4,0:3:0:0:
315,208,83753,6,0,P|408:247|316:286,1,255,4|0,0:0|0:0,0:0:0:0:
195,96,84635,2,0,P|103:137|196:176,1,255,4|0,0:0|0:0,0:0:0:0:
315,208,85517,5,0,0:0:0:0:
228,294,85738,1,4,0:3:0:0:
228,294,85848,1,0,0:0:0:0:
228,294,85959,2,0,P|231:333|253:372,1,85,4|0,0:3|0:0,0:0:0:0:
333,372,86289,1,8,0:0:0:0:
333,372,86400,6,0,P|352:365|374:345,1,42.5,8|8,0:0|0:0,0:0:0:0:
425,299,86620,2,0,P|412:283|402:255,1,42.5,4|4,0:3|0:3,0:0:0:0:
456,206,86841,1,4,0:3:0:0:
452,163,86951,1,4,0:3:0:0:
442,122,87061,1,4,0:3:0:0:
424,83,87171,1,4,0:3:0:0:
400,48,87282,1,0,0:0:0:0:
256,192,87503,12,0,89047,0:0:0:0:
