osu file format v14

[General]
AudioFilename: audio.mp3
AudioLeadIn: 0
PreviewTime: 52760
Countdown: 0
SampleSet: Soft
StackLeniency: 0.7
Mode: 0
LetterboxInBreaks: 0
EpilepsyWarning: 1
WidescreenStoryboard: 1

[Editor]
DistanceSpacing: 1
BeatDivisor: 4
GridSize: 8
TimelineZoom: 1

[Metadata]
Title:Baby Romantica (TV Size)
TitleUnicode:ベイビーロマンチカ (TV Size)
Artist:SCRIPT
ArtistUnicode:SCRIPT
Creator:Yahuri
Version:Normal
Source:純情ロマンチカ
Tags:nao tomori naotoshi junjo junjou romantica bl yaoi gay takahashi misaki usagi usami akihiko shungiku nakamura anime ed ending
BeatmapID:1477829
BeatmapSetID:670518

[Difficulty]
HPDrainRate:4
CircleSize:3
OverallDifficulty:4
ApproachRate:5
SliderMultiplier:1.1
SliderTickRate:1

[Events]
//Background and Video events
0,0,"JUNJO.jpg",0,0
//Break Periods
//Storyboard Layer 0 (Background)
//Storyboard Layer 1 (Fail)
//Storyboard Layer 2 (Pass)
//Storyboard Layer 3 (Foreground)
Sprite,Foreground,Centre,"Lyrics\Yahuri.jpg",320,340 S,0,4341,,0.6 P,0,4341,,A F,0,4341,4782,0,1 MX,0,4341,7870,320 MY,0,4341,7870,240 F,0,7429,7870,1,0
Sprite,Foreground,Centre,"SB\white.jpg",320,240 S,0,39635,,15 F,0,39635,40076,0.4,0
Sprite,Foreground,Centre,"SB\white.jpg",320,240 S,0,41179,,15 F,0,41179,41620,0.4,0
Sprite,Foreground,Centre,"SB\white.jpg",320,240 S,0,43164,,15 F,0,43164,43606,0.4,0
Sprite,Foreground,Centre,"SB\white.jpg",320,240 S,0,44709,,15 F,0,44709,45150,0.4,0
Sprite,Foreground,Centre,"SB\white.jpg",320,240 S,0,46694,,15 F,0,46694,47135,0.4,0
Sprite,Foreground,Centre,"SB\white.jpg",320,240 S,0,48238,,15 F,0,48238,48679,0.4,0
Sprite,Foreground,Centre,"SB\white.jpg",320,240 S,0,51547,,15 F,0,51547,52209,0.4,0
Sprite,Foreground,Centre,"SB\white.jpg",320,240 S,0,53753,,15 F,0,53753,54194,1,0
Sprite,Foreground,Centre,"SB\white.jpg",320,240 S,0,57282,,15 F,0,57282,57723,1,0
Sprite,Foreground,Centre,"SB\white.jpg",320,240 S,0,64341,,15 F,0,64341,64782,1,0
Sprite,Foreground,Centre,"SB\white.jpg",320,240 S,0,65885,,15 F,0,65885,66326,1,0
Sprite,Foreground,Centre,"SB\white.jpg",320,240 S,0,66767,,15 F,0,66767,67209,1,0
Sprite,Foreground,Centre,"SB\white.jpg",320,240 S,0,67870,,15 F,0,67870,68311,1,0
Sprite,Foreground,Centre,"SB\white.jpg",320,240 S,0,71400,,15 F,0,71400,71841,1,0
Sprite,Foreground,Centre,"SB\white.jpg",320,240 S,0,72944,,15 F,0,72944,73385,1,0
Sprite,Foreground,Centre,"SB\white.jpg",320,240 S,0,73385,,15 F,0,73385,73826,1,0
Sprite,Foreground,Centre,"SB\white.jpg",320,240 S,0,73826,,15 F,0,73826,74267,1,0
Sprite,Foreground,Centre,"SB\white.jpg",320,240 S,0,74267,,15 F,0,74267,74709,1,0
Sprite,Foreground,Centre,"SB\white.jpg",320,240 S,0,74929,,15 F,0,74929,75370,1,0
Sprite,Foreground,Centre,"SB\white.jpg",320,240 S,0,76694,,15 F,0,76694,77135,1,0
Sprite,Foreground,Centre,"SB\white.jpg",320,240 S,0,77576,,15 F,0,77576,78017,1,0
Sprite,Foreground,Centre,"SB\white.jpg",320,240 S,0,78459,,15 F,0,78459,78900,1,0
Sprite,Foreground,Centre,"SB\white.jpg",320,240 S,0,80223,,15 F,0,80223,80664,1,0
Sprite,Foreground,Centre,"SB\white.jpg",320,240 S,0,81106,,15 F,0,81106,81547,1,0
Sprite,Foreground,Centre,"SB\white.jpg",320,240 S,0,81988,,15 F,0,81988,82429,1,0
Sprite,Foreground,Centre,"SB\white.jpg",320,240 S,0,83753,,15 F,0,83753,84194,1,0
Sprite,Foreground,Centre,"SB\white.jpg",320,240 S,0,84635,,15 F,0,84635,85076,1,0
//Storyboard Sound Samples

[TimingPoints]
812,441.176470588235,4,2,1,70,1,0
11400,-100,4,2,2,50,0,0
53753,-100,4,2,1,80,0,1
67760,-100,4,2,1,80,0,0
67870,-100,4,2,1,80,0,1
83753,-100,4,2,1,70,0,0
86400,-100,4,2,1,60,0,0
86841,-100,4,2,1,50,0,0
87282,-100,4,2,1,40,0,0
87723,-100,4,2,1,30,0,0
88164,-100,4,2,1,20,0,0
88606,-100,4,2,1,10,0,0
89047,-100,4,2,1,5,0,0

[Colours]
Combo1 : 171,104,193
Combo2 : 35,177,35
Combo3 : 141,36,176
Combo4 : 104,193,104
SliderBorder : 255,255,255

[HitObjects]
57,320,812,6,0,P|108:340|174:335,1,110,4|8,0:0|0:0,0:0:0:0:
266,303,1694,2,0,L|253:371,2,55,0|0|8,0:0|0:0|0:0,0:0:0:0:
232,258,2356,2,0,L|211:140,1,110
246,106,3017,2,0,L|314:93,1,55,8|0,0:0|0:0,0:0:0:0:
406,127,3679,2,0,L|460:117,2,55,0|8|0,0:0|0:0|0:0,0:0:0:0:
372,170,4341,6,0,P|351:221|356:287,1,110,4|8,0:0|0:0,0:0:0:0:
442,340,5223,2,0,L|510:352,2,55,0|0|8,0:0|0:0|0:0,0:0:0:0:
393,365,5885,2,0,L|275:344,1,110
241,311,6547,2,0,L|172:323,1,55,8|0,0:0|0:0,0:0:0:0:
111,239,7209,2,0,L|179:226,1,55,0|8,0:0|0:0,0:0:0:0:
258,169,7870,6,0,P|237:118|242:52,1,110,4|8,0:0|0:0,0:0:0:0:
135,26,8753,2,0,L|67:14,2,55,0|0|8,0:0|0:0|0:0,0:0:0:0:
152,78,9414,2,0,L|131:196,1,110
145,239,10076,1,8,0:0:0:0:
157,291,10297,2,0,B|207:311|207:311|262:309,1,110
314,290,10959,2,0,L|383:302,1,55,8|0,0:0|0:0,0:0:0:0:
419,279,11400,6,0,P|417:225|435:155,1,110,4|8,0:0|0:0,0:0:0:0:
468,68,12282,2,0,L|474:0,2,55,0|0|8,0:0|0:0|0:0,0:0:0:0:
415,85,12944,2,0,L|295:74,1,110
243,166,13826,1,0,0:0:0:0:
315,249,14267,2,0,L|369:254,2,55,0|8|0,0:0|0:0|0:0,0:0:0:0:
262,264,14929,6,0,P|264:318|246:388,2,110,0|8|0,0:0|0:0|0:0,0:0:0:0:
219,228,16032,2,0,L|99:217,1,110
78,172,16694,1,0,0:0:0:0:
102,65,17135,2,0,B|185:73|185:73|223:59,1,110,8|0,0:0|0:0,0:0:0:0:
248,24,17797,2,0,L|302:19,1,55,0|8,0:0|0:0,0:0:0:0:
406,56,18459,6,0,P|404:110|422:180,1,110,0|8,0:0|0:0,0:0:0:0:
451,206,19120,1,0,0:0:0:0:
416,310,19561,2,0,L|348:304,1,55,0|8,0:0|0:0,0:0:0:0:
317,271,20003,2,0,L|197:282,1,110
166,317,20664,1,8,0:0:0:0:
64,274,21106,2,0,B|56:191|56:191|70:153,1,110,0|8,0:0|0:0,0:0:0:0:
108,131,21767,6,0,B|191:116|187:168|269:144,2,165,0|8|0,0:0|0:0|0:0,0:0:0:0:
63,98,23311,2,0,L|69:30,1,55,8|0,0:0|0:0,0:0:0:0:
174,16,23973,2,0,L|242:22,1,55,0|8,0:0|0:0,0:0:0:0:
338,21,24635,2,0,L|406:15,2,55,0|0|8,0:0|0:0|0:0,0:0:0:0:
308,67,25297,1,8,0:0:0:0:
324,119,25517,6,0,P|322:173|340:243,1,110,4|8,0:0|0:0,0:0:0:0:
431,278,26400,2,0,L|437:210,2,55,0|0|8,0:0|0:0|0:0,0:0:0:0:
398,322,27061,2,0,P|344:320|274:338,1,110
240,357,27723,1,8,0:0:0:0:
147,297,28164,2,0,B|139:214|139:214|153:176,1,110,0|8,0:0|0:0,0:0:0:0:
179,143,28826,6,0,B|231:126|231:126|339:143,1,165,0|8,0:0|0:0,0:0:0:0:
405,232,29929,2,0,L|473:226,2,55,0|0|8,0:0|0:0|0:0,0:0:0:0:
382,282,30591,2,0,L|314:288,1,55
224,248,31253,2,0,L|218:180,2,55,8|0|0,0:0|0:0|0:0,0:0:0:0:
194,294,31914,2,0,L|200:362,1,55,0|8,0:0|0:0,0:0:0:0:
89,332,32576,6,0,P|77:279|83:207,1,110,0|8,0:0|0:0,0:0:0:0:
117,120,33459,2,0,L|49:114,2,55,0|0|8,0:0|0:0|0:0,0:0:0:0:
166,144,34120,2,0,L|234:138,1,55
274,156,34561,1,0,0:0:0:0:
330,61,35003,1,0,0:0:0:0:
363,17,35223,2,0,P|416:5|488:11,1,110,0|8,0:0|0:0,0:0:0:0:
500,55,35885,5,0,0:0:0:0:
512,109,36106,2,0,L|508:164,1,55
469,203,36547,2,0,L|414:199,1,55,8|0,0:0|0:0,0:0:0:0:
311,158,37209,2,0,L|256:154,1,55,0|8,0:0|0:0,0:0:0:0:
211,185,37650,2,0,P|199:238|205:310,1,110,4|0,0:0|0:0,0:0:0:0:
240,332,38311,2,0,L|295:336,1,55,8|0,0:0|0:0,0:0:0:0:
345,313,38753,1,8,0:0:0:0:
450,344,39194,1,8,0:0:0:0:
425,236,39635,6,0,P|413:183|419:111,1,110,4|8,0:0|0:0,0:0:0:0:
432,75,40297,2,0,L|322:85,1,110
274,57,40959,1,8,0:0:0:0:
274,57,41179,2,0,P|221:69|149:63,1,110,4|0,0:0|0:0,0:0:0:0:
117,41,41841,1,8,0:0:0:0:
26,103,42282,2,0,P|14:156|20:228,1,110,0|8,0:0|0:0,0:0:0:0:
64,310,43164,6,0,L|174:300,1,110,4|8,0:0|0:0,0:0:0:0:
217,333,43826,2,0,P|270:321|342:327,1,110
377,339,44488,1,8,0:0:0:0:
377,339,44709,2,0,P|365:286|371:214,1,110,4|0,0:0|0:0,0:0:0:0:
400,187,45370,1,8,0:0:0:0:
364,82,45811,2,0,L|254:72,1,110,0|8,0:0|0:0,0:0:0:0:
149,105,46694,6,0,P|96:117|24:111,1,110,4|8,0:0|0:0,0:0:0:0:
16,164,47356,2,0,P|28:217|22:289,1,110
75,297,48017,1,8,0:0:0:0:
75,297,48238,2,0,P|128:285|200:291,1,110,4|0,0:0|0:0,0:0:0:0:
226,321,48900,1,8,0:0:0:0:
330,287,49341,1,0,0:0:0:0:
434,320,49782,1,8,0:0:0:0:
475,218,50223,6,0,B|489:164|489:164|474:108,1,110,12|0,0:3|0:0,0:0:0:0:
435,73,50885,2,0,B|381:59|381:59|325:74,1,110,12|0,0:3|0:0,0:0:0:0:
290,112,51547,2,0,B|276:166|276:166|291:222,1,110,12|0,0:0|0:0,0:0:0:0:
329,257,52209,2,0,L|397:251,2,55,12|12|12,0:3|0:3|0:3,0:0:0:0:
311,308,52870,1,12,0:3:0:0:
214,256,53311,1,8,0:0:0:0:
116,204,53753,6,0,B|102:230|103:256|103:256|82:272|69:300,2,110,4|8|0,0:0|0:0|0:0,0:0:0:0:
212,151,55076,1,8,0:0:0:0:
256,183,55297,2,0,L|376:150,1,110
380,102,55959,1,8,0:0:0:0:
336,70,56180,2,0,L|215:102,1,110
212,151,56841,1,8,0:0:0:0:
115,98,57282,6,8,B|92:84|63:80|63:80|40:98|26:121,2,110,4|8|0,0:0|0:0|0:0,0:0:0:0:
152,201,58605,1,8,0:0:0:0:
120,245,58826,2,0,L|152:365,1,110
201,369,59488,1,8,0:0:0:0:
253,351,59709,2,0,L|285:230,1,110
334,227,60370,1,8,0:0:0:0:
282,130,60811,6,0,B|228:117|228:117|176:130,1,110,0|8,0:0|0:0,0:0:0:0:
142,174,61473,2,0,P|129:226|142:279,1,110
186,312,62135,2,0,L|248:312,1,55,8|0,0:0|0:0,0:0:0:0:
344,275,62797,2,0,L|406:275,1,55,0|8,0:0|0:0,0:0:0:0:
445,245,63238,2,0,L|477:124,1,110
440,94,63900,2,0,L|378:94,1,55,8|0,0:0|0:0,0:0:0:0:
340,62,64341,6,0,B|313:62|287:75|287:75|234:62,1,110,4|8,0:0|0:0,0:0:0:0:
179,70,65003,2,0,B|125:56|125:56|69:71,1,110
62,180,65885,2,0,B|96:260|39:260|64:341,1,165,4|8,0:0|0:0,0:0:0:0:
112,366,66767,1,4,0:0:0:0:
161,341,66988,2,0,P|213:328|266:341,1,110,0|8,0:0|0:0,0:0:0:0:
369,302,67870,6,0,B|396:302|421:288|421:288|450:288|474:301,2,110,4|8|0,0:0|0:0|0:0,0:0:0:0:
273,248,69193,1,8,0:0:0:0:
227,278,69414,2,0,P|173:277|125:250,1,110
105,199,70076,1,8,0:0:0:0:
151,169,70297,2,0,P|204:169|252:196,1,110
273,248,70958,1,8,0:0:0:0:
356,174,71399,6,0,P|410:179|455:210,1,110,4|8,0:0|0:0,0:0:0:0:
372,283,72282,2,0,L|310:283,1,55
273,248,72722,1,8,0:0:0:0:
229,213,72944,1,4,0:0:0:0:
119,211,73385,2,0,L|139:137,1,55,4|8,0:0|0:0,0:0:0:0:
126,103,73826,1,4,0:0:0:0:
210,32,74267,2,0,L|283:52,1,55,4|8,0:0|0:0,0:0:0:0:
335,130,74929,6,0,B|365:129|388:141|388:141|411:130|442:130,1,110,12|8,0:0|0:0,0:0:0:0:
470,177,75591,1,0,0:0:0:0:
441,224,75811,2,0,P|389:237|336:224,1,110,8|8,0:0|0:0,0:0:0:0:
306,177,76473,1,0,0:0:0:0:
276,130,76694,2,0,P|224:117|171:130,1,110,12|8,0:0|0:0,0:0:0:0:
118,227,77576,2,0,P|170:240|223:227,1,110,12|8,0:0|0:0,0:0:0:0:
334,220,78459,6,8,B|321:243|314:271|314:271|321:299|334:322,1,110,12|8,0:0|0:0,0:0:0:0:
388,334,79120,1,0,0:0:0:0:
442,322,79342,2,0,P|455:270|442:217,1,110,8|8,0:0|0:0,0:0:0:0:
407,173,80004,1,0,0:0:0:0:
363,139,80223,2,0,P|311:152|258:139,1,110,12|8,0:0|0:0,0:0:0:0:
205,42,81106,2,0,P|257:29|310:42,1,110,12|8,0:0|0:0,0:0:0:0:
257,139,81988,6,0,B|204:152|204:152|178:138|151:138,1,110,12|8,0:0|0:0,0:0:0:0:
120,182,82650,2,0,P|116:212|128:261,1,55,0|8,0:0|0:0,0:0:0:0:
86,281,83091,2,0,P|56:277|7:289,2,55,8|8|4,0:0|0:0|0:3,0:0:0:0:
120,324,83753,5,4,0:0:0:0:
336,364,84635,1,4,0:0:0:0:
341,145,85517,2,0,P|368:142|395:146,2,55,0|4|4,0:0|0:3|0:3,0:0:0:0:
256,216,86400,2,0,B|229:216|203:202|203:202|175:202|150:215,2,110,8|4|0,0:0|0:3|0:0,0:0:0:0:
256,192,87503,12,0,89047,0:0:0:0:
