osu file format v14

[General]
AudioFilename: audio.mp3
AudioLeadIn: 0
PreviewTime: 52760
Countdown: 0
SampleSet: Soft
StackLeniency: 0.7
Mode: 0
LetterboxInBreaks: 0
EpilepsyWarning: 1
WidescreenStoryboard: 1

[Editor]
Bookmarks: 25511,39629
DistanceSpacing: 0.96
BeatDivisor: 4
GridSize: 8
TimelineZoom: 1

[Metadata]
Title:Baby Romantica (TV Size)
TitleUnicode:ベイビーロマンチカ (TV Size)
Artist:SCRIPT
ArtistUnicode:SCRIPT
Creator:Yahuri
Version:Nao's Easy
Source:純情ロマンチカ
Tags:nao tomori naotoshi junjo junjou romantica bl yaoi gay takahashi misaki usagi usami akihiko shungiku nakamura anime ed ending
BeatmapID:1490281
BeatmapSetID:670518

[Difficulty]
HPDrainRate:2
CircleSize:2.7
OverallDifficulty:2
ApproachRate:4
SliderMultiplier:0.9
SliderTickRate:1

[Events]
//Background and Video events
0,0,"JUNJO.jpg",0,0
//Break Periods
//Storyboard Layer 0 (Background)
//Storyboard Layer 1 (Fail)
//Storyboard Layer 2 (Pass)
//Storyboard Layer 3 (Foreground)
Sprite,Foreground,Centre,"Lyrics\Nao.jpg",320,340 S,0,4341,,0.6 P,0,4341,,A F,0,4341,4782,0,1 MX,0,4341,7870,320 MY,0,4341,7870,240 F,0,7429,7870,1,0
Sprite,Foreground,Centre,"SB\white.jpg",320,240 S,0,53753,,15 F,0,53753,54194,1,0
Sprite,Foreground,Centre,"SB\white.jpg",320,240 S,0,60811,,15 F,0,60811,61253,1,0
Sprite,Foreground,Centre,"SB\white.jpg",320,240 S,0,64341,,15 F,0,64341,64782,1,0
Sprite,Foreground,Centre,"SB\white.jpg",320,240 S,0,65885,,15 F,0,65885,66326,1,0
Sprite,Foreground,Centre,"SB\white.jpg",320,240 S,0,66767,,15 F,0,66767,67209,1,0
Sprite,Foreground,Centre,"SB\white.jpg",320,240 S,0,67870,,15 F,0,67870,68311,1,0
Sprite,Foreground,Centre,"SB\white.jpg",320,240 S,0,72944,,15 F,0,72944,73385,1,0
Sprite,Foreground,Centre,"SB\white.jpg",320,240 S,0,73385,,15 F,0,73385,73826,1,0
Sprite,Foreground,Centre,"SB\white.jpg",320,240 S,0,73826,,15 F,0,73826,74267,1,0
Sprite,Foreground,Centre,"SB\white.jpg",320,240 S,0,74929,,15 F,0,74929,75370,1,0
Sprite,Foreground,Centre,"SB\white.jpg",320,240 S,0,76694,,15 F,0,76694,77135,1,0
Sprite,Foreground,Centre,"SB\white.jpg",320,240 S,0,78459,,15 F,0,78459,78900,1,0
Sprite,Foreground,Centre,"SB\white.jpg",320,240 S,0,80223,,15 F,0,80223,80664,1,0
Sprite,Foreground,Centre,"SB\white.jpg",320,240 S,0,81988,,15 F,0,81988,82429,1,0
Sprite,Foreground,Centre,"SB\white.jpg",320,240 S,0,82870,,15 F,0,82870,83311,1,0
Sprite,Foreground,Centre,"SB\white.jpg",320,240 S,0,83753,,15 F,0,83753,84194,1,0
Sprite,Foreground,Centre,"SB\white.jpg",320,240 S,0,84635,,15 F,0,84635,85076,1,0
//Storyboard Sound Samples

[TimingPoints]
812,441.176470588235,4,2,0,70,1,0
11400,-100,4,2,0,50,0,0
53753,-90.9090909090909,4,2,0,80,0,1
67760,-100,4,2,0,80,0,0
67870,-90.9090909090909,4,2,0,80,0,1
83753,-100,4,2,0,70,0,0
86400,-100,4,2,0,60,0,0
86841,-100,4,2,0,50,0,0
87282,-100,4,2,0,25,0,0

[Colours]
Combo1 : 171,104,193
Combo2 : 35,177,35
Combo3 : 141,36,176
Combo4 : 104,193,104
SliderBorder : 255,255,255

[HitObjects]
233,159,812,5,6,0:0:0:0:
302,101,1253,2,0,B|392:107|392:107|432:142,1,135,10|2,0:0|0:0,0:0:0:0:
495,192,2356,2,0,P|511:230|501:288,2,90,2|8|0,0:0|0:0|0:0,0:0:0:0:
425,136,3679,2,0,L|378:159,1,45,2|8,0:0|0:0,0:0:0:0:
306,200,4341,5,6,0:0:0:0:
224,161,4782,2,0,B|178:178|149:211|149:211|95:215,1,135,8|2,0:0|0:0,0:0:0:0:
24,173,5885,2,0,P|9:125|21:81,2,90,2|8|0,0:0|0:0|0:0,0:0:0:0:
105,214,7209,1,2,0:0:0:0:
212,294,7870,6,0,P|239:253|286:229,1,90,6|8,0:0|0:0,0:0:0:0:
362,245,8753,2,0,L|422:270,1,45,0|2,0:0|0:0,0:0:0:0:
490,238,9414,2,0,P|481:193|501:145,2,90,2|8|0,0:0|0:0|0:0,0:0:0:0:
446,316,10738,2,0,L|388:323,1,45,2|8,0:0|0:0,0:0:0:0:
313,300,11400,6,0,P|247:329|224:326,1,90,6|8,0:0|0:0,0:0:0:0:
171,265,12282,2,0,L|178:213,1,45,2|0,0:0|0:0,0:0:0:0:
105,172,12944,2,0,L|51:255,2,90,2|0|2,0:0|0:0|0:0,0:0:0:0:
109,85,14267,1,8,0:0:0:0:
199,92,14709,6,0,B|238:114|238:114|281:94|337:106,2,135,6|8|2,0:0|0:0|0:0,0:0:0:0:
118,60,16473,2,0,B|79:38|79:38|40:73|45:129,1,135,2|8,0:0|0:0,0:0:0:0:
75,205,17576,1,2,0:0:0:0:
5,267,18017,2,0,P|47:294|106:291,1,90,8|2,0:0|0:0,0:0:0:0:
164,251,18900,6,0,B|207:240|207:240|250:280|291:284,1,135,10|0,0:0|0:0,0:0:0:0:
374,270,20003,2,0,P|412:212|413:181,1,90,10|2,0:0|0:0,0:0:0:0:
393,106,20885,2,0,B|356:80|356:80|310:94|260:75,1,135,2|8,0:0|0:0,0:0:0:0:
183,46,21988,6,0,P|154:90|153:144,2,90,6|8|0,0:0|0:0|0:0,0:0:0:0:
268,78,23311,1,8,0:0:0:0:
347,35,23753,2,0,B|377:69|377:69|417:78|417:78|431:127|480:163,1,180,6|8,0:0|0:0,0:0:0:0:
434,237,25076,1,8,0:0:0:0:
347,211,25517,5,6,0:0:0:0:
285,276,25959,2,0,B|239:303|199:296|199:296|168:248,1,135,10|0,0:0|0:0,0:0:0:0:
125,183,27061,2,0,P|78:172|27:187,1,90,10|2,0:0|0:0,0:0:0:0:
2,264,27944,2,0,L|9:324,2,45,2|8|0,0:0|0:0|0:0,0:0:0:0:
38,181,28826,6,0,B|57:142|57:142|104:142|159:104,1,135,2|8,0:0|0:0,0:0:0:0:
209,53,29929,1,2,0:0:0:0:
275,113,30370,1,8,0:0:0:0:
334,45,30811,2,0,B|378:56|378:56|397:100,1,90,6|8,0:0|0:0,0:0:0:0:
348,173,31694,2,0,P|331:246|334:275,1,90,6|8,0:0|0:0,0:0:0:0:
397,321,32576,5,6,0:0:0:0:
458,255,33017,2,0,P|456:210|441:167,2,90,10|2|8,0:0|0:0|0:0,0:0:0:0:
397,321,34341,2,0,B|357:339|357:339|299:328,1,90,2|8,0:0|0:0,0:0:0:0:
226,358,35223,1,2,0:0:0:0:
172,285,35664,1,8,0:0:0:0:
240,226,36106,5,6,0:0:0:0:
318,269,36547,2,0,P|365:260|370:174,1,135,10|2,0:0|0:0,0:0:0:0:
298,141,37650,2,0,B|263:166|217:179|217:179|173:140,1,135,6|8,0:0|0:0,0:0:0:0:
107,100,38753,1,8,0:0:0:0:
19,121,39194,1,8,0:0:0:0:
32,209,39635,6,0,P|71:230|167:211,1,135,6|2,0:0|0:0,0:0:0:0:
232,166,40738,1,2,0:0:0:0:
320,179,41179,2,0,P|354:203|374:249,1,90,10|0,0:0|0:0,0:0:0:0:
316,313,42061,1,2,0:0:0:0:
316,313,42282,2,0,L|212:311,1,90,2|8,0:0|0:0,0:0:0:0:
148,357,43164,5,2,0:0:0:0:
91,287,43606,1,10,0:0:0:0:
91,287,43826,2,0,L|97:177,1,90,2|2,0:0|0:0,0:0:0:0:
73,109,44709,1,8,0:0:0:0:
147,58,45150,2,0,B|199:54|233:79|233:79|276:66,1,135,2|2,0:0|0:0,0:0:0:0:
343,9,46253,1,8,0:0:0:0:
405,73,46694,5,6,0:0:0:0:
347,141,47135,2,0,B|331:177|331:177|344:227|403:239,1,135,10|2,0:0|0:0,0:0:0:0:
485,257,48238,2,0,B|495:311|450:338|450:338|410:332,1,135,6|8,0:0|0:0,0:0:0:0:
327,368,49341,1,2,0:0:0:0:
267,300,49782,1,8,0:0:0:0:
191,348,50223,6,0,L|144:201,1,135,6|2,0:0|0:0,0:0:0:0:
37,144,51547,2,0,L|84:-3,2,135,14|4|2,0:0|0:3|0:2,0:0:0:0:
70,227,53311,1,2,0:0:0:0:
160,222,53753,6,0,P|196:207|271:221,1,99.0000030212403,6|8,0:0|0:0,0:0:0:0:
329,267,54635,1,2,0:0:0:0:
409,219,55076,1,8,0:0:0:0:
409,219,55297,2,0,P|416:176|388:123,1,99.0000030212403,2|2,0:0|0:0,0:0:0:0:
303,100,56179,1,8,0:0:0:0:
229,166,56620,2,0,L|174:168,1,49.5000015106202,2|8,0:0|0:0,0:0:0:0:
93,120,57282,6,0,P|79:56|102:11,1,99.0000030212403,2|8,0:0|0:0,0:0:0:0:
178,70,58164,1,2,0:0:0:0:
261,34,58606,1,8,0:0:0:0:
261,34,58826,2,0,P|318:44|372:38,1,99.0000030212403,2|2,0:0|0:0,0:0:0:0:
448,83,59709,1,8,0:0:0:0:
388,162,60150,2,0,L|386:224,1,49.5000015106202,2|8,0:0|0:0,0:0:0:0:
445,290,60811,5,6,0:0:0:0:
366,340,61253,1,8,0:0:0:0:
366,340,61473,2,0,B|322:344|270:322|270:322,1,99.0000030212403,2|2,0:0|0:0,0:0:0:0:
184,363,62356,1,8,0:0:0:0:
98,309,62797,2,0,P|71:253|66:197,1,99.0000030212403,2|8,0:0|0:0,0:0:0:0:
132,144,63679,2,0,L|190:143,1,49.5000015106202,2|8,0:0|0:0,0:0:0:0:
275,178,64341,6,0,B|329:203|372:181|372:181|374:125,1,148.50000453186,6|2,0:0|0:0,0:0:0:0:
322,55,65444,1,8,0:0:0:0:
238,96,65885,2,0,L|131:108,1,99.0000030212403,6|0,0:0|0:0,0:0:0:0:
77,175,66767,1,6,0:0:0:0:
138,244,67209,2,0,L|142:296,1,49.5000015106202,2|8,0:0|0:0,0:0:0:0:
221,340,67870,6,0,P|258:319|325:323,1,99.0000030212403,6|8,0:0|0:0,0:0:0:0:
397,357,68753,1,2,0:0:0:0:
397,357,68973,2,0,P|417:306|402:249,1,99.0000030212403,2|8,0:0|0:0,0:0:0:0:
349,193,69856,1,2,0:0:0:0:
282,258,70297,1,8,0:0:0:0:
211,195,70738,2,0,L|147:199,1,49.5000015106202,2|8,0:0|0:0,0:0:0:0:
76,162,71400,6,0,P|60:106|76:46,1,99.0000030212403,2|8,0:0|0:0,0:0:0:0:
145,17,72282,1,2,0:0:0:0:
205,87,72723,1,8,0:0:0:0:
205,87,72944,2,0,P|256:76|316:48,1,99.0000030212403,6|6,0:0|0:0,0:0:0:0:
397,50,73826,1,6,0:0:0:0:
474,111,74267,1,8,0:0:0:0:
400,178,74709,1,2,0:0:0:0:
400,178,74929,6,0,P|338:175|289:156,2,99.0000030212403,6|8|2,0:0|0:0|0:0,0:0:0:0:
479,230,76253,1,8,0:0:0:0:
406,290,76694,2,0,P|344:293|295:312,1,99.0000030212403,6|8,0:0|0:0,0:0:0:0:
217,289,77576,2,0,P|155:286|106:267,1,99.0000030212403,2|8,0:0|0:0,0:0:0:0:
123,180,78459,6,0,P|123:126|104:74,2,99.0000030212403,6|8|2,0:0|0:0|0:0,0:0:0:0:
67,254,79782,1,8,0:0:0:0:
122,328,80223,2,0,P|164:338|239:325,1,99.0000030212403,6|8,0:0|0:0,0:0:0:0:
295,278,81106,2,0,P|354:269|401:278,1,99.0000030212403,2|8,0:0|0:0,0:0:0:0:
467,330,81988,5,6,0:0:0:0:
500,243,82429,1,8,0:0:0:0:
449,165,82870,2,0,L|450:115,2,49.5000015106202,6|2|8,0:0|0:0|0:0,0:0:0:0:
370,229,83753,6,0,P|286:219|193:268,1,180,6|6,0:0|0:0,0:0:0:0:
256,192,84856,12,4,87282,2:2:0:0:
