osu file format v14

[General]
AudioFilename: audio.mp3
AudioLeadIn: 0
PreviewTime: 60969
Countdown: 1
SampleSet: None
StackLeniency: 0.7
Mode: 2
LetterboxInBreaks: 0
WidescreenStoryboard: 1

[Editor]
DistanceSpacing: 2.5
BeatDivisor: 4
GridSize: 16
TimelineZoom: 1.52

[Metadata]
Title:Reason Living
TitleUnicode:Reason Living
Artist:SCREEN mode
ArtistUnicode:SCREEN mode
Creator:TheLonePiggy
Version:Stray Dogs
Source:Bungou Stray Dogs
Tags:bungou stray dogs, atsushi, dazai, stray dogs
BeatmapID:1124009
BeatmapSetID:524361

[Difficulty]
HPDrainRate:6.2
CircleSize:4.2
OverallDifficulty:8
ApproachRate:9.5
SliderMultiplier:1.3
SliderTickRate:1

[Events]
//Background and Video events
0,0,"bungou-stray-dogs-osamu-danzai-doppo-kunikida-ranpo-edogawa-male.jpg",0,0
//Break Periods
//Storyboard Layer 0 (Background)
//Storyboard Layer 1 (Fail)
//Storyboard Layer 2 (Pass)
//Storyboard Layer 3 (Foreground)
//Storyboard Sound Samples

[TimingPoints]
-480,327.868852459016,4,2,0,70,1,0
157,368.098159509202,4,2,0,70,1,0
525,-100,4,2,0,50,0,0
6046,327.868852459016,4,3,0,64,1,0
8668,-200,4,3,0,80,0,0
10636,-50,4,3,0,80,0,0
11291,-100,4,3,0,50,0,0
16209,-125,4,3,0,58,0,0
19160,-125,4,3,0,54,0,0
21783,-100,4,3,0,72,0,0
24263,-200,4,3,0,69,0,0
29707,-125,4,3,0,70,0,0
32904,-50,4,3,0,75,0,0
33429,327.868852459016,4,3,0,76,1,0
37527,327.868852459016,4,3,0,69,1,0
39822,-90.9090909090909,4,3,0,72,0,0
42772,-111.111111111111,4,3,0,74,0,0
48018,-100,4,3,0,66,0,0
50653,-125,4,3,0,66,0,0
52608,-50,4,3,0,69,0,0
53264,-100,4,3,0,69,0,0
55887,-125,4,3,0,68,0,0
57854,-50,4,3,0,75,0,0
58510,-100,4,3,0,74,0,0
61133,-83.3333333333333,4,3,0,70,0,1
79500,-100,4,3,0,74,0,0
83282,368.098159509202,4,3,0,74,1,0
83282,-90.9090909090909,4,3,0,72,0,0

[HitObjects]
192,192,11,5,0,0:0:0:0:
256,144,93,1,0,0:0:0:0:
336,176,175,1,2,0:0:0:0:
112,192,893,1,8,0:0:0:0:
32,32,1629,2,2,L|192:32,1,130
256,32,2365,2,4,L|256:192,1,130
480,32,3101,2,2,L|320:32,1,130
176,192,3837,1,8,0:0:0:0:
336,192,4574,1,4,0:0:0:0:
256,192,5954,12,12,7203,0:0:0:0:
144,288,7439,5,0,0:0:0:0:
224,288,7521,1,0,0:0:0:0:
304,288,7603,1,0,0:0:0:0:
384,288,7685,1,0,0:0:0:0:
464,288,7767,1,0,0:0:0:0:
384,288,7849,1,0,0:0:0:0:
304,288,7931,1,0,0:0:0:0:
224,288,8013,1,0,0:0:0:0:
144,288,8095,1,0,0:0:0:0:
64,288,8177,1,0,0:0:0:0:
144,288,8259,1,0,0:0:0:0:
224,288,8341,1,0,0:0:0:0:
304,288,8423,1,0,0:0:0:0:
384,288,8505,1,0,0:0:0:0:
304,288,8586,1,0,0:0:0:0:
96,96,8668,2,6,L|288:288,1,260
192,192,10472,5,8,0:0:0:0:
128,192,10554,1,4,0:0:0:0:
256,192,10636,2,10,L|400:176,1,130
256,32,11127,6,8,L|160:128,1,130
96,160,11455,2,8,L|64:224,1,65
256,224,11783,2,0,L|192:256,1,65
128,80,12111,1,0,0:0:0:0:
224,48,12275,1,8,0:0:0:0:
320,64,12439,6,0,L|384:96,1,65
288,192,12767,2,8,L|352:224,1,65
224,288,13095,2,0,L|288:320,1,65
160,208,13423,1,0,0:0:0:0:
32,128,13586,1,8,0:0:0:0:
160,64,13750,1,8,0:0:0:0:
224,128,13914,6,0,L|320:96,1,97.5
448,96,14242,1,0,0:0:0:0:
384,96,14324,1,8,0:0:0:0:
304,192,14406,1,0,0:0:0:0:
64,256,14734,6,8,L|96:224,1,32.5
256,256,14898,2,8,L|224:224,1,32.5
160,192,15062,2,4,L|160:160,1,32.5,12|4,0:0|0:0,0:0:0:0:
128,64,15226,2,12,L|192:64,1,65
272,64,15554,1,0,0:0:0:0:
336,96,15718,5,8,0:0:0:0:
368,128,15800,1,0,0:0:0:0:
384,176,15882,1,8,0:0:0:0:
368,224,15964,1,0,0:0:0:0:
320,256,16045,1,0,0:0:0:0:
272,272,16127,1,0,0:0:0:0:
224,272,16209,1,0,0:0:0:0:
144,240,16373,6,8,L|96:192,1,52
208,144,16701,1,8,0:0:0:0:
64,144,16865,1,0,0:0:0:0:
48,64,17029,2,8,L|112:48,1,52
112,288,17357,1,0,0:0:0:0:
272,256,17521,1,0,0:0:0:0:
256,48,17685,6,8,L|272:112,1,52
144,208,18095,1,4,0:0:0:0:
240,208,18177,1,4,0:0:0:0:
128,112,18341,1,8,0:0:0:0:
352,272,18668,1,0,0:0:0:0:
80,256,18996,6,8,L|144:256,1,52
128,160,19324,1,4,0:0:0:0:
128,160,19488,1,4,0:0:0:0:
432,192,19652,6,8,L|368:192,1,52
48,288,19980,1,4,0:0:0:0:
160,240,20144,1,4,0:0:0:0:
80,128,20308,6,8,L|144:128,1,52
0,208,20636,1,12,0:0:0:0:
80,208,20800,1,12,0:0:0:0:
160,207,20964,1,12,0:0:0:0:
288,304,21127,1,0,0:0:0:0:
208,48,21291,6,8,L|240:48,1,26
336,96,21455,2,8,L|288:144,1,52
272,192,21783,1,0,0:0:0:0:
209,159,21947,1,0,0:0:0:0:
144,128,22111,1,0,0:0:0:0:
272,112,22275,2,8,L|336:144,1,65
192,256,22603,1,8,0:0:0:0:
288,256,22767,1,4,0:0:0:0:
336,192,22931,2,8,L|256:208,1,65
128,208,23423,1,0,0:0:0:0:
144,128,23586,2,0,L|304:112,1,130
416,128,24242,1,6,0:0:0:0:
256,192,24324,12,6,26701,0:0:0:0:
80,80,29652,6,0,L|144:96,1,65
256,192,30144,1,0,0:0:0:0:
368,192,30308,2,0,L|416:160,1,52
384,112,30800,2,0,L|224:176,1,156
128,192,31783,1,0,0:0:0:0:
400,192,31947,1,0,0:0:0:0:
256,192,32111,1,0,0:0:0:0:
96,80,32439,1,0,0:0:0:0:
176,80,32603,1,0,0:0:0:0:
256,80,32767,1,0,0:0:0:0:
336,80,32931,1,0,0:0:0:0:
416,80,33095,1,0,0:0:0:0:
144,192,33429,1,2,0:0:0:0:
368,192,33756,1,2,0:0:0:0:
160,192,34084,1,2,0:0:0:0:
352,192,34412,1,2,0:0:0:0:
144,192,34740,1,4,0:0:0:0:
368,192,35068,1,4,0:0:0:0:
176,192,35396,1,4,0:0:0:0:
336,192,35724,1,4,0:0:0:0:
32,192,36051,1,0,0:0:0:0:
480,192,36379,1,0,0:0:0:0:
32,192,36707,1,0,0:0:0:0:
480,192,37035,1,0,0:0:0:0:
368,128,37363,5,8,0:0:0:0:
256,128,37445,1,0,0:0:0:0:
144,128,37527,1,8,0:0:0:0:
224,176,37854,2,0,L|288:144,1,65
272,128,38182,2,8,L|208:112,1,65
192,224,38510,1,0,0:0:0:0:
112,144,38674,2,8,L|256:144,1,130
304,144,39166,1,0,0:0:0:0:
416,176,39330,1,8,0:0:0:0:
304,240,39494,1,0,0:0:0:0:
128,96,39658,2,8,L|224:96,1,71.5000021820069
256,96,39986,1,0,0:0:0:0:
112,160,40313,1,8,0:0:0:0:
192,160,40477,1,0,0:0:0:0:
272,160,40641,1,0,0:0:0:0:
352,160,40805,2,8,L|416:208,1,71.5000021820069
192,112,41133,1,0,0:0:0:0:
80,80,41297,1,8,0:0:0:0:
208,80,41625,1,4,0:0:0:0:
336,80,41953,1,8,0:0:0:0:
208,144,42281,1,0,0:0:0:0:
112,160,42445,1,8,0:0:0:0:
112,160,42527,1,4,0:0:0:0:
112,160,42609,1,8,0:0:0:0:
112,160,42691,1,4,0:0:0:0:
112,160,42773,1,8,0:0:0:0:
64,48,43264,5,4,0:0:0:0:
176,128,43428,2,8,L|352:176,1,175.499994644165
432,256,44084,1,6,0:0:0:0:
96,144,44904,1,0,0:0:0:0:
192,144,45067,1,0,0:0:0:0:
288,144,45231,1,8,0:0:0:0:
384,144,45395,1,0,0:0:0:0:
304,144,45559,1,8,0:0:0:0:
208,144,45723,1,0,0:0:0:0:
368,192,45887,1,8,0:0:0:0:
272,192,46051,1,0,0:0:0:0:
192,192,46215,1,8,0:0:0:0:
128,176,46379,1,0,0:0:0:0:
96,160,46543,1,8,0:0:0:0:
96,80,46871,1,4,0:0:0:0:
192,96,47035,1,0,0:0:0:0:
224,80,47199,1,4,0:0:0:0:
352,80,47526,1,4,0:0:0:0:
384,96,47608,1,4,0:0:0:0:
416,128,47690,1,12,0:0:0:0:
368,160,47772,1,4,0:0:0:0:
304,160,47854,1,4,0:0:0:0:
224,160,47936,1,4,0:0:0:0:
128,128,48018,1,12,0:0:0:0:
224,96,48346,5,4,0:0:0:0:
176,48,48674,2,8,L|320:48,1,130
352,64,49166,1,4,0:0:0:0:
416,48,49330,1,4,0:0:0:0:
368,160,49494,1,12,0:0:0:0:
304,176,49658,1,4,0:0:0:0:
144,160,49986,1,8,0:0:0:0:
256,144,50313,1,0,0:0:0:0:
368,128,50477,1,8,0:0:0:0:
288,64,50805,6,0,L|352:64,1,52
160,128,51133,1,8,0:0:0:0:
240,128,51625,1,4,0:0:0:0:
128,112,52281,1,0,0:0:0:0:
96,48,52608,1,4,0:0:0:0:
160,64,52690,1,12,0:0:0:0:
224,64,52772,1,4,0:0:0:0:
288,64,52854,1,4,0:0:0:0:
352,80,52936,1,8,0:0:0:0:
352,128,53018,1,0,0:0:0:0:
320,160,53100,1,12,0:0:0:0:
256,160,53182,1,0,0:0:0:0:
192,160,53264,1,12,0:0:0:0:
64,64,53592,5,4,0:0:0:0:
160,64,53756,2,8,L|224:64,1,65
304,64,54248,1,4,0:0:0:0:
416,64,54576,1,8,0:0:0:0:
64,144,55231,1,8,0:0:0:0:
224,160,55559,1,4,0:0:0:0:
368,160,55723,1,4,0:0:0:0:
448,160,56051,1,8,0:0:0:0:
352,240,56215,1,8,0:0:0:0:
192,224,56379,1,0,0:0:0:0:
304,176,56871,1,0,0:0:0:0:
288,96,57363,1,0,0:0:0:0:
48,64,57854,1,4,0:0:0:0:
96,96,57936,1,0,0:0:0:0:
144,128,58018,1,4,0:0:0:0:
192,160,58100,1,0,0:0:0:0:
240,192,58182,1,4,0:0:0:0:
288,224,58264,1,0,0:0:0:0:
336,256,58346,1,4,0:0:0:0:
384,288,58428,1,0,0:0:0:0:
432,320,58510,1,4,0:0:0:0:
64,192,59002,6,12,L|144:192,1,65
256,176,59494,1,0,0:0:0:0:
144,128,59822,2,0,P|208:128|224:64,1,130
304,128,60313,1,8,0:0:0:0:
176,208,60641,5,8,0:0:0:0:
176,208,60805,1,4,0:0:0:0:
80,192,60969,2,8,L|128:176,1,65
144,256,61297,1,0,0:0:0:0:
240,240,61461,1,4,0:0:0:0:
432,208,61625,2,8,L|352:176,1,77.999997619629
160,144,61953,1,0,0:0:0:0:
240,128,62117,1,0,0:0:0:0:
336,128,62281,2,4,L|416:112,1,77.999997619629
304,224,62608,1,0,0:0:0:0:
160,240,62772,1,0,0:0:0:0:
80,240,62936,2,12,L|0:240,1,77.999997619629
80,96,63264,1,0,0:0:0:0:
176,96,63428,1,0,0:0:0:0:
272,112,63592,2,8,L|352:96,1,77.999997619629
304,160,63920,2,8,L|416:176,1,77.999997619629
448,208,64248,1,0,0:0:0:0:
320,240,64412,1,0,0:0:0:0:
64,208,64576,2,8,L|176:208,1,77.999997619629
240,80,64904,2,0,L|320:80,1,77.999997619629
384,64,65231,2,0,L|272:64,1,77.999997619629
176,64,65559,1,4,0:0:0:0:
128,80,65641,1,0,0:0:0:0:
80,112,65723,1,4,0:0:0:0:
32,144,65805,1,0,0:0:0:0:
80,176,65887,1,4,0:0:0:0:
128,192,65969,1,0,0:0:0:0:
176,208,66051,1,8,0:0:0:0:
272,208,66379,5,4,0:0:0:0:
352,208,66543,2,4,L|432:160,1,77.999997619629
336,128,66871,1,0,0:0:0:0:
208,144,67035,1,4,0:0:0:0:
80,208,67199,1,0,0:0:0:0:
224,224,67363,1,0,0:0:0:0:
176,96,67526,2,4,L|256:80,1,77.999997619629
352,144,67854,1,8,0:0:0:0:
272,256,68018,2,4,L|176:288,1,77.999997619629
304,112,68510,1,4,0:0:0:0:
64,192,68838,2,8,L|144:192,1,77.999997619629
240,192,69166,1,0,0:0:0:0:
320,192,69330,1,0,0:0:0:0:
400,128,69494,2,0,L|304:128,1,77.999997619629
224,128,69822,1,0,0:0:0:0:
128,128,69986,1,0,0:0:0:0:
128,48,70149,2,8,L|208:48,1,77.999997619629
288,48,70477,1,0,0:0:0:0:
384,48,70641,1,0,0:0:0:0:
368,144,70805,2,8,L|272:144,1,77.999997619629
112,144,71051,1,4,0:0:0:0:
112,144,71133,1,0,0:0:0:0:
112,144,71215,1,4,0:0:0:0:
112,144,71297,1,0,0:0:0:0:
112,144,71379,1,4,0:0:0:0:
112,144,71461,1,0,0:0:0:0:
112,144,71543,1,4,0:0:0:0:
112,256,71625,6,8,L|224:256,1,77.999997619629
272,256,71953,1,0,0:0:0:0:
352,256,72117,1,4,0:0:0:0:
400,176,72281,2,4,L|240:176,1,155.999995239258
128,160,72772,1,0,0:0:0:0:
128,80,72936,2,4,L|288:80,1,155.999995239258
384,80,73428,1,0,0:0:0:0:
464,80,73592,1,4,0:0:0:0:
464,160,73756,1,0,0:0:0:0:
384,160,73920,1,4,0:0:0:0:
144,128,74084,2,4,L|224:128,1,77.999997619629
80,208,74412,1,0,0:0:0:0:
144,208,74576,2,4,L|224:208,1,77.999997619629
112,96,74904,1,0,0:0:0:0:
192,96,75067,1,4,0:0:0:0:
272,96,75231,1,0,0:0:0:0:
352,96,75395,2,4,L|432:96,1,77.999997619629
416,192,75723,2,4,L|336:192,1,77.999997619629
288,192,75969,1,0,0:0:0:0:
256,208,76051,1,4,0:0:0:0:
224,224,76133,1,0,0:0:0:0:
192,240,76215,1,4,0:0:0:0:
160,256,76297,1,0,0:0:0:0:
128,272,76379,1,4,0:0:0:0:
96,288,76461,1,0,0:0:0:0:
64,304,76543,2,8,L|176:304,1,77.999997619629
176,144,76871,6,4,L|336:144,1,155.999995239258
416,160,77363,1,0,0:0:0:0:
368,208,77526,1,4,0:0:0:0:
304,224,77690,2,4,L|192:224,1,77.999997619629
160,144,78018,1,8,0:0:0:0:
224,128,78182,1,0,0:0:0:0:
288,128,78346,2,4,L|368:112,1,77.999997619629
368,192,78674,1,0,0:0:0:0:
304,192,78838,1,0,0:0:0:0:
240,192,79002,2,4,L|160:192,1,77.999997619629
64,96,79494,6,2,L|144:96,1,77.999997619629
448,96,79986,2,2,L|384:96,1,65
64,192,80477,2,2,L|128:192,1,65
432,192,80969,2,2,L|368:192,1,65
160,192,81461,1,8,0:0:0:0:
224,192,81625,1,8,0:0:0:0:
288,192,81789,1,8,0:0:0:0:
352,192,81953,1,8,0:0:0:0:
32,80,82117,6,2,L|112:80,1,65
480,80,82608,2,2,L|416:80,1,65
256,192,83100,2,2,L|256:128,1,65
256,192,83374,12,0,89171,0:0:0:0:
