osu file format v14

[General]
AudioFilename: audio.mp3
AudioLeadIn: 0
PreviewTime: 60969
Countdown: 1
SampleSet: Normal
StackLeniency: 0.7
Mode: 2
LetterboxInBreaks: 0
WidescreenStoryboard: 1

[Editor]
DistanceSpacing: 2.5
BeatDivisor: 4
GridSize: 16
TimelineZoom: 1.52

[Metadata]
Title:Reason Living
TitleUnicode:Reason Living
Artist:SCREEN mode
ArtistUnicode:SCREEN mode
Creator:TheLonePiggy
Version:Cup
Source:Bungou Stray Dogs
Tags:bungou stray dogs, atsushi, dazai, stray dogs
BeatmapID:1125903
BeatmapSetID:524361

[Difficulty]
HPDrainRate:2
CircleSize:2.5
OverallDifficulty:4
ApproachRate:7
SliderMultiplier:1.3
SliderTickRate:1

[Events]
//Background and Video events
0,0,"bungou-stray-dogs-osamu-danzai-doppo-kunikida-ranpo-edogawa-male.jpg",0,0
//Break Periods
//Storyboard Layer 0 (Background)
//Storyboard Layer 1 (Fail)
//Storyboard Layer 2 (Pass)
//Storyboard Layer 3 (Foreground)
//Storyboard Sound Samples

[TimingPoints]
-480,327.868852459016,4,1,0,100,1,0
157,368.098159509202,4,1,0,100,1,0
6046,327.868852459016,4,1,0,100,1,0
8668,-200,4,1,0,100,0,0
10636,-50,4,1,0,100,0,0
11291,-100,4,1,0,100,0,0
16209,-125,4,1,0,100,0,0
19160,-125,4,1,0,100,0,0
21783,-100,4,1,0,100,0,0
24263,-200,4,1,0,100,0,0
29707,-125,4,1,0,100,0,0
32904,-50,4,1,0,100,0,0
33429,327.868852459016,4,1,0,100,1,0
37527,327.868852459016,4,1,0,100,1,0
39822,-90.9090909090909,4,1,0,100,0,0
42772,-111.111111111111,4,1,0,100,0,0
48018,-100,4,1,0,100,0,0
50653,-125,4,1,0,100,0,0
52608,-50,4,1,0,100,0,0
53264,-100,4,1,0,100,0,0
55887,-125,4,1,0,100,0,0
57854,-50,4,1,0,100,0,0
58510,-100,4,1,0,100,0,0
61133,-83.3333333333333,4,1,0,100,0,1
79500,-100,4,1,0,100,0,0
83282,368.098159509202,4,1,0,100,1,0
83282,-90.9090909090909,4,1,0,100,0,0

[HitObjects]
224,208,11,5,0,0:0:0:0:
256,208,93,1,0,0:0:0:0:
288,208,157,1,0,0:0:0:0:
192,240,1629,6,0,L|32:32,2,260
256,192,4574,1,0,0:0:0:0:
256,192,6046,12,0,7357,0:0:0:0:
160,320,8668,6,0,L|320:112,1,260
384,272,10636,2,0,L|288:160,1,130
240,224,11127,2,0,L|144:112,1,130
128,240,11947,2,0,L|288:32,2,260
208,304,13586,2,0,L|304:192,1,130
304,192,14242,1,0,0:0:0:0:
368,272,14570,2,0,L|480:192,4,130
304,288,16209,2,0,L|256:240,1,52
224,176,16537,1,0,0:0:0:0:
144,160,16865,1,0,0:0:0:0:
64,144,17193,5,0,0:0:0:0:
192,240,17521,1,0,0:0:0:0:
288,208,17849,1,0,0:0:0:0:
384,192,18177,2,0,L|448:192,1,52
384,80,18668,1,0,0:0:0:0:
224,128,18996,2,0,L|160:128,1,52
336,176,19652,2,0,L|400:176,1,52
176,176,20308,2,0,L|112:176,1,52
352,240,20964,2,0,L|416:240,1,52
272,320,21455,2,0,L|176:240,1,104
256,192,22111,1,0,0:0:0:0:
400,144,22439,2,0,L|304:32,4,130
352,224,24078,2,0,P|384:144|432:128,1,130
272,224,24734,6,0,L|208:224,2,65
336,256,25718,2,0,L|400:256,1,65
272,176,26373,1,0,0:0:0:0:
176,176,26701,1,0,0:0:0:0:
80,176,27029,1,0,0:0:0:0:
48,288,29652,5,0,0:0:0:0:
144,272,29980,2,0,L|192:224,1,52
256,192,30308,2,0,L|304:144,1,52
320,224,30800,2,0,L|464:144,1,156
288,240,31783,2,0,L|256:176,1,52
256,176,32111,2,0,P|208:80|208:80,1,104
128,192,32603,2,0,L|64:192,2,52
208,208,33095,1,0,0:0:0:0:
288,320,33423,6,0,L|384:64,3,260
416,272,34740,2,0,L|464:144,3,130
224,272,36051,6,0,L|304:160,1,130
224,144,36707,1,0,0:0:0:0:
128,144,37035,1,0,0:0:0:0:
256,208,37527,5,0,0:0:0:0:
176,176,37854,1,0,0:0:0:0:
96,128,38182,2,0,L|176:128,3,65
224,144,39166,1,0,0:0:0:0:
336,144,39658,2,0,L|416:144,2,65
320,224,40313,2,0,L|240:224,3,71.5000021820069
176,208,40969,2,0,L|128:144,1,71.5000021820069
64,128,41297,1,0,0:0:0:0:
160,128,41625,1,0,0:0:0:0:
256,128,41953,1,0,0:0:0:0:
352,320,42281,6,0,L|480:112,1,214.500006546021
320,192,43428,1,0,0:0:0:0:
224,192,44084,1,0,0:0:0:0:
80,256,44904,2,0,L|160:256,2,58.4999982147217
224,256,45559,1,0,0:0:0:0:
320,160,45723,2,0,L|400:128,1,58.4999982147217
304,96,46051,5,0,0:0:0:0:
224,96,46215,1,0,0:0:0:0:
144,96,46543,1,0,0:0:0:0:
64,192,46871,2,0,L|128:192,2,58.4999982147217
96,224,48674,5,0,0:0:0:0:
144,192,49002,1,0,0:0:0:0:
192,160,49330,2,0,L|272:32,1,130
304,160,49986,1,0,0:0:0:0:
384,112,50313,2,0,L|448:64,4,65
368,224,53756,5,0,0:0:0:0:
304,176,53920,1,0,0:0:0:0:
208,128,54248,1,0,0:0:0:0:
96,128,54576,2,0,L|192:32,1,130
240,128,55231,1,0,0:0:0:0:
368,112,55559,1,0,0:0:0:0:
432,128,55723,2,0,L|352:240,1,130
320,288,56215,1,0,0:0:0:0:
96,240,59166,5,0,0:0:0:0:
176,224,59494,1,0,0:0:0:0:
256,208,59822,1,0,0:0:0:0:
336,304,60149,1,0,0:0:0:0:
336,304,60313,2,0,L|240:48,1,260
240,48,61133,5,0,0:0:0:0:
176,192,61625,2,0,L|256:192,1,77.999997619629
336,192,62281,2,0,L|256:192,1,77.999997619629
176,192,62936,2,0,L|256:192,1,77.999997619629
352,176,63592,2,0,L|432:128,1,77.999997619629
416,80,64084,2,0,L|336:32,1,77.999997619629
272,144,64576,2,0,L|208:96,3,77.999997619629
144,144,65395,2,0,L|256:32,2,155.999995239258
224,224,66379,6,0,L|320:80,2,155.999995239258
80,112,67526,2,0,L|160:64,1,77.999997619629
176,96,68018,2,0,L|256:128,1,77.999997619629
256,144,68510,1,0,0:0:0:0:
256,192,68838,2,0,L|352:192,1,77.999997619629
256,192,69494,2,0,L|160:192,1,77.999997619629
304,144,70149,2,0,L|384:96,1,77.999997619629
208,144,70805,2,0,L|128:96,1,77.999997619629
144,112,71461,6,0,L|224:96,1,77.999997619629
288,80,72117,2,0,L|368:64,1,77.999997619629
400,144,72772,2,0,L|304:144,1,77.999997619629
208,144,73428,2,0,L|128:144,1,77.999997619629
96,224,74084,2,0,L|176:208,1,77.999997619629
256,192,74576,2,0,L|304:112,1,77.999997619629
272,64,75067,1,0,0:0:0:0:
192,144,75395,2,0,L|128:80,7,77.999997619629
128,160,76871,6,0,L|288:160,1,155.999995239258
336,144,77363,2,0,L|400:96,1,77.999997619629
208,160,78018,2,0,L|288:112,1,77.999997619629
304,112,78510,2,0,L|384:96,1,77.999997619629
416,96,79002,1,0,0:0:0:0:
176,96,79494,6,0,L|256:96,1,77.999997619629
352,96,79986,2,0,L|256:96,1,65
176,192,80477,2,0,L|240:192,1,65
368,192,80969,2,0,L|272:192,1,65
224,160,81461,2,0,L|288:160,3,65
304,160,82117,6,0,L|224:160,1,65
176,160,82608,2,0,L|112:160,1,65
64,160,83100,2,0,L|144:144,1,65
256,192,83650,12,0,89171,0:0:0:0:
