osu file format v14

[General]
AudioFilename: audio.mp3
AudioLeadIn: 0
PreviewTime: 60808
Countdown: 0
SampleSet: Soft
StackLeniency: 0.7
Mode: 0
LetterboxInBreaks: 0
WidescreenStoryboard: 0

[Editor]
DistanceSpacing: 1
BeatDivisor: 4
GridSize: 4
TimelineZoom: 1.48

[Metadata]
Title:Reason Living (TV size)
TitleUnicode:Reason Living(TV size)
Artist:SCREEN mode
ArtistUnicode:SCREEN mode
Creator:Hazu-
Version:x
Source:文豪ストレイドッグス
Tags:Bungou Bungo Stray Dogs OP2 Opening 2 iYiyo
BeatmapID:1188023
BeatmapSetID:561964

[Difficulty]
HPDrainRate:6
CircleSize:4.2
OverallDifficulty:8
ApproachRate:9.3
SliderMultiplier:1.9
SliderTickRate:1

[Events]
//Background and Video events
0,0,"Reason Living.jpg",0,0
//Break Periods
//Storyboard Layer 0 (Background)
//Storyboard Layer 1 (Fail)
//Storyboard Layer 2 (Pass)
//Storyboard Layer 3 (Foreground)
//Storyboard Sound Samples

[TimingPoints]
201,365.853658536585,4,2,1,50,1,0
201,-142.857142857143,4,2,1,50,0,0
6054,327.868852459016,4,2,1,50,1,0
6054,-142.857142857143,4,2,1,50,0,0
7365,-142.857142857143,4,2,2,55,0,0
7693,-142.857142857143,4,2,2,60,0,0
8021,-142.857142857143,4,2,2,65,0,0
8349,-142.857142857143,4,2,2,70,0,0
8676,-142.857142857143,4,2,2,75,0,0
11299,-100,4,2,2,80,0,0
24414,-142.857142857143,4,2,2,80,0,0
29660,-125,4,2,3,80,0,0
33431,-111.111111111111,4,2,2,80,0,0
37529,-125,4,2,2,80,0,0
59824,-142.857142857143,4,2,2,80,0,0
61135,-100,4,2,2,90,0,1
79496,-100,4,2,2,90,0,0
88676,-100,4,2,2,5,0,0

[Colours]
Combo1 : 232,191,155
Combo2 : 167,167,167
Combo3 : 228,104,90
Combo4 : 237,171,82

[HitObjects]
128,192,18,6,0,L|120:240,2,31.6666666666667
152,168,201,2,0,B|252:136|252:208|360:156,1,199.499993911743,2|0,0:0|0:0,0:0:0:0:
424,112,932,2,0,P|444:64|336:56,1,199.499993911743,8|0,0:0|0:0,0:0:0:0:
264,116,1664,6,0,P|272:180|288:324,1,199.499993911743,2|0,0:0|0:0,0:0:0:0:
376,372,2396,2,0,P|384:308|400:164,1,199.499993911743,10|0,0:0|0:0,0:0:0:0:
416,76,3127,6,0,B|348:83|348:83|286:65|286:65|194:75,1,199.499993911743,2|0,0:0|0:0,0:0:0:0:
124,40,3859,2,0,P|172:64|180:204,1,199.499993911743,8|0,0:0|0:0,0:0:0:0:
132,268,4591,6,0,B|192:308|248:276|268:232|268:232|264:280|272:296,1,199.499993911743,2|0,0:0|0:0,0:0:0:0:
348,336,5322,2,0,L|356:184,1,132.999995941162,10|0,0:0|0:0,0:0:0:0:
356,100,5871,2,0,L|388:88,2,22.1666659901937
324,116,6054,6,0,B|268:100|268:100|112:128,1,199.499993911743,2|0,0:0|0:0,0:0:0:0:
44,80,6709,2,0,P|56:164|68:292,1,199.499993911743,8|0,0:0|0:0,0:0:0:0:
128,356,7365,6,0,L|168:348,3,33.2499989852906
196,320,7693,2,0,L|236:312,3,33.2499989852906
260,288,8021,2,0,L|300:280,3,33.2499989852906
328,256,8349,1,8,0:0:0:0:
384,368,8513,1,8,0:0:0:0:
400,144,8676,6,0,B|412:24|264:8|232:96|252:156|252:156|224:140|184:132|184:132|176:172|176:172|144:156|144:156|116:132|96:32|96:32|108:100|112:224,1,764.749976661683,4|0,0:0|0:0,0:0:0:0:
116,296,10644,1,10,0:0:0:0:
324,124,10808,1,10,0:0:0:0:
324,124,11299,6,0,P|272:168|320:292,1,190,6|8,0:0|0:0,0:0:0:0:
196,364,11791,1,2,0:0:0:0:
376,316,11955,2,0,P|376:276|380:220,1,95,2|0,0:0|0:0,0:0:0:0:
420,68,12283,2,0,P|352:44|312:36,1,95,8|2,0:0|0:0,0:0:0:0:
144,28,12611,6,0,B|147:83|147:83|191:136|191:136|197:212,1,190,2|8,0:0|0:0,0:0:0:0:
256,332,13103,1,2,0:0:0:0:
32,276,13267,2,0,P|108:260|156:248,1,95,2|0,0:0|0:0,0:0:0:0:
296,232,13594,1,8,0:0:0:0:
156,332,13758,1,2,0:0:0:0:
96,144,13922,6,0,P|172:160|220:172,1,95,2|0,0:0|0:0,0:0:0:0:
380,128,14250,1,10,0:0:0:0:
236,16,14414,2,0,P|244:68|260:128,1,95,2|0,0:0|0:0,0:0:0:0:
320,256,14742,1,2,0:0:0:0:
474,118,14906,2,0,P|402:123|354:135,1,95,8|2,0:0|0:0,0:0:0:0:
152,120,15234,6,0,P|172:180|172:240,1,95,2|0,0:0|0:0,0:0:0:0:
24,296,15562,2,0,P|4:236|4:176,1,95,10|0,0:0|0:0,0:0:0:0:
88,48,15890,1,8,0:0:0:0:
113,35,15971,1,8,0:0:0:0:
141,29,16053,1,8,0:0:0:0:
169,31,16135,1,8,0:0:0:0:
196,40,16217,1,8,0:0:0:0:
222,51,16299,1,8,0:0:0:0:
250,56,16381,1,8,0:0:0:0:
278,54,16463,1,8,0:0:0:0:
304,44,16545,6,0,P|248:96|276:212,1,190,6|8,0:0|0:0,0:0:0:0:
396,300,17037,1,2,0:0:0:0:
472,144,17201,2,0,P|416:156|368:172,1,95,2|0,0:0|0:0,0:0:0:0:
264,296,17529,2,0,P|208:284|160:268,1,95,8|2,0:0|0:0,0:0:0:0:
12,128,17857,6,0,P|92:120|228:100,1,190,2|8,0:0|0:0,0:0:0:0:
352,36,18349,2,0,P|344:104|344:164,1,95,2|0,0:0|0:0,0:0:0:0:
460,312,18676,1,10,0:0:0:0:
458,278,18757,1,8,0:0:0:0:
455,245,18839,1,8,0:0:0:0:
453,212,18921,1,8,0:0:0:0:
450,179,19003,1,8,0:0:0:0:
272,72,19169,5,10,0:0:0:0:
168,248,19332,2,0,P|192:300|204:360,1,95,4|0,0:0|0:0,0:0:0:0:
200,36,19660,5,10,0:0:0:0:
250,233,19824,2,0,P|303:252|354:286,1,95,4|0,0:0|0:0,0:0:0:0:
132,72,20152,5,10,0:0:0:0:
306,175,20316,2,0,P|358:151|417:139,1,95,4|0,0:0|0:0,0:0:0:0:
108,144,20645,5,10,0:0:0:0:
303,93,20809,2,0,P|322:39|356:-11,1,95,4|0,0:0|0:0,0:0:0:0:
480,108,21135,5,8,0:0:0:0:
478,136,21216,1,8,0:0:0:0:
476,164,21298,1,8,0:0:0:0:
474,193,21380,1,8,0:0:0:0:
472,221,21462,1,8,0:0:0:0:
470,250,21544,1,8,0:0:0:0:
468,278,21626,1,8,0:0:0:0:
466,307,21708,1,8,0:0:0:0:
464,335,21791,6,0,P|436:276|312:256,1,190,6|8,0:0|0:0,0:0:0:0:
160,320,22283,1,2,0:0:0:0:
160,320,22365,1,0,0:0:0:0:
160,320,22447,2,0,P|168:244|172:212,1,95,2|0,0:0|0:0,0:0:0:0:
256,52,22775,2,0,P|264:128|268:160,1,95,8|0,0:0|0:0,0:0:0:0:
364,348,23103,5,10,0:0:0:0:
170,225,23267,1,0,0:0:0:0:
364,96,23431,1,10,0:0:0:0:
256,320,23594,1,0,0:0:0:0:
152,96,23758,1,10,0:0:0:0:
376,228,23922,1,0,0:0:0:0:
104,288,24086,1,10,0:0:0:0:
280,116,24251,1,2,0:0:0:0:
464,320,24414,6,0,B|412:336|412:336|376:320|376:320|332:344|332:344|352:244|224:192|164:264|160:328|208:384,1,465.499985794068,4|0,0:0|0:0,0:0:0:0:
112,364,25726,6,0,P|144:216|320:184,1,332.499989852906,2|0,0:0|0:0,0:0:0:0:
384,204,26709,6,0,B|376:168|376:168|392:128|392:128|360:92|356:64|368:24|432:12|456:28|484:72|456:112|456:112|408:160|364:108|336:56|236:48|172:100,1,598.49998173523,2|0,0:0|0:0,0:0:0:0:
112,128,28349,5,2,0:0:0:0:
176,236,28513,2,0,L|184:192,2,33.2499989852906,2|2|2,0:0|0:0|0:0,0:0:0:0:
80,328,28840,2,0,L|72:284,2,33.2499989852906,2|2|2,0:0|0:0|0:0,0:0:0:0:
228,336,29168,5,2,0:0:0:0:
240,344,29250,1,2,0:0:0:0:
252,352,29332,2,0,L|300:340,1,33.2499989852906,2|2,0:0|0:0,0:0:0:0:
352,288,29496,2,0,L|400:300,1,33.2499989852906,2|2,0:0|0:0,0:0:0:0:
472,324,29660,6,0,P|464:260|460:236,1,76,4|0,0:0|0:0,0:0:0:0:
352,144,29988,1,8,0:0:0:0:
496,176,30152,1,0,0:0:0:0:
336,220,30316,2,0,P|288:224|224:232,1,76,8|0,0:0|0:0,0:0:0:0:
120,188,30644,1,8,0:0:0:0:
228,120,30808,1,0,0:0:0:0:
40,60,30972,6,0,P|48:116|48:152,1,76,8|0,0:0|0:0,0:0:0:0:
28,276,31299,2,0,P|104:256|128:256,1,76,8|0,0:0|0:0,0:0:0:0:
204,188,31628,2,0,P|280:208|304:208,1,76,8|0,0:0|0:0,0:0:0:0:
420,160,31955,1,8,0:0:0:0:
312,112,32119,1,0,0:0:0:0:
396,244,32283,6,0,P|392:304|392:344,1,76,8|0,0:0|0:0,0:0:0:0:
268,376,32611,2,0,P|264:316|264:276,1,76,8|0,0:0|0:0,0:0:0:0:
160,188,32939,1,8,0:0:0:0:
180,308,33104,1,0,0:0:0:0:
256,192,33267,1,8,0:0:0:0:
80,136,33431,5,8,0:0:0:0:
400,84,33758,1,8,0:0:0:0:
84,280,34086,1,8,0:0:0:0:
420,220,34414,1,8,0:0:0:0:
160,56,34741,5,8,0:0:0:0:
312,324,35070,1,8,0:0:0:0:
300,328,35152,1,8,0:0:0:0:
288,332,35234,2,0,L|228:324,3,42.7499986953736,8|8|8|8,0:0|0:0|0:0|0:0,0:0:0:0:
168,348,35563,2,0,L|108:340,3,42.7499986953736,8|8|8|8,0:0|0:0|0:0|0:0,0:0:0:0:
48,360,35890,1,8,0:0:0:0:
120,212,36053,5,10,0:0:0:0:
504,160,36381,1,10,0:0:0:0:
104,68,36709,1,10,0:0:0:0:
464,300,37037,1,10,0:0:0:0:
300,24,37365,1,8,0:0:0:0:
300,24,37447,1,8,0:0:0:0:
300,24,37529,6,0,P|308:80|312:128,1,76,6|0,0:0|0:0,0:0:0:0:
192,232,37857,2,0,P|206:177|221:131,1,76,10|0,0:0|0:0,0:0:0:0:
384,68,38185,1,2,0:0:0:0:
312,196,38349,1,2,0:0:0:0:
208,80,38513,1,8,0:0:0:0:
420,152,38676,6,0,P|408:224|400:328,1,152,2|0,0:0|0:0,0:0:0:0:
284,376,39168,2,0,P|232:356|184:344,1,76,10|0,0:0|0:0,0:0:0:0:
72,360,39496,2,0,P|76:308|80:260,1,76,2|0,0:0|0:0,0:0:0:0:
16,160,39824,1,10,0:0:0:0:
172,224,39988,6,0,P|248:212|356:200,1,152,6|0,0:0|0:0,0:0:0:0:
464,248,40480,1,10,0:0:0:0:
348,120,40644,1,0,0:0:0:0:
388,296,40808,1,2,0:0:0:0:
512,188,40972,2,0,P|468:176|416:168,1,76,2|8,0:0|0:0,0:0:0:0:
232,136,41299,6,0,P|272:184|240:284,1,152,6|0,0:0|0:0,0:0:0:0:
152,352,41791,1,10,0:0:0:0:
72,224,41955,2,0,P|80:164|88:124,1,76,2|0,0:0|0:0,0:0:0:0:
188,52,42283,1,10,0:0:0:0:
216,41,42364,1,8,0:0:0:0:
246,39,42446,1,8,0:0:0:0:
275,48,42528,1,8,0:0:0:0:
304,57,42610,1,8,0:0:0:0:
334,54,42692,1,8,0:0:0:0:
363,45,42775,6,0,P|355:137|351:233,1,152,6|8,0:0|0:0,0:0:0:0:
272,308,43267,1,2,0:0:0:0:
184,160,43431,2,0,P|248:168|280:176,1,76,2|0,0:0|0:0,0:0:0:0:
432,280,43758,2,0,P|368:288|336:296,1,76,10|0,0:0|0:0,0:0:0:0:
180,360,44086,6,0,P|176:296|172:248,1,76,2|0,0:0|0:0,0:0:0:0:
88,148,44414,1,10,0:0:0:0:
16,280,44578,2,0,P|60:260|108:252,1,76
268,208,44906,1,2,0:0:0:0:
192,88,45070,1,10,0:0:0:0:
176,284,45234,6,0,B|227:292|227:292|277:279|277:279|345:290,1,152,6|0,0:0|0:0,0:0:0:0:
476,360,45726,1,10,0:0:0:0:
396,216,45890,1,0,0:0:0:0:
328,360,46053,2,0,P|260:368|220:372,1,76,2|2,0:0|0:0,0:0:0:0:
96,308,46381,1,8,0:0:0:0:
212,120,46545,6,0,P|204:216|200:308,1,152,6|0,0:0|0:0,0:0:0:0:
112,384,47037,1,10,0:0:0:0:
16,244,47201,2,0,P|72:228|120:216,1,76,2|0,0:0|0:0,0:0:0:0:
280,140,47529,1,10,0:0:0:0:
282,162,47610,1,8,0:0:0:0:
284,185,47692,1,8,0:0:0:0:
286,208,47774,1,8,0:0:0:0:
288,230,47856,1,8,0:0:0:0:
290,253,47938,1,8,0:0:0:0:
293,276,48020,5,2,0:0:0:0:
492,348,48185,1,2,0:0:0:0:
360,220,48349,1,10,0:0:0:0:
500,356,48513,1,2,0:0:0:0:
432,144,48676,2,0,P|404:128|352:108,1,76,2|0,0:0|0:0,0:0:0:0:
188,40,49004,2,0,P|184:100|184:144,1,76,10|2,0:0|0:0,0:0:0:0:
280,240,49332,5,2,0:0:0:0:
104,144,49496,1,2,0:0:0:0:
264,36,49660,2,0,P|328:40|376:44,1,76,10|0,0:0|0:0,0:0:0:0:
444,196,49988,1,10,0:0:0:0:
460,12,50152,1,8,0:0:0:0:
344,152,50316,1,10,0:0:0:0:
334,176,50397,1,8,0:0:0:0:
332,203,50479,1,8,0:0:0:0:
336,229,50561,1,8,0:0:0:0:
348,252,50644,6,0,P|296:240|168:232,1,152,6|0,0:0|0:0,0:0:0:0:
52,288,51135,1,2,0:0:0:0:
104,104,51299,2,0,P|112:172|120:204,1,76,12|0,0:0|0:0,0:0:0:0:
144,340,51627,2,0,P|188:324|244:308,1,76,2|0,0:0|0:0,0:0:0:0:
396,264,51955,5,0,0:0:0:0:
280,140,52119,2,0,P|288:220|296:316,1,152,10|0,0:0|0:0,0:0:0:0:
476,360,52611,1,10,0:0:0:0:
476,337,52692,1,8,0:0:0:0:
477,314,52774,1,8,0:0:0:0:
478,291,52856,1,8,0:0:0:0:
478,268,52938,1,10,0:0:0:0:
479,246,53020,1,8,0:0:0:0:
480,223,53102,1,8,0:0:0:0:
481,200,53184,1,8,0:0:0:0:
482,177,53266,5,2,0:0:0:0:
332,60,53431,1,2,0:0:0:0:
372,232,53594,1,10,0:0:0:0:
328,48,53758,1,2,0:0:0:0:
232,216,53922,2,0,P|188:212|136:220,1,76,2|0,0:0|0:0,0:0:0:0:
60,360,54250,2,0,P|104:364|156:356,1,76,10|2,0:0|0:0,0:0:0:0:
304,268,54578,5,2,0:0:0:0:
164,144,54742,1,2,0:0:0:0:
236,344,54906,2,0,P|296:336|336:336,1,76,10|0,0:0|0:0,0:0:0:0:
468,224,55234,1,10,0:0:0:0:
488,207,55315,1,8,0:0:0:0:
499,183,55397,1,8,0:0:0:0:
497,157,55479,1,8,0:0:0:0:
484,134,55561,1,10,0:0:0:0:
462,120,55643,1,8,0:0:0:0:
435,117,55725,1,8,0:0:0:0:
411,127,55807,1,8,0:0:0:0:
394,147,55890,6,0,P|328:144|228:140,1,152,6|0,0:0|0:0,0:0:0:0:
80,196,56381,1,2,0:0:0:0:
180,28,56545,2,0,P|172:104|172:132,1,76,12|0,0:0|0:0,0:0:0:0:
308,260,56873,2,0,P|300:184|300:156,1,76,2|0,0:0|0:0,0:0:0:0:
328,48,57201,5,0,0:0:0:0:
512,148,57365,2,0,P|428:140|328:132,1,152,10|0,0:0|0:0,0:0:0:0:
180,80,57857,1,10,0:0:0:0:
182,102,57938,1,8,0:0:0:0:
184,125,58020,1,8,0:0:0:0:
186,148,58102,1,8,0:0:0:0:
188,170,58184,1,10,0:0:0:0:
189,193,58266,1,8,0:0:0:0:
190,216,58348,1,8,0:0:0:0:
191,239,58430,1,8,0:0:0:0:
192,260,58513,6,0,P|144:248|104:240,1,76,2|0,0:0|0:0,0:0:0:0:
4,136,58840,2,0,P|52:124|92:116,1,76,2|0,0:0|0:0,0:0:0:0:
331,76,59168,1,10,0:0:0:0:
367,86,59249,1,8,0:0:0:0:
392,114,59331,1,8,0:0:0:0:
400,152,59413,1,8,0:0:0:0:
388,186,59495,1,10,0:0:0:0:
359,210,59577,1,8,0:0:0:0:
322,215,59659,1,8,0:0:0:0:
287,201,59741,1,8,0:0:0:0:
264,172,59824,6,0,B|246:224|246:224|254:272|254:272|238:332|238:332|232:216|100:212|72:288,1,398.999987823487,6|8,0:0|0:0,0:0:0:0:
76,278,61135,5,6,0:0:0:0:
308,360,61299,1,0,0:0:0:0:
176,140,61463,2,0,P|184:192|200:256,1,95,10|2,0:0|0:0,0:0:0:0:
404,336,61791,2,0,P|412:284|417:218,1,95,2|0,0:0|0:0,0:0:0:0:
484,80,62119,1,10,0:0:0:0:
296,172,62283,1,2,0:0:0:0:
512,216,62447,6,0,P|452:180|392:160,1,95,2|0,0:0|0:0,0:0:0:0:
228,84,62775,2,0,P|220:160|216:224,1,95,10|2,0:0|0:0,0:0:0:0:
248,360,63103,1,2,0:0:0:0:
88,248,63267,1,0,0:0:0:0:
316,288,63431,1,10,0:0:0:0:
128,368,63594,1,2,0:0:0:0:
30,152,63758,6,0,P|94:160|252:184,1,190,2|10,0:0|0:0,0:0:0:0:
396,132,64250,1,2,0:0:0:0:
256,12,64414,2,0,P|248:88|240:120,1,95,0|2,0:0|0:0,0:0:0:0:
172,264,64742,1,8,0:0:0:0:
128,80,64906,1,2,0:0:0:0:
304,228,65070,6,0,L|408:216,1,95,2|0,0:0|0:0,0:0:0:0:
212,352,65398,2,0,L|108:340,1,95,10|0,0:0|0:0,0:0:0:0:
20,200,65726,1,10,0:0:0:0:
2,171,65807,1,8,0:0:0:0:
0,139,65889,1,8,0:0:0:0:
3,107,65971,1,8,0:0:0:0:
21,79,66053,1,10,0:0:0:0:
48,60,66135,1,8,0:0:0:0:
80,52,66217,1,8,0:0:0:0:
113,57,66299,1,8,0:0:0:0:
141,74,66381,5,6,0:0:0:0:
300,252,66546,1,0,0:0:0:0:
88,144,66709,1,8,0:0:0:0:
336,176,66873,1,2,0:0:0:0:
148,300,67037,2,0,P|168:244|184:200,1,95,2|0,0:0|0:0,0:0:0:0:
256,36,67365,1,10,0:0:0:0:
300,252,67529,1,2,0:0:0:0:
48,80,67693,6,0,P|124:60|180:52,1,95,2|0,0:0|0:0,0:0:0:0:
368,24,68021,2,0,P|360:96|360:144,1,95,10|0,0:0|0:0,0:0:0:0:
372,292,68349,1,10,0:0:0:0:
344,283,68430,1,8,0:0:0:0:
316,278,68512,1,8,0:0:0:0:
288,279,68594,1,8,0:0:0:0:
260,285,68676,1,8,0:0:0:0:
232,291,68758,1,8,0:0:0:0:
204,292,68840,1,8,0:0:0:0:
176,286,68922,1,8,0:0:0:0:
149,276,69004,5,10,0:0:0:0:
244,28,69168,2,0,P|240:112|240:152,1,95,4|0,0:0|0:0,0:0:0:0:
308,364,69497,5,10,0:0:0:0:
24,236,69660,2,0,P|80:216|136:200,1,95,4|0,0:0|0:0,0:0:0:0:
376,208,69988,5,10,0:0:0:0:
76,32,70152,2,0,P|92:108|104:152,1,95,4|0,0:0|0:0,0:0:0:0:
224,376,70480,5,10,0:0:0:0:
432,108,70644,2,0,P|448:184|460:228,1,95,4|0,0:0|0:0,0:0:0:0:
128,288,70972,5,10,0:0:0:0:
130,259,71053,1,8,0:0:0:0:
132,231,71135,1,8,0:0:0:0:
134,202,71217,1,8,0:0:0:0:
136,174,71299,1,10,0:0:0:0:
138,145,71381,1,8,0:0:0:0:
140,117,71463,1,8,0:0:0:0:
143,89,71545,1,8,0:0:0:0:
145,60,71627,6,0,P|180:116|320:132,1,190,6|8,0:0|0:0,0:0:0:0:
404,296,72119,1,2,0:0:0:0:
392,72,72283,1,2,0:0:0:0:
296,248,72447,1,0,0:0:0:0:
512,168,72611,1,10,0:0:0:0:
296,56,72775,1,2,0:0:0:0:
496,240,72939,6,0,P|504:308|512:376,1,95,2|0,0:0|0:0,0:0:0:0:
284,150,73267,2,0,P|292:82|300:14,1,95,10|2,0:0|0:0,0:0:0:0:
464,8,73594,1,2,0:0:0:0:
380,164,73758,1,0,0:0:0:0:
168,24,73922,2,0,P|176:108|180:160,1,95,10|2,0:0|0:0,0:0:0:0:
200,332,74250,6,0,P|176:304|124:264,1,95,6|0,0:0|0:0,0:0:0:0:
0,136,74577,1,10,0:0:0:0:
256,180,74742,2,0,L|164:204,1,95,2|0,0:0|0:0,0:0:0:0:
0,328,75070,2,0,L|92:352,1,95,2|8,0:0|0:0,0:0:0:0:
296,256,75397,1,2,0:0:0:0:
80,96,75562,6,0,P|84:160|92:200,1,95,6|0,0:0|0:0,0:0:0:0:
216,380,75890,2,0,P|220:316|228:276,1,95,10|0,0:0|0:0,0:0:0:0:
392,76,76217,1,10,0:0:0:0:
393,104,76298,1,8,0:0:0:0:
395,132,76380,1,8,0:0:0:0:
397,161,76462,1,8,0:0:0:0:
399,189,76544,1,10,0:0:0:0:
401,218,76626,1,8,0:0:0:0:
403,246,76708,1,8,0:0:0:0:
405,275,76790,1,8,0:0:0:0:
406,303,76872,5,6,0:0:0:0:
216,384,77037,1,0,0:0:0:0:
316,176,77201,1,10,0:0:0:0:
452,368,77365,1,2,0:0:0:0:
224,232,77529,2,0,P|220:156|232:112,1,95,2|0,0:0|0:0,0:0:0:0:
412,56,77857,2,0,P|416:132|404:176,1,95,10|2,0:0|0:0,0:0:0:0:
256,296,78186,5,10,0:0:0:0:
492,252,78349,1,0,0:0:0:0:
284,76,78513,1,10,0:0:0:0:
392,332,78676,1,0,0:0:0:0:
504,112,78841,1,10,0:0:0:0:
232,208,79005,1,0,0:0:0:0:
496,328,79169,1,10,0:0:0:0:
360,68,79333,1,2,0:0:0:0:
300,368,79497,5,10,0:0:0:0:
0,204,79660,2,0,P|100:220|128:224,1,95,4|0,0:0|0:0,0:0:0:0:
388,176,79988,5,10,0:0:0:0:
140,20,80152,2,0,P|152:100|160:144,1,95,4|0,0:0|0:0,0:0:0:0:
204,356,80481,5,10,0:0:0:0:
482,186,80644,2,0,P|438:182|378:174,1,95,4|0,0:0|0:0,0:0:0:0:
154,113,80972,5,10,0:0:0:0:
328,376,81135,2,0,L|312:264,1,95,4|0,0:0|0:0,0:0:0:0:
220,48,81463,1,10,0:0:0:0:
192,29,81544,1,8,0:0:0:0:
160,20,81626,1,8,0:0:0:0:
127,24,81708,1,8,0:0:0:0:
98,38,81790,1,10,0:0:0:0:
75,62,81872,1,8,0:0:0:0:
61,92,81954,1,8,0:0:0:0:
59,125,82036,1,8,0:0:0:0:
68,157,82118,5,10,0:0:0:0:
236,356,82283,1,4,0:0:0:0:
236,356,82365,1,0,0:0:0:0:
236,356,82448,1,0,0:0:0:0:
156,116,82611,5,10,0:0:0:0:
24,352,82775,1,4,0:0:0:0:
24,352,82857,1,0,0:0:0:0:
24,352,82939,1,0,0:0:0:0:
284,224,83102,5,10,0:0:0:0:
0,48,83267,1,4,0:0:0:0:
256,192,83349,12,0,88676,0:0:0:0:
