osu file format v14

[General]
AudioFilename: audio.mp3
AudioLeadIn: 0
PreviewTime: 60808
Countdown: 0
SampleSet: Soft
StackLeniency: 0.7
Mode: 0
LetterboxInBreaks: 0
WidescreenStoryboard: 0

[Editor]
DistanceSpacing: 1
BeatDivisor: 4
GridSize: 4
TimelineZoom: 1.48

[Metadata]
Title:Reason Living (TV size)
TitleUnicode:Reason Living(TV size)
Artist:SCREEN mode
ArtistUnicode:SCREEN mode
Creator:Hazu-
Version:Easy
Source:文豪ストレイドッグス
Tags:Bungou Bungo Stray Dogs OP2 Opening 2 iYiyo
BeatmapID:1188805
BeatmapSetID:561964

[Difficulty]
HPDrainRate:2
CircleSize:2.5
OverallDifficulty:2
ApproachRate:3
SliderMultiplier:0.899999999999999
SliderTickRate:1

[Events]
//Background and Video events
0,0,"Reason Living.jpg",0,0
//Break Periods
//Storyboard Layer 0 (Background)
//Storyboard Layer 1 (Fail)
//Storyboard Layer 2 (Pass)
//Storyboard Layer 3 (Foreground)
//Storyboard Sound Samples

[TimingPoints]
201,365.853658536585,4,2,1,50,1,0
201,-100,4,2,1,50,0,0
6054,327.868852459016,4,2,1,50,1,0
6054,-100,4,2,1,50,0,0
7365,-100,4,2,2,55,0,0
7693,-100,4,2,2,60,0,0
8021,-100,4,2,2,65,0,0
8349,-100,4,2,2,70,0,0
8676,-100,4,2,2,75,0,0
11299,-100,4,2,2,80,0,0
24414,-100,4,2,2,80,0,0
29660,-100,4,2,3,80,0,0
33431,-100,4,2,2,80,0,0
37529,-100,4,2,2,80,0,0
59824,-100,4,2,2,80,0,0
61135,-100,4,2,2,90,0,1
79496,-100,4,2,2,90,0,0
88676,-100,4,2,2,5,0,0

[Colours]
Combo1 : 232,191,155
Combo2 : 167,167,167
Combo3 : 228,104,90
Combo4 : 237,171,82

[HitObjects]
100,100,201,6,0,B|188:64|188:136|288:88,1,180,2|8,0:0|0:0,0:0:0:0:
448,44,1664,2,0,P|440:128|432:240,1,180,2|10,0:0|0:0,0:0:0:0:
292,336,3127,2,0,P|284:252|276:140,1,180,2|8,0:0|0:0,0:0:0:0:
124,64,4591,2,0,P|52:124|72:216,1,180,2|10,0:0|0:0,0:0:0:0:
240,292,6054,6,0,P|368:276|432:268,1,180,2|8,0:0|0:0,0:0:0:0:
492,108,7365,2,0,P|364:92|300:84,1,180,0|0,0:0|0:0,0:0:0:0:
232,44,8349,1,8,0:0:0:0:
164,104,8676,6,0,B|80:168|132:296|272:276|284:180|284:180|360:208|360:208|424:180|424:180|504:208,1,539.999999999999,4|10,0:0|0:0,0:0:0:0:
408,364,11299,6,0,P|360:352|220:340,1,180,6|2,0:0|0:0,0:0:0:0:
144,368,12282,1,8,0:0:0:0:
104,288,12611,2,0,B|89:223|89:223|109:111,1,180,2|2,0:0|0:0,0:0:0:0:
156,36,13594,1,8,0:0:0:0:
228,92,13922,6,0,P|292:108|368:120,2,135,2|2|8,0:0|0:0|0:0,0:0:0:0:
156,36,15234,2,0,P|136:92|144:128,1,89.9999999999999,2|10,0:0|0:0,0:0:0:0:
180,200,15890,2,0,P|200:256|192:292,1,89.9999999999999,8|8,0:0|0:0,0:0:0:0:
156,364,16545,6,0,B|215:373|215:373|267:353|267:353|330:363,1,180,6|2,0:0|0:0,0:0:0:0:
416,328,17529,1,8,0:0:0:0:
492,372,17857,2,0,P|504:328|420:240,1,180,2|0,0:0|0:0,0:0:0:0:
336,208,18840,1,8,0:0:0:0:
220,276,19332,6,0,P|124:264|80:260,1,135,4|4,0:0|0:0,0:0:0:0:
32,136,20316,2,0,P|128:124|172:120,1,135,4|0,0:0|0:0,0:0:0:0:
248,80,21135,2,0,P|256:132|264:188,1,89.9999999999999,8|8,0:0|0:0,0:0:0:0:
268,260,21791,6,0,P|336:232|448:196,1,180,6|2,0:0|0:0,0:0:0:0:
496,132,22775,1,8,0:0:0:0:
420,80,23103,2,0,B|368:64|368:64|240:92,1,180,10|10,0:0|0:0,0:0:0:0:
160,120,24087,1,10,0:0:0:0:
76,88,24414,1,4,0:0:0:0:
256,192,24578,12,2,28349,0:0:0:0:
152,108,29660,6,0,P|164:204|180:300,1,180,4|8,0:0|0:0,0:0:0:0:
288,364,30808,2,0,P|300:300|344:240,1,135,0|8,0:0|0:0,0:0:0:0:
416,196,31627,1,8,0:0:0:0:
304,124,32119,6,0,B|240:100|240:144|156:112,1,135,0|8,0:0|0:0,0:0:0:0:
92,72,32940,1,8,0:0:0:0:
28,192,33431,2,0,L|44:296,1,89.9999999999999,8|8,0:0|0:0,0:0:0:0:
92,356,34086,2,0,P|144:316|184:308,1,89.9999999999999,8|8,0:0|0:0,0:0:0:0:
252,284,34742,6,0,P|252:336|256:380,2,89.9999999999999,8|8|8,0:0|0:0|0:0,0:0:0:0:
292,204,35726,1,8,0:0:0:0:
380,228,36053,2,0,L|480:208,1,89.9999999999999,10|10,0:0|0:0,0:0:0:0:
504,128,36709,2,0,L|404:108,1,89.9999999999999,10|10,0:0|0:0,0:0:0:0:
292,52,37529,6,0,P|232:76|196:84,1,89.9999999999999,6|10,0:0|0:0,0:0:0:0:
116,76,38185,2,0,P|128:136|136:220,1,135,2|2,0:0|0:0,0:0:0:0:
140,344,39168,2,0,P|196:332|276:344,1,135,10|0,0:0|0:0,0:0:0:0:
360,360,39988,6,0,B|372:272|372:272|348:212,1,135,6|10,0:0|0:0,0:0:0:0:
308,152,40808,1,2,0:0:0:0:
192,220,41299,2,0,P|172:152|196:76,1,135,6|10,0:0|0:0,0:0:0:0:
256,36,42119,2,0,P|328:44|364:48,1,89.9999999999999,0|8,0:0|0:0,0:0:0:0:
436,32,42775,6,0,B|430:87|430:87|451:150|451:150|445:213,1,180,6|2,0:0|0:0,0:0:0:0:
404,288,43758,1,10,0:0:0:0:
324,252,44086,2,0,B|236:224|236:280|148:244,1,180,2|0,0:0|0:0,0:0:0:0:
36,172,45234,6,0,P|40:244|44:328,1,135,6|10,0:0|0:0,0:0:0:0:
108,368,46053,1,2,0:0:0:0:
228,308,46545,2,0,P|288:288|368:288,1,135,6|10,0:0|0:0,0:0:0:0:
444,316,47365,2,0,P|444:256|440:208,1,89.9999999999999,0|8,0:0|0:0,0:0:0:0:
444,136,48021,6,0,B|380:142|380:142|334:123|334:123|258:131,1,180,2|2,0:0|0:0,0:0:0:0:
180,124,49004,2,0,B|192:180|192:180|168:304,1,180,10|10,0:0|0:0,0:0:0:0:
232,364,49988,2,0,P|280:344|336:344,1,89.9999999999999,10|10,0:0|0:0,0:0:0:0:
408,360,50644,6,0,P|396:268|384:168,1,180,6|12,0:0|0:0,0:0:0:0:
408,96,51627,2,0,P|344:100|296:156,1,135,2|10,0:0|0:0,0:0:0:0:
256,280,52611,2,0,P|208:264|156:256,1,89.9999999999999,10|10,0:0|0:0,0:0:0:0:
80,280,53267,6,0,P|88:204|96:92,1,180,2|2,0:0|0:0,0:0:0:0:
172,56,54250,2,0,P|264:56|308:124,1,180,10|10,0:0|0:0,0:0:0:0:
296,212,55234,2,0,P|352:224|396:236,1,89.9999999999999,10|10,0:0|0:0,0:0:0:0:
432,308,55890,6,0,P|352:324|248:344,1,180,6|12,0:0|0:0,0:0:0:0:
168,368,56873,2,0,P|176:296|184:224,1,135,2|10,0:0|0:0,0:0:0:0:
172,100,57857,2,0,P|136:88|72:96,1,89.9999999999999,10|10,0:0|0:0,0:0:0:0:
20,156,58513,6,0,P|28:224|32:260,1,89.9999999999999,2|2,0:0|0:0,0:0:0:0:
40,336,59168,2,0,P|88:316|136:320,1,89.9999999999999,10|10,0:0|0:0,0:0:0:0:
212,344,59824,2,0,P|270:346|261:184,1,270,6|8,0:0|0:0,0:0:0:0:
184,212,61135,6,0,P|184:156|292:100,1,180,6|2,0:0|0:0,0:0:0:0:
368,72,62119,1,10,0:0:0:0:
416,148,62447,2,0,B|436:192|436:192|416:324,1,180,2|2,0:0|0:0,0:0:0:0:
340,372,63431,1,10,0:0:0:0:
284,300,63758,6,0,P|220:312|140:316,2,135,2|2|8,0:0|0:0|0:0,0:0:0:0:
356,244,65070,2,0,P|408:228|448:212,1,89.9999999999999,2|10,0:0|0:0,0:0:0:0:
488,140,65726,2,0,P|436:124|396:108,1,89.9999999999999,10|10,0:0|0:0,0:0:0:0:
324,64,66381,6,0,P|288:136|184:152,1,180,6|2,0:0|0:0,0:0:0:0:
116,112,67365,1,10,0:0:0:0:
60,184,67693,2,0,P|44:220|124:332,1,180,2|10,0:0|0:0,0:0:0:0:
196,356,68677,1,8,0:0:0:0:
296,268,69168,6,0,P|376:272|448:276,1,135,4|4,0:0|0:0,0:0:0:0:
472,144,70152,2,0,P|392:140|320:136,1,135,4|4,0:0|0:0,0:0:0:0:
264,84,70972,2,0,P|192:100|156:108,1,89.9999999999999,10|10,0:0|0:0,0:0:0:0:
88,84,71627,6,0,B|80:147|80:147|98:198|98:198|88:277,1,180,6|2,0:0|0:0,0:0:0:0:
140,336,72611,1,10,0:0:0:0:
220,292,72939,2,0,B|308:268|308:328|408:288,1,180,2|2,0:0|0:0,0:0:0:0:
472,248,73923,1,10,0:0:0:0:
420,176,74250,6,0,P|392:120|412:36,2,135,6|2|8,0:0|0:0|0:0,0:0:0:0:
472,248,75562,2,0,P|488:292|480:344,1,89.9999999999999,6|10,0:0|0:0,0:0:0:0:
400,372,76217,2,0,L|300:364,1,89.9999999999999,10|10,0:0|0:0,0:0:0:0:
220,364,76873,6,0,B|236:304|236:304|216:172,1,180,6|2,0:0|0:0,0:0:0:0:
264,108,77857,1,10,0:0:0:0:
188,56,78185,2,0,P|124:44|40:124,1,180,10|10,0:0|0:0,0:0:0:0:
20,200,79168,1,10,0:0:0:0:
132,272,79660,6,0,P|236:256|284:244,1,135,4|4,0:0|0:0,0:0:0:0:
384,184,80644,2,0,L|404:332,1,135,4|4,0:0|0:0,0:0:0:0:
492,324,81463,2,0,L|480:232,1,89.9999999999999,10|10,0:0|0:0,0:0:0:0:
456,100,82283,2,0,P|420:72|324:68,1,135,4|4,0:0|0:0,0:0:0:0:
212,128,83268,1,4,0:0:0:0:
256,192,83431,12,0,88676,0:0:0:0:
