osu file format v14

[General]
AudioFilename: audio.mp3
AudioLeadIn: 0
PreviewTime: 189693
Countdown: 1
SampleSet: Soft
StackLeniency: 0.7
Mode: 0
LetterboxInBreaks: 0
WidescreenStoryboard: 0

[Editor]
Bookmarks: 48382,167726,178218
DistanceSpacing: 0.9
BeatDivisor: 4
GridSize: 4
TimelineZoom: 2.799999

[Metadata]
Title:Reason Living
TitleUnicode:Reason Living
Artist:SCREEN mode
ArtistUnicode:SCREEN mode
Creator:Pawlyk here
Version:Stray Dogs
Source:Bungo Stray Dogs
Tags:Hue ^w^
BeatmapID:1128686
BeatmapSetID:532689

[Difficulty]
HPDrainRate:6
CircleSize:4
OverallDifficulty:8.5
ApproachRate:9.3
SliderMultiplier:1.6
SliderTickRate:1

[Events]
//Background and Video events
0,0,"dazai-odasaku-and-ango-bungo_stray_dogs-(646).jpg",0,0
//Break Periods
2,167926,177008
//Storyboard Layer 0 (Background)
//Storyboard Layer 1 (Fail)
//Storyboard Layer 2 (Pass)
//Storyboard Layer 3 (Foreground)
//Storyboard Sound Samples

[TimingPoints]
379,365.853658536585,4,2,1,50,1,0
379,-200,4,2,1,50,0,0
561,365.853658536585,4,2,1,50,1,0
561,-133.333333333333,4,2,1,50,0,0
6415,327.868852459016,4,2,1,50,1,0
6415,-125,4,2,1,50,0,0
7398,-142.857142857143,4,2,1,50,0,0
8054,-142.857142857143,4,2,1,56,0,0
8382,-142.857142857143,4,2,1,61,0,0
8710,-142.857142857143,4,2,1,66,0,0
9037,-133.333333333333,4,2,1,81,0,0
11496,-90.9090909090909,4,2,1,81,0,0
11660,-90.9090909090909,4,2,1,81,0,1
14283,-86.9565217391304,4,2,1,81,0,1
14529,-90.9090909090909,4,2,1,81,0,1
15595,-76.9230769230769,4,2,1,81,0,1
15923,-71.4285714285714,4,2,1,81,0,1
16414,-83.3333333333333,4,2,1,81,0,1
17398,-90.9090909090909,4,2,1,81,0,1
18546,-83.3333333333333,4,2,1,81,0,1
19529,-83.3333333333333,4,2,1,81,0,0
22152,-83.3333333333333,4,2,1,81,0,1
22808,-90.9090909090909,4,2,1,81,0,1
24775,-125,4,2,1,81,0,0
25759,-90.9090909090909,4,2,1,5,0,0
25923,-133.333333333333,4,2,1,45,0,0
29037,-133.333333333333,4,2,1,50,0,0
29365,-133.333333333333,4,2,1,55,0,0
29611,-133.333333333333,4,2,1,60,0,0
30021,-117.647058823529,4,2,1,70,0,0
33792,-100,4,2,1,65,0,0
36414,-80,4,2,1,65,0,0
36742,-66.6666666666667,4,2,1,65,0,0
37890,-105.263157894737,4,2,1,65,0,0
40349,-90.9090909090909,4,2,1,65,0,0
41169,-100,4,2,1,65,0,0
41660,-86.9565217391304,4,2,1,65,0,0
43792,-100,4,2,1,65,0,0
46906,-83.3333333333333,4,2,1,65,0,0
48054,-100,4,2,1,65,0,0
48382,-90.9090909090909,4,2,1,65,0,0
54939,-83.3333333333333,4,2,1,65,0,0
58874,-76.9230769230769,4,2,1,65,0,0
60185,-111.111111111111,4,2,1,65,0,0
61496,-83.3333333333333,4,2,1,81,0,1
65431,-76.9230769230769,4,2,1,81,0,1
65759,-71.4285714285714,4,2,1,81,0,1
66414,-83.3333333333333,4,2,1,81,0,1
67398,-90.9090909090909,4,2,1,81,0,1
69365,-83.3333333333333,4,2,1,81,0,0
71988,-83.3333333333333,4,2,1,81,0,1
75923,-76.9230769230769,4,2,1,81,0,1
76251,-71.4285714285714,4,2,1,81,0,1
76578,-83.3333333333333,4,2,1,81,0,1
83136,-100,4,2,1,70,0,0
83464,-90.9090909090909,4,2,1,70,0,0
83792,-100,4,2,1,70,0,0
85103,-90.9090909090909,4,2,1,70,0,0
87726,-90.9090909090909,4,2,1,75,0,0
90349,-100,4,2,1,70,0,0
90677,-111.111111111111,4,2,1,70,0,0
94119,-83.3333333333333,4,2,1,70,0,0
96754,-76.9230769230769,4,2,1,70,0,0
97726,-83.3333333333333,4,2,1,70,0,0
98546,-90.9090909090909,4,2,1,70,0,0
100677,-86.9565217391304,4,2,1,70,0,0
101005,-90.9090909090909,4,2,1,70,0,0
101988,-83.3333333333333,4,2,1,70,0,0
103467,-90.9090909090909,4,2,1,70,0,0
107234,-80,4,2,1,70,0,0
108710,-90.9090909090909,4,2,1,70,0,0
115267,-83.3333333333333,4,2,1,70,0,0
119201,-76.9230769230769,4,2,1,70,0,0
120513,-111.111111111111,4,2,1,70,0,0
121824,-80,4,2,1,81,0,1
124455,-76.9230769230769,4,2,1,81,0,1
124941,-80,4,2,1,81,0,1
125759,-74.0740740740741,4,2,1,81,0,1
127398,-80,4,2,1,81,0,1
129693,-80,4,2,1,70,0,0
132316,-80,4,2,1,70,0,1
136251,-74.0740740740741,4,2,1,70,0,1
138218,-80,4,2,1,70,0,1
140185,-80,4,2,1,70,0,0
146414,-76.9230769230769,4,2,1,70,0,0
147070,-90.9090909090909,4,2,1,70,0,0
147726,-83.3333333333333,4,2,1,70,0,0
148054,-90.9090909090909,4,2,1,70,0,0
149365,-86.9565217391304,4,2,1,70,0,0
150349,-83.3333333333333,4,2,1,70,0,0
150677,-90.9090909090909,4,2,1,70,0,0
155431,-83.3333333333333,4,2,1,70,0,0
155759,-86.9565217391304,4,2,1,70,0,0
156578,-83.3333333333333,4,2,1,70,0,0
157234,-90.9090909090909,4,2,1,70,0,0
167562,-90.9090909090909,4,2,1,50,0,0
167726,-90.9090909090909,4,2,2,45,0,0
177562,-90.9090909090909,4,2,1,75,0,0
179365,-95.2380952380952,4,2,1,75,0,0
183300,-86.9565217391304,4,2,1,75,0,0
184611,-83.3333333333333,4,2,1,75,0,0
185923,-80,4,2,1,75,0,0
187234,-76.9230769230769,4,2,1,75,0,0
189693,-80,4,2,1,70,0,0
190021,-80,4,2,1,81,0,1
192644,-76.9230769230769,4,2,1,81,0,1
193136,-80,4,2,1,81,0,1
193955,-74.0740740740741,4,2,1,81,0,1
195267,-80,4,2,1,81,0,1
195595,-80,4,2,1,81,0,1
197890,-80,4,2,1,81,0,0
200513,-74.0740740740741,4,2,1,81,0,1
204447,-71.4285714285714,4,2,1,81,0,1
205103,-76.9230769230769,4,2,1,81,0,1
208382,-83.3333333333333,4,2,1,70,0,0
208710,-90.9090909090909,4,2,1,70,0,0
211988,-86.9565217391304,4,2,1,70,0,0
212644,-90.9090909090909,4,2,1,70,0,0
224119,-83.3333333333333,4,2,1,70,0,0
228710,-133.333333333333,4,2,1,70,0,0
229037,-83.3333333333333,4,2,1,70,0,0
236578,-83.3333333333333,4,2,1,5,0,0

[HitObjects]
128,176,379,6,0,L|132:140,1,20
128,192,561,2,0,B|204:200|236:184|236:184|260:196|260:196|284:184|284:184|304:192,1,180.000006866455,2|0,0:0|0:0,0:0:0:0:
380,256,1293,2,2,L|392:120,2,120.000004577637,10|2|2,0:0|0:0|0:0,0:0:0:0:
302,191,2574,1,0,0:0:0:0:
300,300,2757,2,0,B|352:356|424:328|424:328|416:352|428:384,1,180.000006866455,10|0,0:0|0:0,0:0:0:0:
492,332,3488,6,0,B|492:296|476:284|476:284|484:244|472:192,2,120.000004577637,2|0|10,0:0|0:0|0:0,0:0:0:0:
328,160,4769,1,0,0:0:0:0:
356,68,4952,2,0,P|297:65|249:100,1,120.000004577637,2|0,0:0|0:0,0:0:0:0:
176,172,5501,1,0,0:0:0:0:
80,164,5683,2,0,B|88:124|104:112|104:112|92:76|112:28,1,120.000004577637,8|0,0:0|0:0,0:0:0:0:
180,80,6232,1,2,0:0:0:0:
192,92,6324,1,0,0:0:0:0:
204,104,6415,6,0,P|244:96|288:96,1,64,2|0,0:0|0:0,0:0:0:0:
400,184,6742,2,0,L|320:184,1,64
472,316,7070,2,0,P|476:268|472:228,1,64,8|0,0:0|0:0,0:0:0:0:
368,248,7316,1,0,0:0:0:0:
360,256,7398,2,0,L|312:256,2,27.9999991455078,4|0|0,0:0|0:0|0:0,0:0:0:0:
332,116,7726,5,0,0:0:0:0:
336,112,7808,1,0,0:0:0:0:
344,112,7890,1,0,0:0:0:0:
352,116,7972,1,0,0:0:0:0:
364,124,8054,1,0,0:0:0:0:
388,132,8136,1,0,0:0:0:0:
412,128,8218,1,0,0:0:0:0:
440,112,8300,1,0,0:0:0:0:
448,68,8382,5,0,0:0:0:0:
416,100,8464,1,0,0:0:0:0:
412,148,8546,1,0,0:0:0:0:
432,192,8628,1,0,0:0:0:0:
468,232,8710,1,0,0:0:0:0:
476,288,8792,1,0,0:0:0:0:
452,340,8874,1,0,0:0:0:0:
400,356,8955,1,0,0:0:0:0:
355,325,9037,6,0,B|307:273|243:293|243:293|259:269|259:269|235:253|235:253|259:237|259:237|243:213|243:213|243:189|283:177|283:177|295:145|279:125|279:125|251:121|251:121|215:97|215:41|279:21|351:45|355:93|459:65,1,660.000025177003,12|0,0:0|0:0,0:0:0:0:
452,60,10923,1,0,0:0:0:0:
460,48,11005,1,8,0:0:0:0:
412,156,11169,1,12,0:0:0:0:
192,360,11496,1,0,0:0:0:0:
292,268,11660,6,0,P|336:260|404:280,1,88.000002685547,8|0,0:0|0:0,0:0:0:0:
336,372,11988,1,8,0:0:0:0:
244,192,12152,1,0,0:0:0:0:
448,224,12316,2,0,P|460:268|440:324,1,88.000002685547
416,80,12644,1,8,0:0:0:0:
296,276,12808,1,0,0:0:0:0:
296,276,12890,1,0,0:0:0:0:
296,276,12972,5,0,0:0:0:0:
464,196,13136,1,0,0:0:0:0:
324,60,13300,2,0,L|220:60,1,88.000002685547,8|0,0:0|0:0,0:0:0:0:
204,76,13546,1,0,0:0:0:0:
168,64,13628,2,0,L|160:4,1,44.0000013427735,2|0,0:0|0:0,0:0:0:0:
216,148,13792,1,0,0:0:0:0:
88,60,13955,1,8,0:0:0:0:
160,224,14119,1,0,0:0:0:0:
308,64,14283,6,0,P|340:128|312:200,1,138.000002632141,8|0,0:0|0:0,0:0:0:0:
348,268,14611,1,8,0:0:0:0:
256,132,14775,1,0,0:0:0:0:
144,220,14939,1,0,0:0:0:0:
325,176,15103,1,0,0:0:0:0:
176,332,15267,1,8,0:0:0:0:
68,152,15431,1,0,0:0:0:0:
68,152,15513,1,0,0:0:0:0:
68,152,15595,6,0,P|108:120|184:128,1,103.999995239258,12|0,0:0|0:0,0:0:0:0:
324,320,15923,2,0,P|328:260|320:204,1,111.999996582031,8|0,0:0|0:0,0:0:0:0:
167,65,16251,1,8,0:0:0:0:
159,117,16333,1,8,0:0:0:0:
179,153,16414,1,8,0:0:0:0:
219,165,16496,1,0,0:0:0:0:
263,161,16578,2,0,L|339:121,1,47.9999985351563
412,124,16742,2,0,L|400:204,1,47.9999985351563
368,24,16906,6,0,P|452:16|508:80,1,143.999995605469,12|0,0:0|0:0,0:0:0:0:
472,160,17234,2,0,L|460:276,1,95.9999970703126,8|0,0:0|0:0,0:0:0:0:
412,336,17480,1,0,0:0:0:0:
392,312,17562,2,0,L|288:304,2,88.000002685547,2|0|10,0:0|0:0|0:0,0:0:0:0:
404,171,18054,1,0,0:0:0:0:
228,368,18218,6,0,P|204:304|240:232,1,132.00000402832
304,232,18546,2,0,L|348:184,1,47.9999985351563,8|0,0:0|0:0,0:0:0:0:
248,92,18710,2,0,P|192:76|132:112,1,95.9999970703126,8|0,0:0|0:0,0:0:0:0:
56,220,19037,1,8,0:0:0:0:
204,180,19201,1,8,0:0:0:0:
56,56,19365,1,0,0:0:0:0:
248,4,19529,5,12,0:0:0:0:
248,4,19693,1,8,0:0:0:0:
204,180,19857,1,0,0:0:0:0:
412,96,20021,1,8,0:0:0:0:
412,96,20185,1,8,0:0:0:0:
184,132,20349,1,0,0:0:0:0:
412,264,20513,1,8,0:0:0:0:
412,264,20677,1,8,0:0:0:0:
304,36,20841,5,0,0:0:0:0:
208,240,21005,1,8,0:0:0:0:
352,148,21169,1,8,0:0:0:0:
112,96,21333,1,0,0:0:0:0:
208,328,21496,1,8,3:0:0:0:
248,316,21578,1,8,3:0:0:0:
280,288,21660,1,8,3:0:0:0:
288,244,21742,1,0,3:0:0:0:
280,200,21824,2,0,L|260:124,1,47.9999985351563,8|0,3:0|3:0,3:0:0:0:
360,128,21988,2,0,L|428:104,1,47.9999985351563,0|0,3:0|3:0,3:0:0:0:
308,40,22152,6,0,P|232:36|172:92,1,143.999995605469,12|0,0:0|0:0,0:0:0:0:
152,172,22480,2,0,L|52:160,1,95.9999970703126,8|0,0:0|0:0,0:0:0:0:
204,232,22726,1,0,0:0:0:0:
224,236,22808,2,0,L|229:130,1,88.000002685547,2|0,0:0|0:0,0:0:0:0:
132,288,23136,1,10,0:0:0:0:
296,124,23300,1,0,0:0:0:0:
224,328,23464,5,8,0:0:0:0:
56,160,23628,1,0,0:0:0:0:
308,184,23792,1,10,0:0:0:0:
128,376,23955,1,8,0:0:0:0:
128,376,24119,1,0,0:0:0:0:
336,280,24283,1,10,0:0:0:0:
152,144,24447,1,0,0:0:0:0:
212,360,24611,1,4,0:0:0:0:
212,360,24775,6,0,B|244:344|236:312|236:312|224:292|224:292|236:272|236:272|220:248|220:248|236:228|236:228|212:212|212:212|232:180|232:180|208:160|208:160|232:128|232:128|196:100|236:36,1,384
372,104,25923,6,0,L|424:92,1,30.0000011444092
360,116,26087,2,0,P|348:192|364:240,1,120.000004577637
224,88,27070,6,0,L|96:104,1,120.000004577637
244,284,28546,5,0,0:0:0:0:
272,280,28628,1,0,0:0:0:0:
300,272,28710,2,0,L|360:288,1,60.0000022888184
292,188,29037,2,0,L|272:120,1,60.0000022888184
312,68,29283,1,0,0:0:0:0:
336,80,29365,6,0,L|408:88,1,60.0000022888184
448,132,29611,1,0,0:0:0:0:
468,80,29693,1,0,0:0:0:0:
448,32,29775,1,0,0:0:0:0:
400,12,29857,1,0,0:0:0:0:
348,32,29939,1,0,0:0:0:0:
320,68,30021,6,0,L|220:68,1,68.0000012969971,8|0,0:0|0:0,0:0:0:0:
224,176,30349,2,0,L|148:176,1,68.0000012969971,8|0,0:0|0:0,0:0:0:0:
136,284,30677,2,0,L|44:284,1,68.0000012969971,8|0,0:0|0:0,0:0:0:0:
156,176,31005,1,8,0:0:0:0:
132,360,31169,2,0,P|176:352|216:284,1,102.000001945496
252,304,31496,2,0,L|340:304,1,68.0000012969971,0|8,0:0|0:0,0:0:0:0:
428,344,31824,1,0,0:0:0:0:
428,344,31906,1,0,0:0:0:0:
428,344,31988,2,0,L|428:256,2,68.0000012969971,0|0|8,0:0|0:0|0:0,0:0:0:0:
496,228,32480,6,0,L|496:100,1,102.000001945496
432,80,32808,2,0,P|464:56|516:56,1,68.0000012969971,0|8,0:0|0:0,0:0:0:0:
368,160,33136,1,0,0:0:0:0:
308,48,33300,1,0,0:0:0:0:
432,80,33464,1,0,0:0:0:0:
320,216,33628,1,8,0:0:0:0:
208,48,33792,6,0,L|204:-8,1,40,8|0,0:0|0:0,0:0:0:0:
172,280,34119,2,0,L|152:324,1,40,8|0,0:0|0:0,0:0:0:0:
384,128,34447,2,0,L|408:84,1,40
172,280,34775,2,0,L|155:240,1,40,8|0,0:0|0:0,0:0:0:0:
124,152,34939,5,0,0:0:0:0:
360,116,35103,2,0,L|397:103,2,40,8|0|0,0:0|0:0|0:0,0:0:0:0:
332,243,35431,1,8,0:0:0:0:
284,247,35513,1,0,0:0:0:0:
240,271,35595,1,8,0:0:0:0:
192,271,35677,1,0,0:0:0:0:
156,243,35759,1,0,0:0:0:0:
204,104,35923,1,8,0:0:0:0:
156,243,36087,1,0,0:0:0:0:
68,112,36251,5,0,0:0:0:0:
192,20,36414,2,0,L|252:-4,1,50,10|0,0:0|0:0,0:0:0:0:
80,264,36742,2,0,L|44:184,1,60.0000022888184,10|0,0:0|0:0,0:0:0:0:
392,136,37070,2,0,L|424:216,1,60.0000022888184,10|0,0:0|0:0,0:0:0:0:
200,344,37398,2,0,L|216:272,1,60.0000022888184,2|0,0:0|0:0,0:0:0:0:
232,200,37562,1,0,0:0:0:0:
316,352,37726,1,0,0:0:0:0:
316,352,37808,1,0,0:0:0:0:
316,352,37890,5,8,0:0:0:0:
152,252,38054,1,0,0:0:0:0:
312,192,38218,1,8,0:0:0:0:
204,332,38382,1,0,0:0:0:0:
116,156,38546,2,0,L|128:76,1,75.9999979705811,2|0,0:0|0:0,0:0:0:0:
240,212,38874,1,8,0:0:0:0:
252,56,39037,6,0,P|312:24|384:48,1,113.999996955872
424,96,39365,2,0,L|344:132,1,75.9999979705811,0|8,0:0|0:0,0:0:0:0:
316,204,39693,1,0,0:0:0:0:
316,204,39775,1,0,0:0:0:0:
316,204,39857,1,0,0:0:0:0:
410,90,40021,1,0,0:0:0:0:
252,56,40185,5,8,0:0:0:0:
416,216,40349,2,0,B|440:164|412:120|412:120|416:100|416:100|406:81,1,132.00000402832,8|0,0:0|0:0,0:0:0:0:
448,32,40677,1,0,0:0:0:0:
336,172,40841,1,10,0:0:0:0:
248,48,41005,1,0,0:0:0:0:
216,44,41087,1,0,0:0:0:0:
192,48,41169,2,0,L|188:136,2,80,0|0|8,0:0|0:0|0:0,0:0:0:0:
96,260,41660,6,0,L|104:164,1,92.0000017547608,8|0,0:0|0:0,0:0:0:0:
284,304,41988,2,0,L|288:200,1,92.0000017547608,8|2,0:0|0:0,0:0:0:0:
456,24,42316,2,0,L|440:132,1,92.0000017547608,8|0,0:0|0:0,0:0:0:0:
379,216,42644,1,8,0:0:0:0:
332,184,42726,1,0,0:0:0:0:
280,200,42808,1,8,0:0:0:0:
268,252,42890,1,0,0:0:0:0:
284,304,42972,1,0,0:0:0:0:
276,360,43054,1,0,0:0:0:0:
240,384,43136,6,0,L|352:384,1,92.0000017547608,8|0,0:0|0:0,0:0:0:0:
468,312,43464,1,10,0:0:0:0:
328,248,43628,1,0,0:0:0:0:
435,95,43792,2,0,L|512:120,1,80
288,140,44119,2,0,P|280:96|300:44,1,80,8|0,0:0|0:0,0:0:0:0:
112,164,44447,2,0,P|100:240|116:312,1,120
140,344,44775,2,0,L|236:344,2,80,8|0|0,0:0|0:0|0:0,0:0:0:0:
32,276,45267,1,0,0:0:0:0:
168,184,45431,5,8,0:0:0:0:
56,48,45595,2,0,P|116:20|184:28,1,120,4|0,0:0|0:0,0:0:0:0:
208,108,45923,1,0,0:0:0:0:
348,60,46087,1,8,0:0:0:0:
252,196,46251,1,0,0:0:0:0:
252,196,46333,1,0,0:0:0:0:
252,196,46414,1,8,0:0:0:0:
168,22,46578,1,0,0:0:0:0:
332,136,46742,1,8,0:0:0:0:
144,256,46906,6,0,P|125:203|132:148,1,95.9999970703126,8|0,0:0|0:0,0:0:0:0:
80,384,47234,2,0,L|176:376,1,95.9999970703126,8|2,0:0|0:0,0:0:0:0:
220,192,47562,1,8,0:0:0:0:
336,336,47726,1,10,0:0:0:0:
344,296,47808,1,0,0:0:0:0:
328,260,47890,1,8,0:0:0:0:
330,218,47972,1,0,0:0:0:0:
340,180,48054,2,0,L|393:165,1,40
448,252,48218,2,0,L|404:268,1,40,8|0,0:0|0:0,0:0:0:0:
280,124,48382,6,0,L|271:12,1,88.000002685547,8|0,0:0|0:0,0:0:0:0:
192,296,48710,1,8,0:0:0:0:
96,128,48874,1,0,0:0:0:0:
312,288,49037,1,8,0:0:0:0:
368,104,49201,1,0,0:0:0:0:
132,240,49365,5,8,0:0:0:0:
360,216,49529,1,0,0:0:0:0:
128,56,49693,1,8,0:0:0:0:
380,36,49857,1,0,0:0:0:0:
272,224,50021,1,8,0:0:0:0:
128,56,50185,1,0,0:0:0:0:
344,152,50349,1,8,0:0:0:0:
152,312,50513,2,0,L|144:268,1,44.0000013427735,8|0,0:0|0:0,0:0:0:0:
116,132,50677,5,8,0:0:0:0:
316,340,50841,2,0,B|352:332|360:312|360:312|388:312|388:312|400:296|400:296|404:260|476:256,1,176.000005371094,12|8,0:0|0:0,0:0:0:0:
464,356,51333,1,0,0:0:0:0:
344,238,51496,1,0,0:0:0:0:
344,238,51578,1,0,0:0:0:0:
344,238,51660,2,0,P|336:186|344:150,1,88.000002685547,8|0,0:0|0:0,0:0:0:0:
420,104,51988,6,0,P|372:68|304:76,1,132.00000402832,2|0,0:0|0:0,0:0:0:0:
228,108,52316,2,0,L|240:20,2,88.000002685547,0|8|0,0:0|0:0|0:0,0:0:0:0:
344,238,52808,1,8,0:0:0:0:
212,316,52972,1,8,0:0:0:0:
172,324,53054,1,0,0:0:0:0:
136,320,53136,1,8,0:0:0:0:
100,296,53218,1,0,0:0:0:0:
128,244,53300,1,0,0:0:0:0:
136,204,53382,1,0,0:0:0:0:
136,164,53464,1,8,0:0:0:0:
132,124,53546,1,0,0:0:0:0:
116,88,53628,5,8,0:0:0:0:
48,200,53792,1,0,0:0:0:0:
192,236,53955,1,8,0:0:0:0:
176,32,54119,1,0,0:0:0:0:
48,200,54283,1,8,0:0:0:0:
252,116,54447,1,0,0:0:0:0:
44,68,54611,1,8,0:0:0:0:
148,240,54775,1,0,0:0:0:0:
304,48,54939,6,0,L|440:36,1,95.9999970703126,8|0,0:0|0:0,0:0:0:0:
308,296,55267,2,0,L|200:320,1,95.9999970703126,8|0,0:0|0:0,0:0:0:0:
96,116,55595,1,8,0:0:0:0:
140,136,55677,1,0,0:0:0:0:
152,184,55759,1,8,0:0:0:0:
120,220,55841,1,0,0:0:0:0:
72,224,55923,5,0,0:0:0:0:
32,56,56087,2,0,P|120:36|200:96,1,191.999994140625,12|0,0:0|0:0,0:0:0:0:
204,236,56578,1,0,0:0:0:0:
328,128,56742,1,8,0:0:0:0:
328,128,56824,1,0,0:0:0:0:
328,128,56906,1,0,0:0:0:0:
96,116,57070,1,0,0:0:0:0:
256,304,57234,2,0,P|194:338|126:321,1,143.999995605469,8|0,0:0|0:0,0:0:0:0:
92,288,57562,6,0,L|68:396,1,95.9999970703126,8|0,0:0|0:0,0:0:0:0:
256,304,57890,1,0,0:0:0:0:
148,180,58054,1,8,0:0:0:0:
336,252,58218,1,8,0:0:0:0:
376,260,58300,1,0,0:0:0:0:
408,252,58382,1,0,0:0:0:0:
444,224,58464,1,0,0:0:0:0:
404,176,58546,1,0,0:0:0:0:
400,144,58628,1,0,0:0:0:0:
396,96,58710,1,8,0:0:0:0:
396,48,58792,1,0,0:0:0:0:
428,8,58874,6,0,L|432:120,1,103.999995239258,8|0,0:0|0:0,0:0:0:0:
216,4,59201,1,10,0:0:0:0:
336,212,59365,1,0,0:0:0:0:
168,256,59529,1,8,0:0:0:0:
144,228,59611,1,0,0:0:0:0:
140,200,59693,1,8,0:0:0:0:
144,168,59775,1,0,0:0:0:0:
168,136,59857,1,0,0:0:0:0:
176,84,59939,1,0,0:0:0:0:
152,52,60021,2,0,B|120:36|120:36|80:44,1,51.999997619629
260,128,60185,6,0,B|312:84|408:124|408:124|448:124|464:80|440:36|396:56,1,287.999991210938,4|0,0:0|0:0,0:0:0:0:
336,208,61005,1,8,0:0:0:0:
336,208,61087,1,0,0:0:0:0:
336,208,61169,1,8,0:0:0:0:
496,168,61333,1,0,0:0:0:0:
312,32,61496,6,0,P|264:24|188:52,1,95.9999970703126,8|0,0:0|0:0,0:0:0:0:
168,248,61824,1,8,0:0:0:0:
300,144,61988,1,0,0:0:0:0:
96,100,62152,2,0,P|76:56|96:-8,1,95.9999970703126
300,144,62480,2,0,L|172:172,1,95.9999970703126,10|0,0:0|0:0,0:0:0:0:
152,236,62726,1,0,0:0:0:0:
168,248,62808,6,0,L|304:244,1,95.9999970703126
388,124,63136,1,8,0:0:0:0:
464,312,63300,2,0,L|460:360,1,47.9999985351563
368,356,63464,1,0,0:0:0:0:
488,240,63628,1,0,0:0:0:0:
300,144,63792,1,10,0:0:0:0:
444,56,63955,1,8,0:0:0:0:
364,236,64119,6,0,P|288:252|228:220,1,143.999995605469
168,156,64447,1,8,0:0:0:0:
304,148,64611,1,0,0:0:0:0:
152,264,64775,1,0,0:0:0:0:
208,68,64939,1,0,0:0:0:0:
48,172,65103,1,8,0:0:0:0:
228,328,65267,1,0,0:0:0:0:
228,328,65349,1,0,0:0:0:0:
228,328,65431,6,0,P|244:268|216:200,1,103.999995239258,8|0,0:0|0:0,0:0:0:0:
64,16,65759,2,0,P|40:72|60:136,1,111.999996582031,10|0,0:0|0:0,0:0:0:0:
192,276,66087,1,8,0:0:0:0:
204,232,66169,1,0,0:0:0:0:
200,188,66251,1,8,0:0:0:0:
188,144,66333,1,0,0:0:0:0:
196,100,66414,2,0,B|216:80|216:80|256:72,1,47.9999985351563
348,168,66578,2,0,L|332:240,1,47.9999985351563,8|0,0:0|0:0,0:0:0:0:
460,108,66742,6,0,P|424:56|328:40,1,143.999995605469,8|0,0:0|0:0,0:0:0:0:
235,76,67070,2,0,L|119:76,1,95.9999970703126,8|0,0:0|0:0,0:0:0:0:
68,132,67316,1,0,0:0:0:0:
52,120,67398,2,0,L|52:8,1,88.000002685547,2|0,0:0|0:0,0:0:0:0:
208,176,67726,1,8,0:0:0:0:
56,264,67890,1,0,0:0:0:0:
280,224,68054,6,0,P|296:160|256:96,1,132.00000402832
308,40,68382,2,0,L|356:12,1,44.0000013427735,10|0,0:0|0:0,0:0:0:0:
464,136,68546,2,0,P|424:152|340:144,1,88.000002685547
254,96,68874,1,0,0:0:0:0:
200,284,69037,1,8,0:0:0:0:
92,120,69201,1,0,0:0:0:0:
340,184,69365,5,8,0:0:0:0:
340,184,69529,1,8,0:0:0:0:
144,160,69693,1,0,0:0:0:0:
300,316,69857,1,8,0:0:0:0:
300,316,70021,1,8,0:0:0:0:
224,96,70185,1,0,0:0:0:0:
92,324,70349,1,8,0:0:0:0:
92,324,70513,1,8,0:0:0:0:
268,152,70677,5,0,0:0:0:0:
68,176,70841,1,8,0:0:0:0:
240,284,71005,1,8,0:0:0:0:
172,80,71169,1,0,0:0:0:0:
340,208,71333,1,8,3:0:0:0:
364,168,71414,1,0,3:0:0:0:
356,120,71496,1,8,3:0:0:0:
332,80,71578,1,0,3:0:0:0:
296,48,71660,2,0,B|272:48|272:48|248:32,1,47.9999985351563,0|0,3:0|3:0,3:0:0:0:
444,84,71824,2,0,L|524:88,1,47.9999985351563,8|0,3:0|3:0,3:0:0:0:
392,264,71988,6,0,P|320:284|259:246,1,143.999995605469,12|0,0:0|0:0,0:0:0:0:
236,160,72316,2,0,L|120:152,1,95.9999970703126,8|0,0:0|0:0,0:0:0:0:
76,84,72562,1,0,0:0:0:0:
56,108,72644,2,0,L|48:216,2,95.9999970703126,2|0|8,0:0|0:0|0:0,0:0:0:0:
216,48,73136,1,0,0:0:0:0:
224,248,73300,6,0,P|276:264|324:256,1,95.9999970703126
384,92,73628,1,8,0:0:0:0:
500,284,73792,1,0,0:0:0:0:
500,284,73874,1,0,0:0:0:0:
500,284,73955,1,0,0:0:0:0:
316,258,74119,1,0,0:0:0:0:
456,128,74283,1,10,0:0:0:0:
372,324,74447,1,0,0:0:0:0:
223,119,74611,6,0,P|195:183|223:247,1,143.999995605469,8|0,0:0|0:0,0:0:0:0:
270,121,74939,2,0,L|182:117,1,47.9999985351563,8|0,0:0|0:0,0:0:0:0:
107,135,75103,2,0,P|100:86|119:39,1,95.9999970703126,8|2,0:0|0:0,0:0:0:0:
272,184,75431,1,0,0:0:0:0:
328,16,75595,1,10,0:0:0:0:
116,44,75759,1,0,0:0:0:0:
264,289,75923,6,0,P|276:233|263:178,1,103.999995239258,12|0,0:0|0:0,0:0:0:0:
52,0,76251,2,0,P|40:60|64:128,1,111.999996582031,8|0,0:0|0:0,0:0:0:0:
288,152,76578,1,8,0:0:0:0:
244,168,76660,1,0,0:0:0:0:
196,168,76742,1,8,0:0:0:0:
148,156,76824,1,0,0:0:0:0:
124,196,76906,2,0,L|144:268,1,47.9999985351563
256,292,77070,2,0,L|332:268,1,47.9999985351563,8|0,0:0|0:0,0:0:0:0:
57,249,77234,6,0,P|41:173|61:85,1,143.999995605469,12|0,0:0|0:0,0:0:0:0:
152,60,77562,2,0,L|156:-8,1,47.9999985351563,8|0,0:0|0:0,0:0:0:0:
244,160,77726,1,0,0:0:0:0:
340,48,77890,2,0,P|424:48|464:104,1,143.999995605469,2|0,0:0|0:0,0:0:0:0:
396,180,78218,6,0,L|312:192,1,47.9999985351563,8|0,0:0|0:0,0:0:0:0:
468,308,78382,2,0,L|468:188,1,95.9999970703126,0|8,0:0|0:0,0:0:0:0:
252,216,78710,1,0,0:0:0:0:
384,116,78874,1,8,0:0:0:0:
348,308,79037,1,0,0:0:0:0:
348,308,79119,1,0,0:0:0:0:
348,308,79201,1,8,0:0:0:0:
188,144,79365,1,0,0:0:0:0:
384,112,79529,1,8,0:0:0:0:
268,288,79693,1,0,0:0:0:0:
120,100,79857,5,8,0:0:0:0:
120,100,80021,1,8,0:0:0:0:
176,328,80185,1,0,0:0:0:0:
296,120,80349,1,8,0:0:0:0:
296,120,80513,1,8,0:0:0:0:
80,200,80677,1,0,0:0:0:0:
296,320,80841,1,8,0:0:0:0:
296,320,81005,1,8,0:0:0:0:
200,92,81169,5,0,0:0:0:0:
128,248,81333,1,8,0:0:0:0:
320,236,81496,1,8,0:0:0:0:
116,80,81660,1,0,0:0:0:0:
184,316,81824,1,10,0:0:0:0:
220,292,81906,1,0,0:0:0:0:
264,288,81988,1,10,0:0:0:0:
304,308,82070,1,0,0:0:0:0:
348,308,82152,2,0,L|360:380,1,47.9999985351563
436,240,82316,2,0,L|427:192,1,47.9999985351563,8|0,0:0|0:0,0:0:0:0:
352,72,82480,6,0,P|384:44|452:40,1,95.9999970703126,8|0,0:0|0:0,0:0:0:0:
264,208,82808,1,8,0:0:0:0:
427,192,82972,1,8,0:0:0:0:
240,80,83136,2,0,L|228:-8,1,80
328,229,83464,2,0,P|254:272|176:240,1,176.000005371094,12|0,0:0|0:0,0:0:0:0:
368,96,83955,1,0,0:0:0:0:
456,192,84119,2,0,P|464:240|444:300,1,80,10|0,0:0|0:0,0:0:0:0:
268,172,84447,2,0,P|257:129|261:93,1,80
84,272,84775,2,0,L|196:268,1,80,8|0,0:0|0:0,0:0:0:0:
196,232,85021,1,0,0:0:0:0:
228,252,85103,6,0,L|244:368,1,88.000002685547,8|0,0:0|0:0,0:0:0:0:
320,160,85431,1,8,0:0:0:0:
84,272,85595,1,0,0:0:0:0:
160,136,85759,1,0,0:0:0:0:
240,339,85923,1,0,0:0:0:0:
400,128,86087,6,0,P|354:78|252:104,1,176.000005371094,12|0,0:0|0:0,0:0:0:0:
166,223,86578,1,0,0:0:0:0:
166,223,86660,1,0,0:0:0:0:
166,223,86742,2,0,L|158:119,1,88.000002685547,8|0,0:0|0:0,0:0:0:0:
84,260,87070,1,0,0:0:0:0:
84,80,87234,1,0,0:0:0:0:
216,240,87398,1,8,0:0:0:0:
256,248,87480,1,0,0:0:0:0:
292,240,87562,1,8,0:0:0:0:
332,224,87644,1,0,0:0:0:0:
372,232,87726,5,8,0:0:0:0:
492,340,87890,1,0,0:0:0:0:
336,320,88054,1,8,0:0:0:0:
408,176,88218,1,0,0:0:0:0:
276,268,88382,1,10,0:0:0:0:
448,320,88546,1,0,0:0:0:0:
372,104,88710,1,10,0:0:0:0:
216,244,88874,1,0,0:0:0:0:
408,268,89037,5,8,0:0:0:0:
208,88,89201,1,0,0:0:0:0:
208,316,89365,1,10,0:0:0:0:
368,156,89529,1,0,0:0:0:0:
120,36,89693,5,8,0:0:0:0:
104,80,89775,1,0,0:0:0:0:
108,128,89857,1,8,0:0:0:0:
128,172,89939,1,0,0:0:0:0:
176,184,90021,1,0,0:0:0:0:
204,224,90103,1,0,0:0:0:0:
188,268,90185,1,8,0:0:0:0:
140,280,90267,1,0,0:0:0:0:
92,248,90349,6,0,L|-8:248,1,80,8|0,0:0|0:0,0:0:0:0:
104,364,90677,2,0,P|140:368|192:364,1,71.9999978027344,8|0,0:0|0:0,0:0:0:0:
320,236,91005,2,0,B|280:228|280:228|216:236,1,71.9999978027344,8|0,0:0|0:0,0:0:0:0:
182,367,91333,1,8,0:0:0:0:
144,200,91496,2,0,P|144:128|164:76,1,107.999996704102
196,108,91824,2,0,P|232:108|280:108,1,71.9999978027344,0|8,0:0|0:0,0:0:0:0:
392,40,92152,1,0,0:0:0:0:
392,40,92234,1,0,0:0:0:0:
392,40,92316,5,0,0:0:0:0:
320,160,92480,1,0,0:0:0:0:
248,48,92644,1,8,0:0:0:0:
384,216,92808,2,0,P|400:160|380:108,1,107.999996704102,8|0,0:0|0:0,0:0:0:0:
336,256,93136,2,0,L|232:268,1,71.9999978027344,0|8,0:0|0:0,0:0:0:0:
184,160,93464,1,0,0:0:0:0:
152,284,93628,1,0,0:0:0:0:
296,184,93792,1,0,0:0:0:0:
252,352,93955,5,8,0:0:0:0:
112,196,94119,2,0,L|40:184,1,47.9999985351563,8|0,0:0|0:0,0:0:0:0:
341,134,94447,2,0,L|385:114,1,47.9999985351563,8|0,0:0|0:0,0:0:0:0:
244,304,94775,2,0,L|269:380,1,47.9999985351563,8|0,0:0|0:0,0:0:0:0:
132,124,95103,2,0,L|124:60,1,47.9999985351563,8|0,0:0|0:0,0:0:0:0:
44,40,95267,5,0,0:0:0:0:
240,224,95431,2,0,L|312:224,2,47.9999985351563,8|0|0,0:0|0:0|0:0,0:0:0:0:
247,33,95759,1,8,0:0:0:0:
207,17,95841,1,0,0:0:0:0:
167,33,95923,1,8,0:0:0:0:
143,69,96005,1,0,0:0:0:0:
143,113,96087,1,0,0:0:0:0:
155,161,96169,1,0,0:0:0:0:
139,205,96251,1,8,0:0:0:0:
64,280,96414,1,0,0:0:0:0:
252,188,96578,5,8,0:0:0:0:
48,112,96742,2,0,L|-8:76,1,47.9999985351563,10|0,0:0|0:0,0:0:0:0:
160,332,97070,2,0,L|111:349,1,51.999997619629,10|0,0:0|0:0,0:0:0:0:
232,80,97398,2,0,L|284:56,1,51.999997619629,10|0,0:0|0:0,0:0:0:0:
404,220,97726,2,0,L|384:263,1,47.9999985351563,8|0,0:0|0:0,0:0:0:0:
336,360,97890,1,8,0:0:0:0:
480,340,98054,1,0,0:0:0:0:
480,340,98136,1,0,0:0:0:0:
480,340,98218,5,8,0:0:0:0:
324,240,98382,1,0,0:0:0:0:
468,136,98546,2,0,P|472:80|464:44,1,88.000002685547,8|0,0:0|0:0,0:0:0:0:
256,80,98874,1,2,0:0:0:0:
336,220,99037,1,0,0:0:0:0:
400,88,99201,1,8,0:0:0:0:
184,148,99365,2,0,P|160:100|184:16,1,132.00000402832
256,80,99693,2,0,P|284:124|276:184,1,88.000002685547,0|8,0:0|0:0,0:0:0:0:
208,232,100021,1,0,0:0:0:0:
208,232,100103,1,0,0:0:0:0:
208,232,100185,5,0,0:0:0:0:
112,136,100349,1,0,0:0:0:0:
256,80,100513,1,8,0:0:0:0:
56,204,100677,2,0,P|26:140|52:72,1,138.000002632141,4|0,0:0|0:0,0:0:0:0:
116,44,101005,1,0,0:0:0:0:
212,232,101169,2,0,P|264:240|320:224,1,88.000002685547,8|0,0:0|0:0,0:0:0:0:
332,212,101414,1,0,0:0:0:0:
348,224,101496,2,0,L|348:352,1,88.000002685547
276,312,101824,5,8,0:0:0:0:
432,152,101988,2,0,P|392:116|312:136,1,95.9999970703126,8|0,0:0|0:0,0:0:0:0:
152,60,102316,2,0,P|196:36|256:44,1,95.9999970703126,8|0,0:0|0:0,0:0:0:0:
256,280,102644,2,0,P|272:228|252:148,1,95.9999970703126,8|0,0:0|0:0,0:0:0:0:
84,256,102972,1,8,0:0:0:0:
128,248,103054,1,0,0:0:0:0:
156,216,103136,1,8,0:0:0:0:
164,172,103218,1,0,0:0:0:0:
144,132,103300,1,0,0:0:0:0:
148,88,103382,1,0,0:0:0:0:
176,52,103464,6,0,L|76:52,2,95.9999970703126,8|0|8,0:0|0:0|0:0,0:0:0:0:
260,176,103955,1,0,0:0:0:0:
332,48,104119,1,0,0:0:0:0:
176,52,104283,1,0,0:0:0:0:
400,0,104447,2,0,P|415:40|409:83,1,88.000002685547,8|0,0:0|0:0,0:0:0:0:
472,272,104775,6,0,P|492:200|468:132,1,132.00000402832
409,83,105103,2,0,L|296:80,1,88.000002685547,8|0,0:0|0:0,0:0:0:0:
272,248,105431,2,0,P|284:204|268:152,1,88.000002685547
188,56,105759,1,8,0:0:0:0:
352,272,105923,2,0,P|304:328|236:324,1,132.00000402832,4|0,0:0|0:0,0:0:0:0:
208,204,106251,1,0,0:0:0:0:
120,304,106414,1,8,0:0:0:0:
276,252,106578,1,0,0:0:0:0:
276,252,106660,1,0,0:0:0:0:
276,252,106742,5,0,0:0:0:0:
96,184,106906,1,0,0:0:0:0:
192,352,107070,1,8,0:0:0:0:
300,152,107234,2,0,P|264:120|184:128,1,100,8|0,0:0|0:0,0:0:0:0:
424,216,107562,2,0,L|427:116,1,100,8|0,0:0|0:0,0:0:0:0:
292,4,107890,1,8,0:0:0:0:
364,208,108054,5,8,0:0:0:0:
332,236,108136,1,0,0:0:0:0:
288,240,108218,1,8,0:0:0:0:
248,216,108300,1,0,0:0:0:0:
216,196,108382,2,0,L|144:180,1,50
116,264,108546,2,0,L|180:280,1,50
292,152,108710,5,8,0:0:0:0:
204,344,108874,1,0,0:0:0:0:
124,128,109037,1,8,0:0:0:0:
304,316,109201,1,0,0:0:0:0:
116,264,109365,1,8,0:0:0:0:
344,168,109529,1,0,0:0:0:0:
204,344,109693,5,8,0:0:0:0:
248,112,109857,1,8,0:0:0:0:
72,216,110021,1,8,0:0:0:0:
176,24,110185,1,0,0:0:0:0:
360,224,110349,1,8,0:0:0:0:
280,20,110513,1,0,0:0:0:0:
156,232,110677,1,8,0:0:0:0:
384,72,110841,2,0,L|404:124,1,44.0000013427735
436,240,111005,1,8,0:0:0:0:
272,32,111169,6,0,B|238:44|238:44|216:37|216:37|197:52|197:52|150:31|102:69,1,176.000005371094,12|8,0:0|0:0,0:0:0:0:
188,188,111660,1,2,0:0:0:0:
36,120,111824,1,0,0:0:0:0:
36,120,111906,1,0,0:0:0:0:
36,120,111988,2,0,P|28:68|48:12,1,88.000002685547,8|0,0:0|0:0,0:0:0:0:
65,194,112316,2,0,P|173:198|213:154,1,132.00000402832,4|0,0:0|0:0,0:0:0:0:
232,160,112644,6,0,L|240:284,1,88.000002685547,8|0,0:0|0:0,0:0:0:0:
328,288,112972,1,2,0:0:0:0:
187,187,113136,1,0,0:0:0:0:
316,128,113300,1,8,0:0:0:0:
336,120,113382,1,0,0:0:0:0:
360,120,113464,1,8,0:0:0:0:
400,128,113546,1,0,0:0:0:0:
376,184,113628,1,0,0:0:0:0:
368,224,113710,1,0,0:0:0:0:
368,272,113792,1,8,0:0:0:0:
388,312,113874,1,0,0:0:0:0:
436,332,113955,5,8,0:0:0:0:
280,304,114119,1,0,0:0:0:0:
440,216,114283,1,8,0:0:0:0:
380,384,114447,1,0,0:0:0:0:
248,168,114611,1,10,0:0:0:0:
440,216,114775,1,0,0:0:0:0:
280,368,114939,1,8,0:0:0:0:
440,216,115103,1,8,0:0:0:0:
272,56,115267,2,0,P|216:48|156:72,1,95.9999970703126,10|0,0:0|0:0,0:0:0:0:
84,304,115595,2,0,P|124:312|176:296,1,95.9999970703126,8|0,0:0|0:0,0:0:0:0:
336,144,115923,5,8,0:0:0:0:
356,192,116005,1,0,0:0:0:0:
344,236,116087,1,8,0:0:0:0:
300,248,116169,1,0,0:0:0:0:
264,220,116251,1,8,0:0:0:0:
296,352,116414,6,0,P|376:360|448:280,1,191.999994140625,4|8,0:0|0:0,0:0:0:0:
336,144,116906,1,0,0:0:0:0:
472,76,117070,1,0,0:0:0:0:
472,76,117152,1,0,0:0:0:0:
472,76,117234,1,8,0:0:0:0:
392,208,117398,1,0,0:0:0:0:
292,52,117562,2,0,P|224:36|140:60,1,143.999995605469,4|0,0:0|0:0,0:0:0:0:
76,96,117890,2,0,P|68:56|82:0,2,95.9999970703126,8|0|0,0:0|0:0|0:0,0:0:0:0:
128,216,118382,1,0,0:0:0:0:
300,96,118546,5,8,0:0:0:0:
336,120,118628,1,0,0:0:0:0:
352,160,118710,1,8,0:0:0:0:
348,204,118792,1,0,0:0:0:0:
304,176,118874,1,0,0:0:0:0:
260,160,118955,1,0,0:0:0:0:
212,168,119037,1,8,0:0:0:0:
168,188,119119,1,0,0:0:0:0:
128,216,119201,6,0,L|128:336,1,103.999995239258,8|0,0:0|0:0,0:0:0:0:
112,104,119529,1,8,0:0:0:0:
252,276,119693,1,0,0:0:0:0:
316,80,119857,1,8,0:0:0:0:
356,68,119939,1,0,0:0:0:0:
396,76,120021,1,8,0:0:0:0:
428,104,120103,1,0,0:0:0:0:
420,144,120185,1,0,0:0:0:0:
400,192,120267,1,0,0:0:0:0:
420,240,120349,2,0,B|432:276|432:276|456:296,1,51.999997619629,8|0,0:0|0:0,0:0:0:0:
508,76,120513,6,0,B|488:16|400:-8|356:56|356:56|328:64|328:64|296:48|296:48|268:60|268:60|232:56,1,287.999991210938,12|8,0:0|0:0,0:0:0:0:
136,44,121333,1,0,0:0:0:0:
136,44,121414,1,0,0:0:0:0:
136,44,121496,1,8,0:0:0:0:
265,59,121660,1,0,0:0:0:0:
112,192,121824,6,0,P|52:168|24:116,1,100,8|0,0:0|0:0,0:0:0:0:
212,40,122152,1,8,0:0:0:0:
112,192,122316,1,0,0:0:0:0:
244,288,122480,2,0,P|300:296|360:268,1,100,2|0,0:0|0:0,0:0:0:0:
432,104,122808,2,0,P|420:152|448:228,1,100,10|0,0:0|0:0,0:0:0:0:
436,216,123054,1,0,0:0:0:0:
440,232,123136,1,0,0:0:0:0:
296,156,123300,1,0,0:0:0:0:
492,48,123464,2,0,P|444:24|384:40,1,100,8|0,0:0|0:0,0:0:0:0:
352,104,123710,1,0,0:0:0:0:
352,104,123792,6,0,L|312:68,1,50
228,28,123956,1,0,0:0:0:0:
399,30,124120,1,10,0:0:0:0:
308,200,124284,1,0,0:0:0:0:
112,112,124447,6,0,P|93:179|136:260,1,150,8|0,0:0|0:0,0:0:0:0:
172,336,124775,2,0,L|256:324,1,51.999997619629,8|0,0:0|0:0,0:0:0:0:
288,168,124939,1,0,0:0:0:0:
344,340,125103,1,0,0:0:0:0:
168,268,125267,1,0,0:0:0:0:
380,224,125431,1,8,0:0:0:0:
168,268,125595,1,0,0:0:0:0:
320,64,125759,6,0,P|267:55|217:74,1,108.000000411987,8|0,0:0|0:0,0:0:0:0:
370,331,126087,2,0,L|382:199,1,108.000000411987,8|0,0:0|0:0,0:0:0:0:
152,132,126414,1,8,0:0:0:0:
196,152,126496,1,0,0:0:0:0:
244,152,126578,1,8,0:0:0:0:
288,136,126660,1,0,0:0:0:0:
336,140,126742,2,0,L|344:216,1,54.0000002059937
432,108,126906,2,0,L|432:48,1,54.0000002059937,8|0,0:0|0:0,0:0:0:0:
412,272,127070,6,0,P|332:304|252:244,1,162.000000617981,12|0,0:0|0:0,0:0:0:0:
200,220,127398,2,0,L|96:220,1,100,8|0,0:0|0:0,0:0:0:0:
40,168,127644,1,0,0:0:0:0:
32,184,127726,2,0,P|28:232|36:324,2,100,0|0|10,0:0|0:0|0:0,0:0:0:0:
200,220,128218,1,0,0:0:0:0:
246,49,128382,6,0,P|172:43|107:79,1,150,8|0,0:0|0:0,0:0:0:0:
176,164,128710,2,0,L|256:168,1,50
336,224,128874,2,0,P|360:164|336:100,1,100,8|0,0:0|0:0,0:0:0:0:
246,49,129201,1,8,0:0:0:0:
424,188,129365,1,0,0:0:0:0:
420,20,129529,1,0,0:0:0:0:
260,228,129693,5,12,0:0:0:0:
260,228,129857,1,8,0:0:0:0:
444,108,130021,1,2,0:0:0:0:
204,108,130185,1,8,0:0:0:0:
204,108,130349,1,8,0:0:0:0:
356,268,130513,1,0,0:0:0:0:
292,24,130677,5,8,0:0:0:0:
292,24,130841,1,2,0:0:0:0:
204,240,131005,1,0,0:0:0:0:
420,116,131169,1,8,0:0:0:0:
228,112,131333,1,8,0:0:0:0:
356,272,131496,1,0,0:0:0:0:
304,64,131660,5,8,3:2:0:0:
268,32,131742,1,0,3:2:0:0:
220,28,131824,1,8,3:2:0:0:
176,52,131906,1,0,3:2:0:0:
152,96,131988,1,0,3:2:0:0:
204,128,132070,1,0,3:2:0:0:
244,180,132152,1,8,3:2:0:0:
236,244,132234,1,0,3:0:0:0:
172,284,132316,6,0,P|120:288|36:296,1,100,12|0,0:0|0:0,0:0:0:0:
272,352,132644,1,8,0:0:0:0:
148,204,132808,1,0,0:0:0:0:
324,104,132972,2,0,P|364:176|340:256,1,150,2|0,0:0|0:0,0:0:0:0:
420,328,133300,2,0,L|448:188,1,100,10|0,0:0|0:0,0:0:0:0:
488,92,133628,5,0,0:0:0:0:
351,239,133792,1,0,0:0:0:0:
244,64,133955,2,0,P|188:48|128:72,1,100,8|0,0:0|0:0,0:0:0:0:
192,144,134201,1,0,0:0:0:0:
212,156,134283,2,0,P|228:216|208:272,2,100,0|0|10,0:0|0:0|0:0,0:0:0:0:
84,48,134775,1,0,0:0:0:0:
324,148,134939,6,0,P|352:88|320:8,1,150,8|0,0:0|0:0,0:0:0:0:
324,148,135267,2,0,L|374:148,1,50,8|0,0:0|0:0,0:0:0:0:
492,104,135431,2,0,P|504:164|476:232,1,100,8|0,0:0|0:0,0:0:0:0:
272,196,135759,1,8,0:0:0:0:
412,296,135923,1,8,0:0:0:0:
492,104,136087,1,0,0:0:0:0:
244,272,136251,6,0,P|204:240|192:176,1,108.000000411987,8|0,0:0|0:0,0:0:0:0:
376,28,136578,2,0,P|392:76|376:152,1,108.000000411987,10|0,0:0|0:0,0:0:0:0:
244,272,136906,1,8,0:0:0:0:
204,252,136988,1,0,0:0:0:0:
160,256,137070,1,8,0:0:0:0:
120,272,137152,1,0,0:0:0:0:
96,308,137234,2,0,L|98:361,1,54.0000002059937
232,344,137398,2,0,P|264:344|300:328,1,54.0000002059937,8|0,0:0|0:0,0:0:0:0:
224,192,137562,6,0,P|292:152|392:192,1,162.000000617981,12|0,0:0|0:0,0:0:0:0:
444,220,137890,2,0,L|488:128,1,54.0000002059937,8|0,0:0|0:0,0:0:0:0:
348,64,138054,1,0,0:0:0:0:
172,264,138218,2,0,P|139:192|168:128,1,150,2|0,0:0|0:0,0:0:0:0:
248,80,138546,2,0,P|212:48|140:48,1,100,8|0,0:0|0:0,0:0:0:0:
336,12,138874,5,10,0:0:0:0:
228,192,139037,1,8,0:0:0:0:
260,216,139119,1,0,0:0:0:0:
300,220,139201,1,10,0:0:0:0:
336,204,139283,1,0,0:0:0:0:
368,160,139365,1,10,0:0:0:0:
416,136,139447,1,0,0:0:0:0:
468,148,139529,6,0,L|480:212,1,50
476,16,139693,2,0,L|396:16,1,50,10|0,0:0|0:0,0:0:0:0:
300,220,139857,2,0,L|300:148,1,50
296,8,140021,1,12,0:0:0:0:
256,192,140103,12,0,145267,0:0:0:0:
360,196,145431,5,8,0:0:0:0:
372,176,145513,1,0,0:0:0:0:
380,156,145595,1,8,0:0:0:0:
392,128,145677,1,0,0:0:0:0:
392,96,145759,2,0,L|384:36,1,50
199,25,145923,1,8,0:0:0:0:
215,53,146005,1,0,0:0:0:0:
247,73,146087,1,8,0:0:0:0:
295,81,146169,1,0,0:0:0:0:
343,73,146251,2,0,L|387:45,1,50
476,0,146414,6,0,L|480:72,1,51.999997619629,10|0,0:0|0:0,0:0:0:0:
320,216,146578,2,0,L|388:188,1,51.999997619629
512,152,146742,1,8,0:0:0:0:
140,336,147070,2,0,P|112:264|144:140,1,176.000005371094,12|8,0:0|0:0,0:0:0:0:
264,244,147562,1,0,0:0:0:0:
244,56,147726,2,0,P|176:32|88:52,1,143.999995605469,12|0,0:0|0:0,0:0:0:0:
0,132,148054,2,0,B|36:108|36:108|64:136|124:132,1,132.00000402832
228,144,148382,5,8,0:0:0:0:
106,42,148546,1,0,0:0:0:0:
116,288,148710,2,0,L|116:168,1,88.000002685547
32,64,149037,1,8,0:0:0:0:
216,132,149201,1,0,0:0:0:0:
29,290,149365,6,0,P|74:302|117:286,1,92.0000017547608,4|0,0:0|0:0,0:0:0:0:
178,144,149693,1,8,0:0:0:0:
314,196,149857,1,0,0:0:0:0:
206,276,150021,1,8,0:0:0:0:
118,132,150185,1,0,0:0:0:0:
178,384,150349,6,8,P|266:376|318:284,1,191.999994140625,12|0,0:0|0:0,0:0:0:0:
400,184,150841,2,0,P|452:200|520:176,1,88.000002685547,0|8,0:0|0:0,0:0:0:0:
384,44,151169,1,8,3:2:0:0:
344,64,151251,1,0,3:2:0:0:
300,52,151333,1,8,3:2:0:0:
256,56,151414,1,0,3:2:0:0:
224,88,151496,1,0,3:2:0:0:
236,132,151578,1,0,3:2:0:0:
220,172,151660,2,0,L|160:172,1,44.0000013427735,8|0,3:2|3:2,3:2:0:0:
84,104,151824,1,0,3:2:0:0:
152,288,151988,5,8,0:0:0:0:
320,192,152152,1,0,0:0:0:0:
176,136,152316,1,8,0:0:0:0:
272,312,152480,1,0,0:0:0:0:
396,120,152644,1,0,0:0:0:0:
216,196,152808,1,0,0:0:0:0:
408,20,152972,2,0,P|476:56|480:176,1,176.000005371094,12|0,0:0|0:0,0:0:0:0:
328,192,153464,1,0,0:0:0:0:
328,192,153628,6,0,P|376:204|436:192,1,88.000002685547,8|0,0:0|0:0,0:0:0:0:
494,147,153874,1,0,0:0:0:0:
486,167,153955,2,0,L|486:263,1,88.000002685547
228,224,154283,2,0,P|221:181|232:136,1,88.000002685547,8|0,0:0|0:0,0:0:0:0:
328,192,154611,5,8,0:0:0:0:
416,48,154775,1,0,0:0:0:0:
240,20,154939,1,8,0:0:0:0:
413,199,155103,1,0,0:0:0:0:
444,152,155185,1,0,0:0:0:0:
432,96,155267,1,8,0:0:0:0:
240,20,155431,2,0,L|292:28,1,47.9999985351563,8|0,0:0|0:0,0:0:0:0:
416,48,155595,5,0,0:0:0:0:
136,64,155759,2,0,P|112:144|164:240,1,184.000003509522,4|0,0:0|0:0,0:0:0:0:
224,288,156251,2,0,P|264:264|336:272,1,92.0000017547608,8|0,0:0|0:0,0:0:0:0:
392,240,156578,2,0,L|380:160,1,47.9999985351563,8|0,3:0|3:0,3:0:0:0:
492,244,156742,2,0,L|496:296,1,47.9999985351563,8|0,3:0|3:0,3:0:0:0:
296,180,156906,1,0,3:0:0:0:
296,132,156988,1,0,3:0:0:0:
324,92,157070,1,8,3:0:0:0:
368,72,157152,1,0,3:0:0:0:
416,84,157234,5,8,0:0:0:0:
268,40,157398,1,0,0:0:0:0:
400,176,157562,1,8,0:0:0:0:
480,32,157726,1,0,0:0:0:0:
236,152,157890,1,2,0:0:0:0:
460,236,158054,1,0,0:0:0:0:
248,322,158218,6,0,B|248:287|248:287|232:262|232:262|244:226|233:127,1,176.000005371094,12|0,0:0|0:0,0:0:0:0:
136,292,158710,1,0,0:0:0:0:
56,160,158874,2,0,P|52:108|64:56,1,88.000002685547,8|0,0:0|0:0,0:0:0:0:
152,28,159119,1,0,0:0:0:0:
168,48,159201,2,0,P|212:48|268:40,1,88.000002685547
436,164,159529,2,0,L|320:184,1,88.000002685547,8|0,0:0|0:0,0:0:0:0:
255,42,159857,5,8,0:0:0:0:
56,160,160021,1,0,0:0:0:0:
256,224,160185,1,8,0:0:0:0:
152,28,160349,2,0,L|151:72,1,44.0000013427735,8|0,0:0|0:0,0:0:0:0:
140,224,160513,1,8,0:0:0:0:
264,24,160677,1,0,0:0:0:0:
418,194,160841,6,0,B|367:245|314:218|314:218|290:226|290:226|262:222|262:222|242:226,1,176.000005371094,12|0,0:0|0:0,0:0:0:0:
104,316,161333,1,0,0:0:0:0:
104,316,161414,1,0,0:0:0:0:
104,316,161496,2,0,P|156:332|200:316,1,88.000002685547,8|0,0:0|0:0,0:0:0:0:
8,344,161824,1,8,0:0:0:0:
0,300,161906,1,0,0:0:0:0:
12,256,161988,1,8,0:0:0:0:
44,224,162070,1,0,0:0:0:0:
88,212,162152,1,0,0:0:0:0:
128,232,162234,1,0,0:0:0:0:
172,228,162316,1,8,0:0:0:0:
288,80,162480,5,8,0:0:0:0:
255,223,162644,1,0,0:0:0:0:
148,100,162808,1,8,0:0:0:0:
260,288,162972,1,0,0:0:0:0:
408,104,163136,1,10,0:0:0:0:
224,132,163300,1,0,0:0:0:0:
424,268,163464,1,8,0:0:0:0:
260,288,163628,1,8,0:0:0:0:
340,88,163792,5,8,0:0:0:0:
120,132,163955,1,0,0:0:0:0:
360,248,164119,1,8,0:0:0:0:
184,324,164283,1,0,0:0:0:0:
216,112,164447,1,10,0:0:0:0:
360,248,164611,1,0,0:0:0:0:
136,256,164775,1,8,0:0:0:0:
304,52,164939,1,0,0:0:0:0:
236,268,165103,5,8,0:0:0:0:
128,84,165267,1,0,0:0:0:0:
128,84,165349,1,0,0:0:0:0:
128,84,165431,1,8,0:0:0:0:
312,200,165595,1,0,0:0:0:0:
80,284,165759,1,8,0:0:0:0:
80,284,165841,1,0,0:0:0:0:
80,284,165923,1,0,0:0:0:0:
128,84,166087,1,8,0:0:0:0:
288,200,166251,1,0,0:0:0:0:
368,32,166414,5,8,0:0:0:0:
412,36,166496,1,0,0:0:0:0:
448,60,166578,1,8,0:0:0:0:
464,100,166660,1,0,0:0:0:0:
456,144,166742,1,8,0:0:0:0:
420,168,166824,1,0,0:0:0:0:
392,204,166906,1,0,0:0:0:0:
388,248,166988,1,0,0:0:0:0:
408,288,167070,6,0,L|460:300,1,44.0000013427735,8|0,0:0|0:0,0:0:0:0:
220,236,167234,2,0,L|220:164,1,44.0000013427735
392,160,167398,2,0,L|392:204,1,44.0000013427735
192,376,167562,1,8,2:0:0:0:
167,340,167644,1,8,2:0:0:0:
156,293,167726,1,2,2:0:0:0:
188,160,177562,5,8,0:0:0:0:
220,140,177644,1,0,0:0:0:0:
260,136,177726,1,8,0:0:0:0:
300,148,177808,1,0,0:0:0:0:
336,164,177890,2,0,L|344:120,1,44.0000013427735
288,44,178054,2,0,L|348:28,1,44.0000013427735,8|0,0:0|0:0,0:0:0:0:
464,136,178218,6,0,L|476:28,1,88.000002685547,8|0,0:0|0:0,0:0:0:0:
388,208,178546,1,8,0:0:0:0:
388,208,178710,1,0,0:0:0:0:
288,44,178874,1,0,0:0:0:0:
456,136,179037,1,0,0:0:0:0:
252,188,179201,1,8,0:0:0:0:
336,0,179365,2,0,P|273:-16|220:12,1,125.999996154785
152,92,179693,2,0,P|164:144|164:200,1,83.9999974365235,0|8,0:0|0:0,0:0:0:0:
376,184,180021,1,0,0:0:0:0:
376,184,180103,1,0,0:0:0:0:
376,184,180185,6,0,L|376:96,1,83.9999974365235
229,107,180513,1,8,0:0:0:0:
428,256,180677,2,0,P|376:272|304:256,1,125.999996154785,12|0,0:0|0:0,0:0:0:0:
286,339,181005,2,0,L|312:235,1,83.9999974365235,0|8,0:0|0:0,0:0:0:0:
284,104,181333,1,0,0:0:0:0:
284,104,181414,1,0,0:0:0:0:
284,104,181496,1,0,0:0:0:0:
315,251,181660,1,0,0:0:0:0:
456,128,181824,5,8,0:0:0:0:
376,336,181988,2,0,P|336:344|280:328,1,83.9999974365235
188,136,182316,2,0,P|180:176|188:224,1,83.9999974365235,0|8,0:0|0:0,0:0:0:0:
260,64,182644,1,8,0:0:0:0:
248,36,182726,1,0,0:0:0:0:
220,24,182808,1,8,0:0:0:0:
184,32,182890,1,0,0:0:0:0:
144,44,182972,1,0,0:0:0:0:
100,32,183054,1,0,0:0:0:0:
60,8,183136,6,0,B|8:20,1,41.9999987182618,8|0,0:0|0:0,0:0:0:0:
176,254,183300,2,0,P|200:182|164:106,1,125.999996154785,4|0,0:0|0:0,0:0:0:0:
184,52,183628,2,0,B|232:60|232:60|288:64,1,92.0000017547608,0|8,0:0|0:0,0:0:0:0:
416,48,183955,1,0,0:0:0:0:
416,48,184037,1,0,0:0:0:0:
416,48,184119,1,8,0:0:0:0:
304,212,184283,1,0,0:0:0:0:
184,52,184447,1,8,0:0:0:0:
416,260,184611,2,0,B|436:200|423:179|423:179|428:152|428:152|420:128|420:128|420:100,1,143.999995605469,12|0,0:0|0:0,0:0:0:0:
416,48,184939,1,0,0:0:0:0:
208,248,185103,5,8,0:0:0:0:
248,264,185185,1,0,0:0:0:0:
292,264,185267,1,0,0:0:0:0:
332,248,185349,1,0,0:0:0:0:
352,212,185431,1,8,0:0:0:0:
192,24,185595,1,0,0:0:0:0:
416,48,185759,1,8,0:0:0:0:
208,248,185923,2,0,B|184:196|192:168|192:168|184:144|184:144|188:120|188:120|188:80,1,150,12|0,0:0|0:0,0:0:0:0:
56,76,186251,5,8,0:0:0:0:
76,264,186414,1,8,0:0:0:0:
120,288,186496,1,0,0:0:0:0:
168,280,186578,1,0,0:0:0:0:
208,248,186660,1,0,0:0:0:0:
176,208,186742,5,8,3:2:0:0:
160,160,186824,1,0,3:0:0:0:
168,112,186906,1,8,3:0:0:0:
196,72,186988,1,0,3:0:0:0:
244,56,187070,1,0,3:0:0:0:
292,64,187152,1,0,0:0:0:0:
340,100,187234,2,0,B|358:101|358:101|377:114|377:114|397:111|397:111|444:129|484:93,1,155.999992858887,12|0,0:0|0:0,0:0:0:0:
420,20,187562,1,8,0:0:0:0:
372,260,187726,5,8,0:0:0:0:
196,64,187890,1,0,0:0:0:0:
204,320,188054,1,8,0:0:0:0:
356,176,188218,1,0,0:0:0:0:
88,192,188382,1,8,0:0:0:0:
260,28,188546,1,8,0:0:0:0:
312,288,188710,1,8,0:0:0:0:
116,104,188874,1,0,0:0:0:0:
364,216,189037,1,8,0:0:0:0:
132,352,189201,1,0,0:0:0:0:
32,100,189365,5,8,0:0:0:0:
56,60,189447,1,8,0:0:0:0:
100,40,189529,1,8,0:0:0:0:
152,40,189611,1,8,0:0:0:0:
180,80,189693,1,8,0:0:0:0:
228,100,189775,1,0,0:0:0:0:
284,100,189857,1,8,0:0:0:0:
332,76,189939,1,0,0:0:0:0:
372,20,190021,6,0,P|400:72|380:136,1,100,12|0,0:0|0:0,0:0:0:0:
340,300,190349,1,8,0:0:0:0:
464,160,190513,1,0,0:0:0:0:
260,244,190677,2,0,P|243:291|252:340,1,100
200,176,191005,2,0,P|240:152|312:168,1,100,10|0,0:0|0:0,0:0:0:0:
368,212,191251,1,0,0:0:0:0:
380,196,191333,6,0,L|380:84,1,100
136,36,191660,1,8,0:0:0:0:
264,240,191824,1,0,0:0:0:0:
264,240,191906,1,0,0:0:0:0:
264,240,191988,2,0,L|200:228,1,50
200,136,192152,2,0,L|256:120,1,50
356,88,192316,1,8,0:0:0:0:
328,292,192480,1,8,0:0:0:0:
120,144,192644,6,0,P|89:191|128:292,1,155.999992858887,12|0,0:0|0:0,0:0:0:0:
48,368,192972,2,0,L|44:312,1,51.999997619629,8|0,0:0|0:0,0:0:0:0:
176,216,193136,2,0,P|228:200|292:224,1,100
424,336,193464,1,0,0:0:0:0:
308,152,193628,1,8,0:0:0:0:
232,384,193792,1,0,0:0:0:0:
232,384,193874,1,0,0:0:0:0:
232,384,193955,6,0,P|220:320|232:268,1,108.000000411987,12|0,0:0|0:0,0:0:0:0:
396,96,194283,2,0,P|416:152|392:224,1,108.000000411987,8|0,0:0|0:0,0:0:0:0:
392,336,194611,1,8,0:0:0:0:
412,292,194693,1,0,0:0:0:0:
460,280,194775,1,8,0:0:0:0:
496,244,194857,1,0,0:0:0:0:
492,196,194939,2,0,L|456:128,1,54.0000002059937
332,144,195103,2,0,L|380:84,1,54.0000002059937,8|0,0:0|0:0,0:0:0:0:
440,24,195267,6,0,P|364:0|299:32,1,150,12|0,0:0|0:0,0:0:0:0:
332,144,195595,2,0,P|323:196|344:276,1,100,8|0,0:0|0:0,0:0:0:0:
332,348,195841,1,0,0:0:0:0:
312,332,195923,2,0,P|256:320|196:332,2,100,0|0|10,0:0|0:0|0:0,0:0:0:0:
424,344,196414,1,0,0:0:0:0:
268,224,196578,6,0,P|256:148|292:72,1,150,12|0,0:0|0:0,0:0:0:0:
268,224,196906,2,0,L|212:220,1,50,8|0,0:0|0:0,0:0:0:0:
64,168,197070,2,0,P|48:220|64:280,1,100
268,224,197398,1,8,0:0:0:0:
55,263,197562,1,0,0:0:0:0:
156,100,197726,1,0,0:0:0:0:
272,312,197890,5,12,0:0:0:0:
272,312,198054,1,8,0:0:0:0:
72,184,198218,1,0,0:0:0:0:
308,204,198382,1,8,0:0:0:0:
308,204,198546,1,8,0:0:0:0:
100,316,198710,1,0,0:0:0:0:
216,96,198874,1,8,0:0:0:0:
216,96,199037,1,8,0:0:0:0:
304,280,199201,5,0,0:0:0:0:
152,152,199365,1,8,0:0:0:0:
368,112,199529,1,8,0:0:0:0:
172,0,199693,1,0,0:0:0:0:
72,212,199857,1,8,3:2:0:0:
100,248,199939,1,0,3:2:0:0:
144,256,200021,1,8,3:2:0:0:
188,252,200103,1,0,3:2:0:0:
228,232,200185,2,0,L|248:148,1,50,0|0,3:2|3:2,3:2:0:0:
220,20,200349,2,0,L|292:76,1,50,8|0,3:2|3:2,3:2:0:0:
436,196,200513,6,0,P|377:204|308:184,1,108.000000411987,12|0,0:0|0:0,0:0:0:0:
124,28,200841,2,0,P|112:80|128:148,1,108.000000411987,8|0,0:0|0:0,0:0:0:0:
292,324,201169,1,8,0:0:0:0:
384,108,201333,1,0,0:0:0:0:
200,340,201496,1,8,0:0:0:0:
114,126,201660,1,8,0:0:0:0:
372,192,201824,6,0,P|432:200|496:152,1,108.000000411987,12|0,0:0|0:0,0:0:0:0:
64,28,202152,2,0,P|48:80|60:144,1,108.000000411987,8|0,0:0|0:0,0:0:0:0:
304,120,202398,1,0,0:0:0:0:
292,96,202480,2,0,L|168:96,1,108.000000411987,8|8,0:0|0:0,0:0:0:0:
64,28,202808,1,8,0:0:0:0:
208,228,202972,1,0,0:0:0:0:
396,29,203136,6,0,P|336:-11|248:16,1,162.000000617981,12|0,0:0|0:0,0:0:0:0:
184,150,203464,2,0,L|184:66,1,54.0000002059937,8|0,0:0|0:0,0:0:0:0:
64,28,203628,2,0,P|44:72|60:144,1,108.000000411987,0|8,0:0|0:0,0:0:0:0:
128,304,203955,1,0,0:0:0:0:
296,140,204119,1,8,0:0:0:0:
216,356,204283,1,0,0:0:0:0:
50,122,204447,6,0,P|98:90|162:98,1,111.999996582031,12|0,0:0|0:0,0:0:0:0:
432,264,204775,2,0,L|412:148,1,111.999996582031,8|0,0:0|0:0,0:0:0:0:
156,48,205103,1,8,3:2:0:0:
184,92,205185,1,0,3:2:0:0:
236,100,205267,1,8,3:2:0:0:
288,84,205349,1,0,3:2:0:0:
312,32,205431,2,0,L|312:-24,1,51.999997619629,8|0,0:0|3:0,3:0:0:0:
288,228,205595,2,0,L|284:140,1,51.999997619629,8|0,3:0|3:0,3:0:0:0:
50,122,205759,6,0,P|38:174|66:242,1,103.999995239258,12|0,0:0|0:0,0:0:0:0:
432,148,206087,2,0,L|304:176,1,103.999995239258,8|0,0:0|0:0,0:0:0:0:
248,288,206333,1,0,0:0:0:0:
248,288,206414,2,0,B|260:208|260:208|252:192|248:160,1,103.999995239258,8|0,0:0|0:0,0:0:0:0:
312,32,206742,1,12,0:0:0:0:
152,232,206906,1,8,0:0:0:0:
48,32,207070,5,0,0:0:0:0:
88,12,207152,1,8,0:0:0:0:
136,8,207234,1,8,0:0:0:0:
180,20,207316,1,8,0:0:0:0:
212,60,207398,1,8,0:0:0:0:
184,104,207480,1,0,0:0:0:0:
172,156,207562,1,0,0:0:0:0:
188,204,207644,1,0,0:0:0:0:
208,252,207726,6,0,L|208:308,1,51.999997619629,8|8,3:0|3:0,3:0:0:0:
356,124,207890,2,0,L|268:124,1,51.999997619629,8|0,3:0|3:0,3:0:0:0:
108,252,208054,2,0,L|108:196,1,51.999997619629,8|0,3:0|3:0,3:0:0:0:
320,304,208218,2,0,L|320:360,1,51.999997619629,8|0,0:0|0:0,0:0:0:0:
448,112,208382,6,0,P|438:80|384:44,1,95.9999970703126,12|0,0:0|0:0,0:0:0:0:
232,124,208710,2,0,B|276:140|276:140|340:124,1,88.000002685547,8|0,0:0|0:0,0:0:0:0:
392,172,209037,1,0,0:0:0:0:
276,24,209201,1,0,0:0:0:0:
160,196,209365,2,0,P|134:112|192:40,1,176.000005371094,12|0,0:0|0:0,0:0:0:0:
208,256,209857,1,0,0:0:0:0:
208,256,210021,6,0,P|160:272|116:256,1,88.000002685547,8|0,0:0|0:0,0:0:0:0:
36,60,210349,2,0,L|40:180,1,88.000002685547
268,316,210677,2,0,L|172:312,1,88.000002685547,8|0,0:0|0:0,0:0:0:0:
104,276,210923,1,0,0:0:0:0:
96,292,211005,6,0,L|100:408,1,88.000002685547,12|0,0:0|0:0,0:0:0:0:
268,316,211333,1,8,0:0:0:0:
60,188,211496,1,0,0:0:0:0:
32,312,211660,1,0,0:0:0:0:
172,144,211824,1,0,0:0:0:0:
357,339,211988,6,0,P|288:387|188:352,1,184.000003509522,12|0,0:0|0:0,0:0:0:0:
168,228,212480,1,0,0:0:0:0:
272,164,212644,2,0,L|256:48,1,88.000002685547,8|0,0:0|0:0,0:0:0:0:
112,4,212972,1,8,0:0:0:0:
144,16,213054,1,0,0:0:0:0:
180,24,213136,1,8,0:0:0:0:
216,16,213218,1,0,0:0:0:0:
248,0,213300,1,0,0:0:0:0:
288,0,213382,1,0,0:0:0:0:
324,16,213464,1,8,0:0:0:0:
348,48,213546,1,0,0:0:0:0:
352,88,213628,5,12,0:0:0:0:
272,164,213792,1,0,0:0:0:0:
428,132,213955,1,8,0:0:0:0:
259,76,214119,1,0,0:0:0:0:
256,244,214283,1,0,0:0:0:0:
408,48,214447,1,0,0:0:0:0:
512,268,214611,6,0,P|420:296|348:268,1,176.000005371094,12|0,0:0|0:0,0:0:0:0:
242,318,215103,1,0,0:0:0:0:
242,318,215185,1,0,0:0:0:0:
242,318,215267,2,0,B|247:251|247:251|235:227|238:206,1,88.000002685547,8|0,0:0|0:0,0:0:0:0:
80,140,215595,2,0,L|192:136,1,88.000002685547
356,188,215923,2,0,P|364:136|348:72,1,88.000002685547,8|0,0:0|0:0,0:0:0:0:
192,40,216251,5,4,0:0:0:0:
239,231,216414,1,0,0:0:0:0:
372,24,216578,1,8,0:0:0:0:
120,152,216742,2,0,L|184:128,1,44.0000013427735
264,96,216906,1,0,0:0:0:0:
120,12,217070,1,0,0:0:0:0:
192,228,217234,6,0,P|109:253|32:208,1,176.000005371094,12|0,0:0|0:0,0:0:0:0:
128,364,217726,1,0,0:0:0:0:
260,268,217890,2,0,P|272:224|244:164,1,88.000002685547,8|0,0:0|0:0,0:0:0:0:
228,112,218136,1,0,0:0:0:0:
240,124,218218,2,0,P|272:128|352:120,1,88.000002685547,8|0,0:0|0:0,0:0:0:0:
448,20,218546,2,0,L|456:104,1,44.0000013427735,8|0,0:0|0:0,0:0:0:0:
456,184,218710,1,0,0:0:0:0:
304,32,218874,5,8,0:0:0:0:
208,184,219037,1,0,0:0:0:0:
384,136,219201,1,8,0:0:0:0:
188,52,219365,1,0,0:0:0:0:
304,264,219529,1,0,0:0:0:0:
380,60,219693,1,0,0:0:0:0:
124,160,219857,6,0,P|100:80|156:-8,1,176.000005371094,12|0,0:0|0:0,0:0:0:0:
240,132,220349,1,0,0:0:0:0:
172,240,220513,2,0,B|124:248|124:248|72:240,1,88.000002685547,8|0,0:0|0:0,0:0:0:0:
28,192,220759,1,0,0:0:0:0:
20,184,220841,2,0,L|0:304,1,88.000002685547
240,192,221169,2,0,L|256:284,1,88.000002685547,8|0,0:0|0:0,0:0:0:0:
196,384,221496,5,8,0:0:0:0:
340,304,221660,1,0,0:0:0:0:
172,240,221824,1,8,0:0:0:0:
312,80,221988,2,0,L|328:136,1,44.0000013427735
344,232,222152,1,8,0:0:0:0:
208,88,222316,1,0,0:0:0:0:
412,144,222480,6,0,P|416:72|344:0,1,176.000005371094,12|0,0:0|0:0,0:0:0:0:
124,60,222972,1,0,0:0:0:0:
124,60,223054,1,0,0:0:0:0:
124,60,223136,2,0,L|224:52,1,88.000002685547,8|0,0:0|0:0,0:0:0:0:
256,196,223464,1,8,0:0:0:0:
220,180,223546,1,0,0:0:0:0:
180,180,223628,1,8,0:0:0:0:
144,196,223710,1,0,0:0:0:0:
120,228,223792,2,0,L|172:248,1,44.0000013427735
200,368,223955,2,0,L|124:340,1,44.0000013427735,8|0,0:0|0:0,0:0:0:0:
8,268,224119,6,0,P|0:220|24:152,1,95.9999970703126,12|0,0:0|0:0,0:0:0:0:
301,67,224447,2,0,P|257:47|197:59,1,95.9999970703126,8|0,0:0|0:0,0:0:0:0:
161,243,224775,1,8,0:0:0:0:
56,72,224939,1,0,0:0:0:0:
244,136,225103,1,8,0:0:0:0:
40,256,225267,1,0,0:0:0:0:
144,36,225431,5,12,0:0:0:0:
232,200,225595,1,8,0:0:0:0:
272,216,225677,1,0,0:0:0:0:
316,212,225759,1,8,0:0:0:0:
352,188,225841,1,0,0:0:0:0:
364,148,225923,2,0,L|356:100,1,47.9999985351563
444,24,226087,5,8,3:2:0:0:
464,64,226169,1,0,3:2:0:0:
464,108,226251,1,8,3:2:0:0:
456,152,226333,1,0,3:2:0:0:
460,196,226414,2,0,P|460:224|464:252,1,47.9999985351563,0|0,3:2|0:0,0:0:0:0:
444,376,226578,1,0,0:0:0:0:
264,268,226742,5,12,0:0:0:0:
264,268,226906,1,8,0:0:0:0:
460,196,227070,1,0,0:0:0:0:
328,384,227234,1,8,0:0:0:0:
328,384,227398,1,8,0:0:0:0:
232,164,227562,1,0,0:0:0:0:
464,200,227726,5,12,0:0:0:0:
464,200,227890,1,8,0:0:0:0:
224,344,228054,1,0,0:0:0:0:
300,96,228218,1,8,0:0:0:0:
336,328,228382,1,8,0:0:0:0:
112,232,228546,1,0,0:0:0:0:
232,48,228710,2,0,L|224:24,1,15.0000005722046,8|0,3:2|3:2,3:2:0:0:
272,44,228792,2,0,L|268:20,1,15.0000005722046,0|0,3:2|3:2,3:2:0:0:
312,44,228874,2,0,L|312:16,1,15.0000005722046,8|0,3:2|3:2,3:2:0:0:
344,56,228955,2,0,L|352:36,1,15.0000005722046,0|0,3:2|3:2,3:2:0:0:
372,84,229037,6,0,L|372:160,1,47.9999985351563,8|0,0:0|0:0,0:0:0:0:
380,304,229201,1,8,0:0:0:0:
296,120,229365,1,12,0:0:0:0:
338,374,229529,1,8,0:0:0:0:
338,374,229611,1,0,0:0:0:0:
338,374,229693,2,0,L|326:318,1,47.9999985351563
296,120,229857,1,8,0:0:0:0:
456,312,230021,2,0,L|416:260,1,47.9999985351563,8|0,0:0|0:0,0:0:0:0:
296,120,230185,1,0,0:0:0:0:
204,364,230349,2,0,L|224:308,1,47.9999985351563,8|0,0:0|0:0,0:0:0:0:
296,120,230513,5,12,0:0:0:0:
256,192,230595,12,0,236742,0:0:0:0:
