osu file format v14

[General]
AudioFilename: audio.mp3
AudioLeadIn: 0
PreviewTime: 53710
Countdown: 0
SampleSet: Normal
StackLeniency: 0.7
Mode: 1
LetterboxInBreaks: 0
WidescreenStoryboard: 0

[Editor]
Bookmarks: 13920,23947,29078,34131,44236,54341,75815,78973
DistanceSpacing: 1
BeatDivisor: 4
GridSize: 4
TimelineZoom: 1.3

[Metadata]
Title:ROUGH DIAMONDS
TitleUnicode:ROUGH DIAMONDS
Artist:SCREEN mode
ArtistUnicode:SCREEN mode
Creator:Volta
Version:Oni
Source:食戟のソーマ 弐ノ皿
Tags:Shokugeki no Soma: Ni no Sara food wars tv size opening 3 season 2 The Second Plate
BeatmapID:1145942
BeatmapSetID:540423

[Difficulty]
HPDrainRate:6
CircleSize:5
OverallDifficulty:6
ApproachRate:5
SliderMultiplier:1.4
SliderTickRate:1

[Events]
//Background and Video events
0,0,"thumb-1920-714817.jpg",0,0
//Break Periods
//Storyboard Layer 0 (Background)
//Storyboard Layer 1 (Fail)
//Storyboard Layer 2 (Pass)
//Storyboard Layer 3 (Foreground)
//Storyboard Sound Samples

[TimingPoints]
26,315.789473684211,4,1,0,90,1,0
14078,-111.111111111111,4,1,0,90,0,0
18815,-100,4,1,0,90,0,0
24183,-111.111111111111,4,1,0,90,0,0
28920,-100,4,1,0,90,0,0
54341,-100,4,1,0,90,0,1
75815,-100,4,1,0,90,0,0
78341,315.789473684211,4,1,0,90,1,8
78657,315.789473684211,4,1,0,90,1,0

[HitObjects]
220,192,973,5,8,0:0:0:0:
220,200,1052,1,0,0:0:0:0:
220,200,1131,1,0,0:0:0:0:
220,200,1210,1,0,0:0:0:0:
220,200,1289,1,8,0:0:0:0:
224,128,1762,1,0,0:0:0:0:
220,132,2236,1,8,0:0:0:0:
184,92,2710,1,12,0:0:0:0:
184,92,2868,1,12,0:0:0:0:
188,96,3026,1,12,0:0:0:0:
188,96,3183,1,12,0:0:0:0:
120,160,3341,1,0,0:0:0:0:
368,280,3420,1,0,0:0:0:0:
368,272,3499,1,8,0:0:0:0:
364,268,3578,1,8,0:0:0:0:
364,268,3657,1,8,0:0:0:0:
364,268,3736,1,8,0:0:0:0:
364,268,3815,1,0,0:0:0:0:
120,160,3973,1,0,0:0:0:0:
120,160,4131,1,8,0:0:0:0:
124,164,4289,1,0,0:0:0:0:
124,164,4368,1,8,0:0:0:0:
124,164,4447,1,0,0:0:0:0:
124,164,4604,1,0,0:0:0:0:
124,164,4762,1,8,0:0:0:0:
124,164,4920,1,0,0:0:0:0:
216,204,5236,1,0,0:0:0:0:
276,112,5394,1,8,0:0:0:0:
180,180,5552,1,0,0:0:0:0:
172,184,5710,1,0,0:0:0:0:
172,184,5789,1,0,0:0:0:0:
176,184,5868,1,0,0:0:0:0:
176,184,6026,1,8,0:0:0:0:
176,184,6183,1,0,0:0:0:0:
144,200,6499,1,0,0:0:0:0:
144,200,6657,1,8,0:0:0:0:
144,200,6815,1,0,0:0:0:0:
200,184,6894,1,0,0:0:0:0:
204,172,6973,1,8,0:0:0:0:
196,184,7131,1,0,0:0:0:0:
188,140,7289,1,8,0:0:0:0:
188,140,7447,1,0,0:0:0:0:
224,136,7762,1,0,0:0:0:0:
224,136,7920,1,8,0:0:0:0:
224,144,8078,1,0,0:0:0:0:
224,144,8236,1,8,0:0:0:0:
224,144,8315,1,8,0:0:0:0:
224,144,8394,1,0,0:0:0:0:
224,144,8552,1,0,0:0:0:0:
224,144,8710,1,8,0:0:0:0:
120,160,9026,1,8,0:0:0:0:
120,160,9183,1,0,0:0:0:0:
124,164,9341,1,0,0:0:0:0:
124,164,9420,1,8,0:0:0:0:
124,164,9499,1,0,0:0:0:0:
124,164,9657,1,0,0:0:0:0:
124,164,9815,1,8,0:0:0:0:
124,164,9973,1,0,0:0:0:0:
216,204,10289,1,0,0:0:0:0:
276,112,10447,1,8,0:0:0:0:
180,180,10604,1,0,0:0:0:0:
172,184,10762,1,0,0:0:0:0:
172,184,10841,1,0,0:0:0:0:
176,184,10920,1,0,0:0:0:0:
176,184,11078,1,8,0:0:0:0:
176,184,11236,1,0,0:0:0:0:
144,200,11552,1,0,0:0:0:0:
144,200,11710,1,8,0:0:0:0:
144,200,11868,1,0,0:0:0:0:
200,184,11947,1,0,0:0:0:0:
204,172,12026,1,8,0:0:0:0:
196,184,12183,1,0,0:0:0:0:
188,140,12341,1,8,0:0:0:0:
188,140,12499,1,0,0:0:0:0:
296,116,12815,1,8,0:0:0:0:
284,124,12973,1,0,0:0:0:0:
288,124,13131,1,8,0:0:0:0:
216,208,13447,1,8,0:0:0:0:
216,208,13526,1,8,0:0:0:0:
216,208,13604,1,0,0:0:0:0:
216,208,13683,1,0,0:0:0:0:
216,208,13762,1,0,0:0:0:0:
216,208,13920,5,4,0:0:0:0:
144,156,14236,1,0,0:0:0:0:
144,156,14552,1,0,0:0:0:0:
144,156,14868,1,0,0:0:0:0:
144,156,15183,1,0,0:0:0:0:
272,120,15341,1,0,0:0:0:0:
272,120,15420,1,0,0:0:0:0:
160,136,15499,1,0,0:0:0:0:
164,144,15815,1,0,0:0:0:0:
204,116,15973,1,0,0:0:0:0:
164,144,16131,1,8,0:0:0:0:
240,184,16447,1,4,0:0:0:0:
164,144,16762,1,0,0:0:0:0:
164,144,17078,1,0,0:0:0:0:
164,144,17394,1,0,0:0:0:0:
164,144,17710,1,0,0:0:0:0:
268,140,17868,1,0,0:0:0:0:
268,140,17947,1,0,0:0:0:0:
164,144,18026,1,0,0:0:0:0:
184,120,18341,1,8,0:0:0:0:
288,296,18499,1,0,0:0:0:0:
144,148,18578,1,0,0:0:0:0:
136,160,18657,1,0,0:0:0:0:
240,184,18815,1,4,0:0:0:0:
176,156,19131,1,0,0:0:0:0:
260,180,19289,1,8,0:0:0:0:
204,136,19604,1,0,0:0:0:0:
208,152,19762,1,0,0:0:0:0:
192,152,19920,1,8,0:0:0:0:
200,160,20078,1,0,0:0:0:0:
168,108,20394,1,0,0:0:0:0:
168,120,20552,1,8,0:0:0:0:
160,128,20868,1,0,0:0:0:0:
160,140,21026,1,0,0:0:0:0:
160,140,21183,1,8,0:0:0:0:
160,144,21341,1,12,0:0:0:0:
144,136,21657,1,0,0:0:0:0:
144,140,21815,1,8,0:0:0:0:
136,136,22131,1,0,0:0:0:0:
136,144,22289,1,0,0:0:0:0:
136,144,22447,1,8,0:0:0:0:
136,144,22604,1,4,0:0:0:0:
184,140,22920,1,0,0:0:0:0:
184,140,23078,1,8,0:0:0:0:
172,144,23394,1,0,0:0:0:0:
172,144,23552,1,0,0:0:0:0:
172,144,23710,1,8,0:0:0:0:
172,144,23789,1,8,0:0:0:0:
176,144,23868,1,0,0:0:0:0:
176,144,24026,1,4,0:0:0:0:
144,156,24341,1,0,0:0:0:0:
144,156,24657,5,0,0:0:0:0:
144,156,24973,1,0,0:0:0:0:
144,156,25289,1,0,0:0:0:0:
212,100,25447,1,0,0:0:0:0:
212,104,25526,1,0,0:0:0:0:
160,136,25604,1,0,0:0:0:0:
164,144,25920,1,0,0:0:0:0:
224,256,26078,1,0,0:0:0:0:
164,144,26236,1,8,0:0:0:0:
240,184,26552,1,4,0:0:0:0:
164,144,26868,1,0,0:0:0:0:
164,144,27183,1,0,0:0:0:0:
164,144,27499,1,0,0:0:0:0:
164,144,27815,1,0,0:0:0:0:
168,96,27973,1,0,0:0:0:0:
168,96,28052,1,0,0:0:0:0:
164,144,28131,1,0,0:0:0:0:
204,216,28447,1,8,0:0:0:0:
204,216,28604,1,0,0:0:0:0:
204,216,28683,1,0,0:0:0:0:
204,216,28762,1,0,0:0:0:0:
204,216,28920,1,4,0:0:0:0:
176,156,29236,1,0,0:0:0:0:
260,180,29394,1,8,0:0:0:0:
204,136,29710,1,0,0:0:0:0:
208,152,29868,1,0,0:0:0:0:
192,152,30026,1,8,0:0:0:0:
200,160,30183,1,0,0:0:0:0:
168,108,30499,1,0,0:0:0:0:
168,120,30657,1,8,0:0:0:0:
160,128,30973,1,0,0:0:0:0:
160,140,31131,1,0,0:0:0:0:
160,140,31289,1,8,0:0:0:0:
160,144,31447,1,12,0:0:0:0:
144,136,31762,1,0,0:0:0:0:
144,140,31920,1,8,0:0:0:0:
136,136,32236,1,0,0:0:0:0:
136,144,32394,5,8,0:0:0:0:
136,144,32552,1,8,0:0:0:0:
136,144,32710,1,4,0:0:0:0:
184,192,33026,1,0,0:0:0:0:
188,208,33183,1,8,0:0:0:0:
188,208,33262,1,8,0:0:0:0:
180,216,33341,1,0,0:0:0:0:
176,148,33499,1,0,0:0:0:0:
176,148,33657,1,0,0:0:0:0:
172,152,33736,1,0,0:0:0:0:
260,172,33815,1,8,0:0:0:0:
256,176,33894,1,8,0:0:0:0:
256,180,33973,1,0,0:0:0:0:
256,184,34131,1,4,0:0:0:0:
180,112,34447,1,8,0:0:0:0:
180,120,34604,1,8,0:0:0:0:
160,140,34762,1,0,0:0:0:0:
160,144,34841,1,0,0:0:0:0:
156,152,34920,1,0,0:0:0:0:
156,152,35078,1,8,0:0:0:0:
148,140,35236,1,0,0:0:0:0:
148,140,35552,1,0,0:0:0:0:
148,136,35710,1,8,0:0:0:0:
148,140,35868,1,8,0:0:0:0:
148,140,36026,1,0,0:0:0:0:
148,144,36104,1,0,0:0:0:0:
148,140,36183,1,0,0:0:0:0:
148,140,36341,1,8,0:0:0:0:
188,156,36657,1,0,0:0:0:0:
184,172,36815,1,0,0:0:0:0:
176,180,36973,1,8,0:0:0:0:
176,180,37131,1,8,0:0:0:0:
152,120,37289,1,0,0:0:0:0:
152,124,37368,1,0,0:0:0:0:
152,120,37447,1,0,0:0:0:0:
152,120,37604,1,8,0:0:0:0:
168,120,37762,1,0,0:0:0:0:
180,128,38078,1,0,0:0:0:0:
180,136,38236,1,8,0:0:0:0:
180,136,38394,1,8,0:0:0:0:
180,132,38552,5,0,0:0:0:0:
180,132,38710,1,0,0:0:0:0:
176,136,38868,1,8,0:0:0:0:
180,132,39026,5,0,0:0:0:0:
180,132,39104,1,0,0:0:0:0:
180,132,39183,1,0,0:0:0:0:
176,144,39499,1,8,0:0:0:0:
176,140,39657,1,8,0:0:0:0:
176,144,39815,1,0,0:0:0:0:
208,80,39894,1,0,0:0:0:0:
208,80,39973,1,0,0:0:0:0:
208,80,40131,1,8,0:0:0:0:
164,112,40289,1,0,0:0:0:0:
180,108,40604,1,0,0:0:0:0:
184,120,40762,1,8,0:0:0:0:
184,120,40920,1,8,0:0:0:0:
184,116,41078,1,0,0:0:0:0:
184,124,41157,1,0,0:0:0:0:
184,120,41236,1,0,0:0:0:0:
184,124,41394,1,8,0:0:0:0:
216,164,41710,5,0,0:0:0:0:
204,136,41868,1,0,0:0:0:0:
208,200,42026,5,8,0:0:0:0:
208,200,42183,1,8,0:0:0:0:
216,164,42341,1,0,0:0:0:0:
216,164,42420,1,0,0:0:0:0:
216,168,42499,1,0,0:0:0:0:
216,172,42657,1,8,0:0:0:0:
192,168,42815,1,0,0:0:0:0:
196,160,43131,1,0,0:0:0:0:
176,168,43289,1,8,0:0:0:0:
224,108,43447,1,0,0:0:0:0:
196,136,43526,1,0,0:0:0:0:
196,136,43604,1,0,0:0:0:0:
156,120,43762,1,0,0:0:0:0:
156,112,43920,1,8,0:0:0:0:
156,120,43999,1,8,0:0:0:0:
156,120,44078,1,0,0:0:0:0:
132,192,44236,5,12,0:0:0:0:
240,212,44394,1,0,0:0:0:0:
240,212,44473,1,0,0:0:0:0:
240,204,44552,1,0,0:0:0:0:
128,192,44710,1,12,0:0:0:0:
244,204,44868,1,0,0:0:0:0:
244,204,44947,1,0,0:0:0:0:
248,204,45026,1,0,0:0:0:0:
116,192,45183,1,12,0:0:0:0:
248,204,45341,1,0,0:0:0:0:
248,200,45420,1,0,0:0:0:0:
248,200,45499,1,0,0:0:0:0:
116,200,45657,1,12,0:0:0:0:
300,276,45815,1,0,0:0:0:0:
300,276,45894,1,0,0:0:0:0:
300,276,45973,1,0,0:0:0:0:
116,200,46131,1,12,0:0:0:0:
204,120,46447,1,0,0:0:0:0:
168,132,46604,1,8,0:0:0:0:
112,204,46762,1,4,0:0:0:0:
152,172,46920,1,8,0:0:0:0:
152,172,46999,1,8,0:0:0:0:
156,176,47078,1,8,0:0:0:0:
112,204,47236,1,4,0:0:0:0:
160,176,47394,1,8,0:0:0:0:
160,176,47473,1,8,0:0:0:0:
160,184,47552,1,8,0:0:0:0:
112,204,47710,1,4,0:0:0:0:
160,184,47868,1,8,0:0:0:0:
164,184,47947,1,8,0:0:0:0:
164,184,48026,1,8,0:0:0:0:
112,204,48183,1,4,0:0:0:0:
164,184,48341,1,8,0:0:0:0:
164,184,48420,1,8,0:0:0:0:
164,184,48499,1,8,0:0:0:0:
112,204,48657,1,4,0:0:0:0:
176,144,48973,1,8,0:0:0:0:
168,124,49131,1,0,0:0:0:0:
112,204,49289,1,12,0:0:0:0:
184,164,49447,1,0,0:0:0:0:
176,188,49526,1,0,0:0:0:0:
216,144,49604,1,8,0:0:0:0:
104,180,49762,1,0,0:0:0:0:
216,144,49920,1,8,0:0:0:0:
200,160,50078,1,0,0:0:0:0:
216,148,50236,1,8,0:0:0:0:
148,144,50315,1,8,0:0:0:0:
192,172,50394,1,0,0:0:0:0:
216,148,50552,1,8,0:0:0:0:
192,172,50710,1,0,0:0:0:0:
216,148,50868,1,8,0:0:0:0:
192,172,51026,1,0,0:0:0:0:
176,192,51104,1,0,0:0:0:0:
216,148,51183,1,8,0:0:0:0:
192,200,51341,1,0,0:0:0:0:
216,148,51499,1,8,0:0:0:0:
192,156,51657,1,4,0:0:0:0:
180,184,51973,1,0,0:0:0:0:
180,184,52131,1,0,0:0:0:0:
176,168,52289,1,0,0:0:0:0:
180,184,52447,1,0,0:0:0:0:
180,184,52604,1,0,0:0:0:0:
180,184,52762,1,0,0:0:0:0:
180,184,52920,1,0,0:0:0:0:
216,152,53078,1,8,0:0:0:0:
216,152,53236,1,8,0:0:0:0:
216,152,53394,1,8,0:0:0:0:
184,128,54341,1,4,0:0:0:0:
312,168,54499,1,8,0:0:0:0:
144,128,54657,1,0,0:0:0:0:
160,116,54815,1,8,0:0:0:0:
160,116,54894,1,8,0:0:0:0:
160,120,54973,1,8,0:0:0:0:
160,120,55131,1,0,0:0:0:0:
176,160,55289,1,8,0:0:0:0:
192,144,55368,1,8,0:0:0:0:
184,124,55447,1,0,0:0:0:0:
176,144,55604,1,0,0:0:0:0:
176,148,55762,1,8,0:0:0:0:
176,160,55841,1,8,0:0:0:0:
176,160,55920,1,8,0:0:0:0:
152,144,56078,1,0,0:0:0:0:
196,120,56236,1,8,0:0:0:0:
196,120,56315,1,0,0:0:0:0:
196,120,56394,1,8,0:0:0:0:
196,120,56473,1,8,0:0:0:0:
200,100,56552,1,0,0:0:0:0:
176,144,56710,1,0,0:0:0:0:
196,152,56868,1,8,0:0:0:0:
188,104,56947,1,8,0:0:0:0:
188,104,57026,1,8,0:0:0:0:
192,112,57183,1,0,0:0:0:0:
188,124,57341,1,8,0:0:0:0:
188,128,57420,1,8,0:0:0:0:
188,132,57499,1,0,0:0:0:0:
188,132,57578,1,0,0:0:0:0:
188,132,57657,1,8,0:0:0:0:
188,132,57815,1,4,0:0:0:0:
108,160,58131,1,0,0:0:0:0:
224,128,58447,1,0,0:0:0:0:
204,128,58604,1,0,0:0:0:0:
200,80,58683,1,0,0:0:0:0:
204,128,58762,1,8,0:0:0:0:
204,132,58841,1,8,0:0:0:0:
204,136,58920,1,0,0:0:0:0:
184,120,59078,5,8,0:0:0:0:
184,120,59236,1,8,0:0:0:0:
184,120,59394,1,4,0:0:0:0:
208,120,59710,1,8,0:0:0:0:
212,104,59868,1,0,0:0:0:0:
144,136,59947,1,0,0:0:0:0:
208,136,60026,1,0,0:0:0:0:
208,140,60183,1,0,0:0:0:0:
208,140,60341,1,12,0:0:0:0:
208,120,60657,1,8,0:0:0:0:
144,136,60973,1,8,0:0:0:0:
144,136,61131,1,0,0:0:0:0:
144,136,61210,1,0,0:0:0:0:
144,136,61289,1,0,0:0:0:0:
144,136,61368,1,0,0:0:0:0:
144,136,61447,1,8,0:0:0:0:
144,136,61604,1,8,0:0:0:0:
144,136,61683,1,8,0:0:0:0:
144,136,61762,1,0,0:0:0:0:
196,132,61920,5,12,0:0:0:0:
192,116,62078,1,0,0:0:0:0:
192,116,62157,1,0,0:0:0:0:
100,100,62236,1,0,0:0:0:0:
200,120,62394,1,12,0:0:0:0:
196,120,62552,1,0,0:0:0:0:
196,120,62631,1,0,0:0:0:0:
88,112,62710,1,0,0:0:0:0:
200,120,62868,1,12,0:0:0:0:
192,116,63026,1,0,0:0:0:0:
196,120,63104,1,0,0:0:0:0:
92,112,63183,1,0,0:0:0:0:
200,120,63341,1,12,0:0:0:0:
244,144,63499,1,0,0:0:0:0:
88,112,63657,1,8,0:0:0:0:
88,112,63736,1,0,0:0:0:0:
88,116,63815,1,8,0:0:0:0:
88,116,63894,1,8,0:0:0:0:
88,116,63973,1,0,0:0:0:0:
88,116,64052,1,0,0:0:0:0:
88,116,64131,1,8,0:0:0:0:
136,104,64289,1,8,0:0:0:0:
156,96,64447,1,4,0:0:0:0:
240,120,64604,1,8,0:0:0:0:
144,128,64762,1,0,0:0:0:0:
160,116,64920,1,8,0:0:0:0:
160,116,64999,1,8,0:0:0:0:
160,120,65078,1,8,0:0:0:0:
160,120,65236,1,0,0:0:0:0:
176,160,65394,1,8,0:0:0:0:
192,144,65473,1,8,0:0:0:0:
184,124,65552,1,0,0:0:0:0:
176,144,65710,1,0,0:0:0:0:
176,148,65868,1,8,0:0:0:0:
176,160,65947,1,8,0:0:0:0:
176,160,66026,1,8,0:0:0:0:
152,144,66183,1,0,0:0:0:0:
196,120,66341,1,8,0:0:0:0:
196,120,66420,1,0,0:0:0:0:
196,120,66499,1,8,0:0:0:0:
196,120,66578,1,8,0:0:0:0:
200,100,66657,1,0,0:0:0:0:
176,144,66815,1,0,0:0:0:0:
196,152,66973,1,8,0:0:0:0:
188,104,67052,1,8,0:0:0:0:
188,104,67131,1,8,0:0:0:0:
192,112,67289,1,0,0:0:0:0:
188,124,67447,1,8,0:0:0:0:
188,128,67526,1,8,0:0:0:0:
188,132,67604,1,0,0:0:0:0:
188,132,67683,1,0,0:0:0:0:
188,132,67762,1,8,0:0:0:0:
188,132,67920,1,4,0:0:0:0:
204,156,68236,1,0,0:0:0:0:
204,156,68552,1,0,0:0:0:0:
128,120,68710,1,0,0:0:0:0:
132,128,68789,1,0,0:0:0:0:
204,156,68868,1,8,0:0:0:0:
128,120,68947,1,8,0:0:0:0:
132,128,69026,1,0,0:0:0:0:
204,156,69183,1,8,0:0:0:0:
180,136,69341,1,8,0:0:0:0:
208,160,69499,1,4,0:0:0:0:
148,128,69815,1,8,0:0:0:0:
152,132,69973,1,0,0:0:0:0:
152,136,70052,1,0,0:0:0:0:
152,136,70131,1,0,0:0:0:0:
152,136,70289,1,0,0:0:0:0:
208,160,70447,1,12,0:0:0:0:
164,132,70762,1,8,0:0:0:0:
164,136,71078,1,8,0:0:0:0:
168,144,71236,1,0,0:0:0:0:
168,144,71315,1,0,0:0:0:0:
168,148,71394,1,0,0:0:0:0:
168,144,71473,1,0,0:0:0:0:
168,144,71552,1,8,0:0:0:0:
168,148,71710,1,8,0:0:0:0:
176,140,71789,1,8,0:0:0:0:
168,148,71868,1,0,0:0:0:0:
176,148,72026,1,12,0:0:0:0:
148,196,72183,1,0,0:0:0:0:
136,152,72262,1,0,0:0:0:0:
148,196,72341,1,0,0:0:0:0:
148,196,72499,1,12,0:0:0:0:
136,152,72657,1,0,0:0:0:0:
136,152,72736,1,0,0:0:0:0:
136,152,72815,1,0,0:0:0:0:
148,196,72973,1,12,0:0:0:0:
136,160,73131,1,0,0:0:0:0:
136,164,73210,1,0,0:0:0:0:
136,164,73289,1,0,0:0:0:0:
160,176,73447,1,12,0:0:0:0:
256,192,73604,12,0,74868,0:0:0:0:
168,144,75183,5,0,0:0:0:0:
176,152,75341,1,0,0:0:0:0:
216,128,75499,5,8,0:0:0:0:
216,128,75578,1,8,0:0:0:0:
208,124,75657,1,0,0:0:0:0:
144,140,75815,1,8,0:0:0:0:
104,152,76131,1,0,0:0:0:0:
104,156,76289,1,0,0:0:0:0:
104,160,76762,1,8,0:0:0:0:
120,160,77078,1,0,0:0:0:0:
120,160,77236,1,0,0:0:0:0:
124,160,77710,1,8,0:0:0:0:
120,160,78026,1,0,0:0:0:0:
120,160,78183,1,8,0:0:0:0:
364,268,78657,1,4,0:0:0:0:
120,160,78814,1,0,0:0:0:0:
120,160,78972,1,8,0:0:0:0:
124,164,79130,1,0,0:0:0:0:
124,164,79209,1,8,0:0:0:0:
124,164,79288,1,0,0:0:0:0:
124,164,79446,1,0,0:0:0:0:
124,164,79604,1,8,0:0:0:0:
124,164,79762,1,0,0:0:0:0:
216,204,80078,1,0,0:0:0:0:
276,112,80235,1,8,0:0:0:0:
180,180,80393,1,0,0:0:0:0:
172,184,80551,1,0,0:0:0:0:
172,184,80630,1,0,0:0:0:0:
176,184,80709,1,0,0:0:0:0:
176,184,80867,1,8,0:0:0:0:
176,184,81025,1,0,0:0:0:0:
144,200,81341,1,0,0:0:0:0:
144,200,81499,1,8,0:0:0:0:
144,200,81657,1,0,0:0:0:0:
200,184,81735,1,0,0:0:0:0:
204,172,81814,1,8,0:0:0:0:
196,184,81972,1,0,0:0:0:0:
188,140,82130,1,8,0:0:0:0:
188,140,82288,1,0,0:0:0:0:
224,136,82604,1,0,0:0:0:0:
224,136,82762,1,8,0:0:0:0:
224,144,82920,1,0,0:0:0:0:
224,144,83078,1,8,0:0:0:0:
224,144,83157,1,8,0:0:0:0:
224,144,83235,1,0,0:0:0:0:
224,144,83393,1,0,0:0:0:0:
224,144,83551,1,8,0:0:0:0:
300,96,83867,1,8,0:0:0:0:
296,88,84025,1,0,0:0:0:0:
296,96,84183,1,8,0:0:0:0:
292,104,84341,1,8,0:0:0:0:
152,148,84499,1,0,0:0:0:0:
184,160,84657,1,4,0:0:0:0:
184,160,84814,1,12,0:0:0:0:
256,192,84972,12,0,86551,0:0:0:0:
