osu file format v14

[General]
AudioFilename: audio.mp3
AudioLeadIn: 0
PreviewTime: 53710
Countdown: 0
SampleSet: Normal
StackLeniency: 0.7
Mode: 1
LetterboxInBreaks: 0
WidescreenStoryboard: 0

[Editor]
Bookmarks: 3815,13920,23947,29078,34131,44236,54341,75815,78973
DistanceSpacing: 1
BeatDivisor: 2
GridSize: 4
TimelineZoom: 0.6999999

[Metadata]
Title:ROUGH DIAMONDS
TitleUnicode:ROUGH DIAMONDS
Artist:SCREEN mode
ArtistUnicode:SCREEN mode
Creator:Volta
Version:Kantan
Source:食戟のソーマ 弐ノ皿
Tags:Shokugeki no Soma: Ni no Sara food wars tv size opening 3 season 2 The Second Plate
BeatmapID:1145940
BeatmapSetID:540423

[Difficulty]
HPDrainRate:7
CircleSize:5
OverallDifficulty:3
ApproachRate:5
SliderMultiplier:1.4
SliderTickRate:1

[Events]
//Background and Video events
0,0,"thumb-1920-714817.jpg",0,0
//Break Periods
//Storyboard Layer 0 (Background)
//Storyboard Layer 1 (Fail)
//Storyboard Layer 2 (Pass)
//Storyboard Layer 3 (Foreground)
//Storyboard Sound Samples

[TimingPoints]
26,315.789473684211,4,1,0,90,1,0
54341,-100,4,1,0,90,0,1
75815,-100,4,1,0,90,0,0
78341,315.789473684211,4,1,0,90,1,8
78657,315.789473684211,4,1,0,90,1,0

[HitObjects]
220,200,1289,5,8,0:0:0:0:
224,128,1762,1,0,0:0:0:0:
220,132,2236,1,8,0:0:0:0:
220,144,2710,1,12,0:0:0:0:
364,268,3815,5,4,0:0:0:0:
208,184,4920,1,0,0:0:0:0:
208,184,5710,1,0,0:0:0:0:
208,184,6183,1,0,0:0:0:0:
208,184,6973,1,8,0:0:0:0:
208,184,7447,1,8,0:0:0:0:
200,168,8236,1,8,0:0:0:0:
364,268,8868,1,4,0:0:0:0:
124,164,9973,1,0,0:0:0:0:
276,112,10762,1,0,0:0:0:0:
176,184,11236,1,0,0:0:0:0:
208,136,12026,1,8,0:0:0:0:
188,140,12499,1,8,0:0:0:0:
288,124,13131,1,8,0:0:0:0:
216,208,13920,5,4,0:0:0:0:
144,156,15183,1,0,0:0:0:0:
164,144,15815,1,0,0:0:0:0:
240,184,16447,1,4,0:0:0:0:
164,144,17710,1,0,0:0:0:0:
184,120,18341,1,8,0:0:0:0:
240,184,18815,1,4,0:0:0:0:
204,136,19604,1,0,0:0:0:0:
200,160,20078,1,0,0:0:0:0:
160,128,20868,1,0,0:0:0:0:
160,144,21341,1,12,0:0:0:0:
136,136,22131,1,8,0:0:0:0:
136,144,22604,1,4,0:0:0:0:
176,144,24026,1,4,0:0:0:0:
144,156,25289,1,0,0:0:0:0:
164,144,25920,1,0,0:0:0:0:
240,184,26552,1,4,0:0:0:0:
164,144,27815,1,0,0:0:0:0:
204,216,28447,1,8,0:0:0:0:
204,216,28920,1,4,0:0:0:0:
204,136,29710,1,0,0:0:0:0:
200,160,30183,1,0,0:0:0:0:
160,128,30973,1,0,0:0:0:0:
160,144,31447,1,12,0:0:0:0:
136,136,32236,1,8,0:0:0:0:
136,144,32710,1,4,0:0:0:0:
256,184,34131,1,4,0:0:0:0:
160,140,34762,1,0,0:0:0:0:
148,140,35394,1,8,0:0:0:0:
148,140,35710,1,0,0:0:0:0:
148,140,36026,1,8,0:0:0:0:
188,156,36657,1,0,0:0:0:0:
152,120,37289,1,0,0:0:0:0:
168,120,37920,1,8,0:0:0:0:
180,132,39183,1,0,0:0:0:0:
176,144,39815,1,0,0:0:0:0:
164,112,40447,1,8,0:0:0:0:
184,124,40762,1,8,0:0:0:0:
184,120,41078,1,0,0:0:0:0:
216,164,41710,5,8,0:0:0:0:
216,164,42341,1,0,0:0:0:0:
192,168,42973,1,8,0:0:0:0:
132,192,44236,5,12,0:0:0:0:
116,192,45183,1,12,0:0:0:0:
116,200,46131,1,12,0:0:0:0:
112,204,46762,1,4,0:0:0:0:
112,204,47710,1,4,0:0:0:0:
112,204,48657,1,4,0:0:0:0:
112,204,49289,1,12,0:0:0:0:
236,136,49920,1,8,0:0:0:0:
216,148,50552,1,8,0:0:0:0:
216,148,50868,1,8,0:0:0:0:
216,148,51183,1,8,0:0:0:0:
196,128,51657,1,0,0:0:0:0:
256,192,52131,12,0,53394,0:0:0:0:
184,128,54341,5,4,0:0:0:0:
228,104,54657,1,8,0:0:0:0:
160,120,54973,1,0,0:0:0:0:
176,160,55289,1,8,0:0:0:0:
176,144,55604,1,0,0:0:0:0:
196,120,56236,1,0,0:0:0:0:
172,136,56552,1,0,0:0:0:0:
196,152,56868,1,8,0:0:0:0:
188,124,57341,1,8,0:0:0:0:
188,132,57815,1,12,0:0:0:0:
184,120,59078,5,8,0:0:0:0:
184,120,59394,1,4,0:0:0:0:
212,104,59868,1,0,0:0:0:0:
208,140,60341,1,12,0:0:0:0:
144,136,61289,1,0,0:0:0:0:
144,136,61604,1,8,0:0:0:0:
196,132,61920,5,12,0:0:0:0:
200,120,62394,1,12,0:0:0:0:
200,120,62868,1,12,0:0:0:0:
200,120,63341,1,12,0:0:0:0:
156,96,64447,1,4,0:0:0:0:
144,128,64762,1,8,0:0:0:0:
160,120,65078,1,0,0:0:0:0:
176,160,65394,1,8,0:0:0:0:
176,144,65710,1,0,0:0:0:0:
196,120,66341,1,8,0:0:0:0:
200,100,66657,1,0,0:0:0:0:
196,152,66973,1,8,0:0:0:0:
188,124,67447,1,8,0:0:0:0:
188,132,67920,1,12,0:0:0:0:
204,156,69183,1,8,0:0:0:0:
208,160,69499,1,4,0:0:0:0:
152,132,69973,1,0,0:0:0:0:
208,160,70447,1,12,0:0:0:0:
216,168,71394,1,0,0:0:0:0:
256,104,71710,1,0,0:0:0:0:
176,148,72026,1,12,0:0:0:0:
148,196,72499,1,12,0:0:0:0:
148,196,72973,1,12,0:0:0:0:
160,176,73447,1,12,0:0:0:0:
256,192,73604,12,0,74868,0:0:0:0:
168,144,75183,5,0,0:0:0:0:
216,128,75499,5,0,0:0:0:0:
144,140,75815,1,8,0:0:0:0:
364,268,78656,5,4,0:0:0:0:
208,184,79762,1,0,0:0:0:0:
208,184,80551,1,0,0:0:0:0:
208,184,81025,1,0,0:0:0:0:
208,184,81815,1,8,0:0:0:0:
208,184,82289,1,8,0:0:0:0:
200,168,83078,1,8,0:0:0:0:
364,268,83551,5,0,0:0:0:0:
144,156,84657,1,4,0:0:0:0:
256,192,84814,12,0,86551,0:0:0:0:
