osu file format v14

[General]
AudioFilename: audio.mp3
AudioLeadIn: 0
PreviewTime: 53710
Countdown: 0
SampleSet: Normal
StackLeniency: 0.7
Mode: 1
LetterboxInBreaks: 0
WidescreenStoryboard: 0

[Editor]
Bookmarks: 3815,13920,23947,29078,34131,44236,54341,75815,78973
DistanceSpacing: 1
BeatDivisor: 2
GridSize: 4
TimelineZoom: 1.1

[Metadata]
Title:ROUGH DIAMONDS
TitleUnicode:ROUGH DIAMONDS
Artist:SCREEN mode
ArtistUnicode:SCREEN mode
Creator:Volta
Version:Futsuu
Source:食戟のソーマ 弐ノ皿
Tags:Shokugeki no Soma: Ni no Sara food wars tv size opening 3 season 2 The Second Plate
BeatmapID:1145939
BeatmapSetID:540423

[Difficulty]
HPDrainRate:6
CircleSize:5
OverallDifficulty:4
ApproachRate:5
SliderMultiplier:1.4
SliderTickRate:1

[Events]
//Background and Video events
0,0,"thumb-1920-714817.jpg",0,0
//Break Periods
//Storyboard Layer 0 (Background)
//Storyboard Layer 1 (Fail)
//Storyboard Layer 2 (Pass)
//Storyboard Layer 3 (Foreground)
//Storyboard Sound Samples

[TimingPoints]
26,315.789473684211,4,1,0,90,1,0
54341,-100,4,1,0,90,0,1
75815,-100,4,1,0,90,0,0
78341,315.789473684211,4,1,0,90,1,8
78657,315.789473684211,4,1,0,90,1,0

[HitObjects]
220,192,973,5,0,0:0:0:0:
220,200,1289,1,8,0:0:0:0:
224,128,1762,1,0,0:0:0:0:
220,132,2236,1,8,0:0:0:0:
184,92,2710,1,12,0:0:0:0:
368,272,3499,1,8,0:0:0:0:
364,268,3815,1,4,0:0:0:0:
124,164,4447,1,0,0:0:0:0:
124,164,4762,1,8,0:0:0:0:
124,164,4920,1,0,0:0:0:0:
276,112,5394,1,8,0:0:0:0:
172,184,5710,1,0,0:0:0:0:
176,184,6026,1,8,0:0:0:0:
176,184,6183,1,0,0:0:0:0:
176,180,6657,1,8,0:0:0:0:
204,172,6973,1,0,0:0:0:0:
188,140,7289,1,8,0:0:0:0:
188,140,7447,1,0,0:0:0:0:
224,136,7920,1,8,0:0:0:0:
224,144,8236,1,8,0:0:0:0:
224,144,8552,1,8,0:0:0:0:
224,144,8868,1,4,0:0:0:0:
124,164,9499,1,0,0:0:0:0:
124,164,9815,1,8,0:0:0:0:
124,164,9973,1,0,0:0:0:0:
276,112,10447,1,8,0:0:0:0:
172,184,10762,1,0,0:0:0:0:
176,184,11078,1,8,0:0:0:0:
200,144,11236,1,0,0:0:0:0:
204,152,11710,1,8,0:0:0:0:
204,172,12026,1,0,0:0:0:0:
188,140,12341,1,8,0:0:0:0:
188,140,12499,1,0,0:0:0:0:
188,140,12815,1,0,0:0:0:0:
288,124,13131,1,8,0:0:0:0:
216,208,13920,5,4,0:0:0:0:
144,156,14552,1,0,0:0:0:0:
144,156,15183,1,0,0:0:0:0:
160,136,15499,1,0,0:0:0:0:
164,144,15815,1,0,0:0:0:0:
164,144,16131,1,8,0:0:0:0:
240,184,16447,1,4,0:0:0:0:
164,144,17078,1,0,0:0:0:0:
164,144,17710,1,0,0:0:0:0:
164,144,18026,1,0,0:0:0:0:
184,120,18341,1,8,0:0:0:0:
128,112,18499,1,0,0:0:0:0:
240,184,18815,1,4,0:0:0:0:
260,180,19289,1,8,0:0:0:0:
204,136,19604,1,0,0:0:0:0:
192,152,19920,1,8,0:0:0:0:
200,160,20078,1,0,0:0:0:0:
168,120,20552,1,8,0:0:0:0:
160,128,20868,1,0,0:0:0:0:
160,140,21183,1,0,0:0:0:0:
160,144,21341,1,12,0:0:0:0:
144,140,21815,1,8,0:0:0:0:
136,136,22131,1,0,0:0:0:0:
136,144,22447,1,8,0:0:0:0:
136,144,22604,1,4,0:0:0:0:
92,140,23078,1,8,0:0:0:0:
172,144,23394,1,0,0:0:0:0:
172,144,23710,1,8,0:0:0:0:
176,144,24026,1,4,0:0:0:0:
144,156,24657,5,0,0:0:0:0:
144,156,25289,1,0,0:0:0:0:
160,136,25604,1,0,0:0:0:0:
164,144,25920,1,0,0:0:0:0:
164,144,26236,1,8,0:0:0:0:
240,184,26552,1,4,0:0:0:0:
164,144,27183,1,0,0:0:0:0:
164,144,27815,1,0,0:0:0:0:
164,144,28131,1,0,0:0:0:0:
204,216,28447,1,8,0:0:0:0:
48,128,28604,1,0,0:0:0:0:
204,216,28920,1,4,0:0:0:0:
260,180,29394,1,8,0:0:0:0:
204,136,29710,1,0,0:0:0:0:
192,152,30026,1,8,0:0:0:0:
200,160,30183,1,0,0:0:0:0:
168,120,30657,1,8,0:0:0:0:
160,128,30973,1,0,0:0:0:0:
160,140,31289,1,0,0:0:0:0:
160,144,31447,1,12,0:0:0:0:
144,140,31920,1,8,0:0:0:0:
136,136,32236,1,0,0:0:0:0:
136,144,32552,1,8,0:0:0:0:
136,144,32710,1,4,0:0:0:0:
224,240,33183,1,8,0:0:0:0:
64,124,33499,1,0,0:0:0:0:
228,148,33657,1,0,0:0:0:0:
172,152,33815,1,8,0:0:0:0:
256,184,34131,1,4,0:0:0:0:
160,140,34762,1,0,0:0:0:0:
156,152,35078,1,8,0:0:0:0:
148,140,35236,1,0,0:0:0:0:
148,140,35552,1,8,0:0:0:0:
148,140,35868,1,8,0:0:0:0:
148,140,36183,1,0,0:0:0:0:
148,140,36341,1,8,0:0:0:0:
188,156,36657,1,0,0:0:0:0:
152,120,37289,1,8,0:0:0:0:
152,120,37604,1,8,0:0:0:0:
168,120,37762,1,0,0:0:0:0:
180,128,38078,1,0,0:0:0:0:
180,136,38394,1,8,0:0:0:0:
180,136,38710,1,0,0:0:0:0:
196,152,38868,1,8,0:0:0:0:
180,132,39183,1,0,0:0:0:0:
176,144,39815,1,8,0:0:0:0:
208,80,40131,1,8,0:0:0:0:
164,112,40289,1,0,0:0:0:0:
180,108,40604,1,8,0:0:0:0:
184,120,40920,1,0,0:0:0:0:
184,120,41236,1,0,0:0:0:0:
184,124,41394,1,8,0:0:0:0:
216,164,41710,5,0,0:0:0:0:
216,164,42341,1,8,0:0:0:0:
216,172,42657,1,0,0:0:0:0:
192,168,42815,1,8,0:0:0:0:
196,160,43131,1,8,0:0:0:0:
176,168,43447,1,0,0:0:0:0:
156,120,43762,1,0,0:0:0:0:
156,112,43920,1,8,0:0:0:0:
132,192,44236,5,12,0:0:0:0:
128,192,44710,1,12,0:0:0:0:
116,192,45183,1,12,0:0:0:0:
116,200,45657,1,12,0:0:0:0:
116,200,46131,1,12,0:0:0:0:
112,204,46762,1,4,0:0:0:0:
112,204,47236,1,4,0:0:0:0:
112,204,47710,1,4,0:0:0:0:
112,204,48183,1,4,0:0:0:0:
112,204,48657,1,4,0:0:0:0:
112,204,49289,1,12,0:0:0:0:
216,144,49604,1,8,0:0:0:0:
216,144,49920,1,8,0:0:0:0:
216,148,50236,1,8,0:0:0:0:
192,172,50394,1,0,0:0:0:0:
216,148,50552,1,8,0:0:0:0:
216,148,50868,1,8,0:0:0:0:
216,148,51183,1,8,0:0:0:0:
148,128,51341,1,0,0:0:0:0:
216,148,51499,1,8,0:0:0:0:
192,156,51657,1,4,0:0:0:0:
256,192,52131,12,0,53394,0:0:0:0:
184,128,54341,5,4,0:0:0:0:
144,128,54657,1,8,0:0:0:0:
160,120,54973,1,0,0:0:0:0:
160,120,55131,1,0,0:0:0:0:
176,160,55289,1,8,0:0:0:0:
176,144,55604,1,0,0:0:0:0:
176,160,55920,1,8,0:0:0:0:
152,144,56078,1,0,0:0:0:0:
196,120,56236,1,8,0:0:0:0:
196,120,56394,1,8,0:0:0:0:
200,100,56552,1,0,0:0:0:0:
196,152,56868,1,8,0:0:0:0:
192,112,57183,1,0,0:0:0:0:
188,124,57341,1,8,0:0:0:0:
188,132,57657,1,8,0:0:0:0:
188,132,57815,1,4,0:0:0:0:
224,128,58447,1,8,0:0:0:0:
200,80,58762,1,8,0:0:0:0:
184,120,59078,5,0,0:0:0:0:
184,120,59236,1,8,0:0:0:0:
184,120,59394,1,4,0:0:0:0:
208,120,59710,1,8,0:0:0:0:
212,104,59868,1,0,0:0:0:0:
208,140,60183,1,0,0:0:0:0:
208,140,60341,1,12,0:0:0:0:
144,136,60973,1,8,0:0:0:0:
144,136,61289,1,0,0:0:0:0:
144,136,61604,1,8,0:0:0:0:
144,136,61762,1,0,0:0:0:0:
196,132,61920,5,12,0:0:0:0:
200,120,62394,1,12,0:0:0:0:
88,112,62710,1,0,0:0:0:0:
200,120,62868,1,12,0:0:0:0:
200,120,63341,1,12,0:0:0:0:
88,116,63815,1,8,0:0:0:0:
88,116,64131,1,0,0:0:0:0:
156,96,64447,1,4,0:0:0:0:
144,128,64762,1,8,0:0:0:0:
160,120,65078,1,0,0:0:0:0:
160,120,65236,1,0,0:0:0:0:
176,160,65394,1,8,0:0:0:0:
176,144,65710,1,0,0:0:0:0:
176,148,66026,1,8,0:0:0:0:
152,144,66183,1,0,0:0:0:0:
196,120,66341,1,8,0:0:0:0:
196,120,66499,1,8,0:0:0:0:
200,100,66657,1,0,0:0:0:0:
196,152,66973,1,8,0:0:0:0:
192,112,67289,1,0,0:0:0:0:
188,124,67447,1,8,0:0:0:0:
188,132,67762,1,8,0:0:0:0:
188,132,67920,1,4,0:0:0:0:
204,156,68552,1,8,0:0:0:0:
204,156,68868,1,8,0:0:0:0:
204,156,69183,1,0,0:0:0:0:
180,136,69341,1,8,0:0:0:0:
208,160,69499,1,4,0:0:0:0:
148,128,69815,1,8,0:0:0:0:
152,132,69973,1,0,0:0:0:0:
152,136,70289,1,0,0:0:0:0:
208,160,70447,1,12,0:0:0:0:
164,136,71078,1,8,0:0:0:0:
216,168,71394,1,0,0:0:0:0:
256,104,71710,1,8,0:0:0:0:
168,148,71868,1,0,0:0:0:0:
176,148,72026,1,12,0:0:0:0:
148,196,72499,1,12,0:0:0:0:
136,152,72815,1,0,0:0:0:0:
148,196,72973,1,12,0:0:0:0:
160,176,73447,1,12,0:0:0:0:
256,192,73604,12,0,74868,0:0:0:0:
168,144,75183,5,0,0:0:0:0:
216,128,75499,5,8,0:0:0:0:
208,124,75657,1,0,0:0:0:0:
144,140,75815,1,8,0:0:0:0:
104,160,76762,1,8,0:0:0:0:
124,160,77710,1,8,0:0:0:0:
120,160,78183,1,8,0:0:0:0:
364,268,78657,1,4,0:0:0:0:
124,164,79288,1,0,0:0:0:0:
124,164,79603,1,8,0:0:0:0:
124,164,79761,1,0,0:0:0:0:
276,112,80235,1,8,0:0:0:0:
172,184,80551,1,0,0:0:0:0:
176,184,80867,1,8,0:0:0:0:
176,184,81024,1,0,0:0:0:0:
176,180,81498,1,8,0:0:0:0:
204,172,81814,1,0,0:0:0:0:
188,140,82130,1,8,0:0:0:0:
188,140,82288,1,0,0:0:0:0:
224,136,82761,1,8,0:0:0:0:
224,144,83077,1,8,0:0:0:0:
224,144,83551,1,8,0:0:0:0:
280,128,84341,5,8,0:0:0:0:
184,160,84657,5,4,0:0:0:0:
184,160,84814,1,12,0:0:0:0:
256,192,84972,12,0,86551,0:0:0:0:
