osu file format v14

[General]
AudioFilename: audio.mp3
AudioLeadIn: 0
PreviewTime: 54488
Countdown: 0
SampleSet: None
StackLeniency: 0.7
Mode: 0
LetterboxInBreaks: 0
WidescreenStoryboard: 1

[Editor]
Bookmarks: 2087,4613,14718,19771,24824,29876,34929,45034,50087,55139,65245,76613,79455,89560
DistanceSpacing: 1
BeatDivisor: 4
GridSize: 32
TimelineZoom: 1.9

[Metadata]
Title:ROUGH DIAMONDS (TV Size)
TitleUnicode:ROUGH DIAMONDS (TV Size)
Artist:SCREEN mode
ArtistUnicode:SCREEN mode
Creator:TheAlphaSheep
Version:xd
Source:食戟のソーマ 弐ノ皿
Tags:shokugeki no soma: ni no sara food wars tv size opening 3 season 2 the second plate
BeatmapID:2022290
BeatmapSetID:966111

[Difficulty]
HPDrainRate:5.2
CircleSize:3.8
OverallDifficulty:9
ApproachRate:9.3
SliderMultiplier:1.4
SliderTickRate:1

[Events]
//Background and Video events
0,0,"background.jpg",0,0
//Break Periods
//Storyboard Layer 0 (Background)
//Storyboard Layer 1 (Fail)
//Storyboard Layer 2 (Pass)
//Storyboard Layer 3 (Foreground)
//Storyboard Sound Samples

[TimingPoints]
824,315.789473684211,4,2,0,70,1,0
2087,-55.5555555555556,4,2,0,70,0,0
4613,-71.4285714285714,4,2,0,70,0,0
14718,-76.9230769230769,4,2,0,70,0,0
55139,-66.6666666666667,4,2,0,70,0,1
76613,-76.9230769230769,4,2,0,70,0,0
79455,-71.4285714285714,4,2,0,70,0,0

[Colours]
Combo1 : 233,237,63
Combo2 : 220,73,73
Combo3 : 222,149,82
Combo4 : 145,97,203

[HitObjects]
256,192,666,12,0,1613,0:0:0:0:
397,44,1771,5,0,0:0:0:0:
392,87,1850,1,0,0:0:0:0:
386,131,1929,1,0,0:0:0:0:
380,174,2008,1,0,0:0:0:0:
375,218,2087,6,0,L|289:199,1,62.9999980773926
106,275,2560,2,0,L|192:256,1,62.9999980773926
375,332,3034,2,0,L|289:313,1,62.9999980773926
168,262,3508,5,0,0:0:0:0:
314,205,3666,1,0,0:0:0:0:
168,148,3824,1,0,0:0:0:0:
390,203,3981,1,0,0:0:0:0:
168,262,4139,5,0,0:0:0:0:
117,249,4217,1,0,0:0:0:0:
77,215,4296,1,0,0:0:0:0:
57,167,4375,1,0,0:0:0:0:
60,115,4454,1,0,0:0:0:0:
86,70,4533,1,0,0:0:0:0:
129,41,4612,5,0,0:0:0:0:
241,237,4771,1,0,0:0:0:0:
405,66,4929,2,0,P|443:59|552:98,1,97.9999970092774
223,131,5245,1,0,0:0:0:0:
417,243,5402,1,0,0:0:0:0:
256,34,5560,1,0,0:0:0:0:
344,262,5718,2,0,L|341:140,1,97.9999970092774
450,9,6034,5,0,0:0:0:0:
258,169,6192,2,0,P|220:176|111:137,1,97.9999970092774
452,124,6508,1,0,0:0:0:0:
256,34,6666,1,0,0:0:0:0:
457,248,6824,1,0,0:0:0:0:
339,30,6981,2,0,L|342:152,1,97.9999970092774
233,283,7297,5,0,0:0:0:0:
69,112,7455,2,0,P|107:105|216:144,1,97.9999970092774
353,298,7771,1,0,0:0:0:0:
252,119,7929,1,0,0:0:0:0:
221,384,8087,1,0,0:0:0:0:
405,206,8245,2,0,L|283:209,1,97.9999970092774
117,211,8560,5,0,0:0:0:0:
303,366,8718,2,0,P|341:359|450:398,1,97.9999970092774
252,119,9034,1,0,0:0:0:0:
221,373,9192,1,0,0:0:0:0:
157,58,9350,1,0,0:0:0:0:
305,287,9508,2,0,L|427:284,1,97.9999970092774
374,50,9824,5,0,0:0:0:0:
192,245,9981,2,0,P|154:252|45:213,1,97.9999970092774
390,168,10297,1,0,0:0:0:0:
157,58,10455,1,0,0:0:0:0:
303,366,10613,1,0,0:0:0:0:
264,54,10771,2,0,L|261:176,1,97.9999970092774
155,362,11087,5,0,0:0:0:0:
360,191,11245,2,0,P|398:184|507:223,1,97.9999970092774
174,153,11560,1,0,0:0:0:0:
384,296,11718,1,0,0:0:0:0:
209,9,11876,1,0,0:0:0:0:
263,322,12034,2,0,L|260:200,1,97.9999970092774
371,12,12350,5,0,0:0:0:0:
161,179,12508,2,0,P|123:186|14:147,1,97.9999970092774
350,135,12824,1,0,0:0:0:0:
167,310,12981,1,0,0:0:0:0:
292,12,13139,1,0,0:0:0:0:
346,324,13297,2,0,L|349:202,1,97.9999970092774
175,62,13613,5,0,0:0:0:0:
478,195,13771,1,0,0:0:0:0:
84,271,13929,1,0,0:0:0:0:
351,79,14245,5,0,0:0:0:0:
350,119,14324,1,0,0:0:0:0:
349,160,14403,1,0,0:0:0:0:
348,201,14482,1,0,0:0:0:0:
347,242,14561,1,0,0:0:0:0:
346,283,14640,1,0,0:0:0:0:
346,324,14718,2,0,P|284:322|245:327,1,90.9999958343508
103,199,15034,6,0,P|165:201|204:196,1,90.9999958343508
351,79,15350,1,0,0:0:0:0:
438,241,15508,2,0,P|376:239|337:244,1,90.9999958343508
232,37,15824,6,0,L|226:144,1,90.9999958343508
103,199,16139,2,0,L|97:92,1,90.9999958343508
218,279,16455,2,0,L|212:386,1,90.9999958343508
40,286,16771,5,0,0:0:0:0:
222,203,16929,1,0,0:0:0:0:
0,158,17087,1,0,0:0:0:0:
212,369,17245,2,0,L|218:279,1,90.9999958343508
97,108,17560,6,0,P|35:98|-3:98,1,90.9999958343508
130,281,17876,1,0,0:0:0:0:
268,122,18034,2,0,P|329:112|368:112,1,90.9999958343508
506,281,18350,6,0,L|399:275,1,90.9999958343508
318,188,18665,2,0,L|211:194,1,90.9999958343508
130,281,18981,2,0,L|23:275,1,90.9999958343508
130,80,19297,5,0,0:0:0:0:
220,287,19455,1,0,0:0:0:0:
363,82,19613,2,0,P|432:68|483:80,1,90.9999958343508
369,286,19929,1,0,0:0:0:0:
218,91,20087,2,0,P|149:77|97:89,1,90.9999958343508
427,191,20402,5,0,0:0:0:0:
154,200,20560,1,0,0:0:0:0:
405,7,20718,1,0,0:0:0:0:
220,287,20876,2,0,L|226:180,1,90.9999958343508
234,18,21192,1,0,0:0:0:0:
369,241,21350,2,0,L|363:134,1,90.9999958343508
129,79,21666,5,0,0:0:0:0:
405,7,21824,1,0,0:0:0:0:
154,200,21981,1,0,0:0:0:0:
474,91,22139,2,0,P|405:77|354:89,1,90.9999958343508
298,290,22455,1,0,0:0:0:0:
136,105,22613,2,0,P|205:91|256:103,1,90.9999958343508
369,241,22929,5,0,0:0:0:0:
83,188,23087,1,0,0:0:0:0:
385,79,23245,1,0,0:0:0:0:
148,290,23402,2,0,L|154:183,1,90.9999958343508
234,18,23719,1,0,0:0:0:0:
298,268,23876,2,0,L|292:161,1,90.9999958343508
107,32,24192,5,0,0:0:0:0:
385,79,24350,1,0,0:0:0:0:
83,188,24508,1,0,0:0:0:0:
297,95,24666,1,0,0:0:0:0:
332,124,24744,1,0,0:0:0:0:
368,153,24824,2,0,P|429:157|469:153,1,90.9999958343508
298,268,25139,6,0,P|236:263|196:267,1,90.9999958343508
95,111,25455,1,0,0:0:0:0:
8,272,25613,2,0,P|69:267|109:271,1,90.9999958343508
181,69,25929,6,0,L|187:176,1,90.9999958343508
298,268,26245,2,0,L|304:161,1,90.9999958343508
153,267,26560,2,0,L|159:374,1,90.9999958343508
318,356,26876,5,0,0:0:0:0:
170,211,27034,1,0,0:0:0:0:
402,238,27192,1,0,0:0:0:0:
158,357,27350,2,0,L|153:267,1,90.9999958343508
287,103,27666,6,0,P|348:98|388:102,1,90.9999958343508
246,288,27981,1,0,0:0:0:0:
115,111,28139,2,0,P|54:106|14:110,1,90.9999958343508
0,316,28455,6,0,L|107:310,1,90.9999958343508
189,221,28771,2,0,L|296:227,1,90.9999958343508
378,316,29087,2,0,L|485:310,1,90.9999958343508
512,86,29402,5,0,0:0:0:0:
473,119,29480,1,0,0:0:0:0:
426,138,29559,1,0,0:0:0:0:
375,139,29638,1,0,0:0:0:0:
328,122,29718,2,0,P|284:109|239:110,1,90.9999958343508
90,310,30034,1,0,0:0:0:0:
0,90,30192,2,0,P|43:77|88:78,1,90.9999958343508
270,219,30508,5,0,0:0:0:0:
0,181,30666,1,0,0:0:0:0:
291,40,30824,1,0,0:0:0:0:
90,310,30981,2,0,L|84:203,1,90.9999958343508
190,59,31297,1,0,0:0:0:0:
265,310,31455,2,0,L|271:203,1,90.9999958343508
88,78,31771,5,0,0:0:0:0:
362,82,31929,1,0,0:0:0:0:
84,219,32087,1,0,0:0:0:0:
324,11,32245,2,0,P|367:-2|412:-1,1,90.9999958343508
270,219,32560,1,0,0:0:0:0:
120,11,32718,2,0,P|77:-2|32:-1,1,90.9999958343508
295,114,33034,5,0,0:0:0:0:
23,112,33192,1,0,0:0:0:0:
324,11,33350,1,0,0:0:0:0:
92,260,33508,2,0,L|98:153,1,90.9999958343508
228,10,33824,1,0,0:0:0:0:
305,255,33981,2,0,L|299:148,1,90.9999958343508
110,92,34297,5,0,0:0:0:0:
391,34,34455,1,0,0:0:0:0:
149,263,34613,1,0,0:0:0:0:
120,261,34691,1,0,0:0:0:0:
92,260,34770,1,0,0:0:0:0:
63,259,34849,1,0,0:0:0:0:
35,258,34929,2,0,P|22:218|21:149,1,90.9999958343508
216,323,35245,5,0,0:0:0:0:
12,355,35402,1,0,0:0:0:0:
287,338,35560,1,0,0:0:0:0:
35,258,35718,2,0,L|142:264,1,90.9999958343508
363,384,36034,6,0,P|329:353|287:338,1,90.9999958343508,0|0,3:0|3:0,3:0:0:0:
131,374,36350,2,0,P|174:360|208:331,1,90.9999958343508,0|0,3:0|3:0,3:0:0:0:
257,180,36665,2,0,P|246:224|255:268,1,90.9999958343508,0|0,3:0|3:0,3:0:0:0:
407,308,36981,1,0,0:0:0:0:
176,259,37139,2,0,P|130:262|91:283,1,90.9999958343508,0|0,3:0|3:0,3:0:0:0:
344,128,37455,6,0,L|350:235,1,90.9999958343508
191,80,37771,2,0,L|185:187,1,90.9999958343508
344,32,38087,1,0,0:0:0:0:
186,171,38245,2,0,L|192:81,1,90.9999958343508
316,333,38560,6,0,P|277:308|251:271,1,90.9999958343508,0|0,3:0|3:0,3:0:0:0:
91,283,38876,2,0,P|130:260|175:258,1,90.9999958343508,0|0,3:0|3:0,3:0:0:0:
245,111,39193,2,0,P|242:156|223:196,1,90.9999958343508,0|0,3:0|3:0,3:0:0:0:
159,360,39508,1,0,0:0:0:0:
93,122,39666,1,0,0:0:0:0:
175,258,39824,1,0,0:0:0:0:
255,48,39981,2,0,P|295:35|364:34,1,90.9999958343508
419,234,40297,5,0,0:0:0:0:
214,152,40455,1,0,0:0:0:0:
491,128,40613,1,0,0:0:0:0:
175,258,40771,2,0,L|169:168,1,90.9999958343508
344,66,41086,6,0,B|324:106|324:106|320:152,1,90.9999958343508,0|0,3:0|3:0,3:0:0:0:
395,294,41402,2,0,B|370:256|370:256|332:229,1,90.9999958343508,0|0,3:0|3:0,3:0:0:0:
174,224,41718,2,0,B|219:221|219:221|261:202,1,90.9999958343508,0|0,3:0|3:0,3:0:0:0:
420,207,42034,1,0,0:0:0:0:
246,124,42192,2,0,B|201:114|201:114|156:122,1,90.9999958343508,0|0,3:0|3:0,3:0:0:0:
10,220,42508,6,0,L|4:130,1,90.9999958343508
147,286,42824,2,0,L|153:196,1,90.9999958343508
10,352,43139,1,0,0:0:0:0:
153,196,43297,2,0,L|147:286,1,90.9999958343508
50,0,43613,6,0,B|64:42|64:42|94:78,1,90.9999958343508,0|0,3:0|3:0,3:0:0:0:
246,124,43929,2,0,B|201:114|201:114|156:122,1,90.9999958343508,0|0,3:0|3:0,3:0:0:0:
41,230,44245,2,0,B|71:196|71:196|87:153,1,90.9999958343508,0|0,3:0|3:0,3:0:0:0:
210,15,44560,1,0,0:0:0:0:
21,111,44718,1,0,0:0:0:0:
21,111,44797,1,0,0:0:0:0:
21,111,44876,1,0,0:0:0:0:
308,206,45034,5,0,0:0:0:0:
126,84,45192,1,0,0:0:0:0:
400,55,45350,1,0,0:0:0:0:
137,204,45508,5,0,0:0:0:0:
352,132,45666,1,0,0:0:0:0:
77,157,45823,1,0,0:0:0:0:
345,292,45981,5,0,0:0:0:0:
230,57,46139,1,0,0:0:0:0:
102,286,46297,1,0,0:0:0:0:
395,189,46455,5,0,0:0:0:0:
154,81,46613,1,0,0:0:0:0:
203,339,46771,1,0,0:0:0:0:
394,78,46929,5,0,0:0:0:0:
123,152,47087,1,0,0:0:0:0:
414,312,47245,5,0,0:0:0:0:
143,238,47403,1,0,0:0:0:0:
477,172,47560,5,0,0:0:0:0:
218,266,47718,1,0,0:0:0:0:
484,81,47876,1,0,0:0:0:0:
154,81,48034,5,0,0:0:0:0:
393,219,48192,1,0,0:0:0:0:
68,210,48350,1,0,0:0:0:0:
354,63,48508,5,0,0:0:0:0:
231,334,48666,1,0,0:0:0:0:
76,80,48824,1,0,0:0:0:0:
393,219,48981,5,0,0:0:0:0:
105,298,49139,1,0,0:0:0:0:
200,16,49297,1,0,0:0:0:0:
363,315,49455,5,0,0:0:0:0:
85,227,49613,1,0,0:0:0:0:
418,31,49771,5,0,0:0:0:0:
140,119,49929,1,0,0:0:0:0:
424,368,50087,5,0,0:0:0:0:
347,56,50245,1,0,0:0:0:0:
128,368,50402,5,0,0:0:0:0:
205,56,50560,1,0,0:0:0:0:
429,370,50718,5,0,0:0:0:0:
352,54,50876,1,0,0:0:0:0:
123,370,51034,5,0,0:0:0:0:
200,54,51192,1,0,0:0:0:0:
434,372,51350,5,0,0:0:0:0:
357,52,51508,1,0,0:0:0:0:
118,372,51666,5,0,0:0:0:0:
195,52,51824,1,0,0:0:0:0:
439,374,51981,5,0,0:0:0:0:
362,50,52139,1,0,0:0:0:0:
31,261,52297,5,0,0:0:0:0:
472,155,52455,1,0,0:0:0:0:
81,138,52929,5,0,0:0:0:0:
139,343,53087,1,0,0:0:0:0:
207,86,53245,5,0,0:0:0:0:
210,330,53403,1,0,0:0:0:0:
350,50,53560,5,0,0:0:0:0:
282,318,53718,1,0,0:0:0:0:
506,34,53876,5,0,0:0:0:0:
355,303,54034,1,0,0:0:0:0:
205,11,54192,1,0,0:0:0:0:
169,294,55139,6,0,P|124:316|46:312,1,105.000004005432
214,110,55455,1,0,0:0:0:0:
251,338,55613,1,0,0:0:0:0:
405,126,55771,2,0,P|450:104|527:107,1,105.000004005432
346,323,56087,6,0,L|342:188,1,105.000004005432
336,23,56402,1,0,0:0:0:0:
236,231,56560,1,0,0:0:0:0:
112,0,56718,2,0,L|108:135,1,105.000004005432
18,280,57034,5,0,0:0:0:0:
230,105,57192,1,0,0:0:0:0:
110,363,57350,1,0,0:0:0:0:
111,52,57508,1,0,0:0:0:0:
297,332,57666,2,0,P|342:354|419:350,1,105.000004005432
122,188,57981,1,0,0:0:0:0:
378,64,58139,2,0,L|374:199,1,105.000004005432
204,325,58455,1,0,0:0:0:0:
99,52,58613,2,0,P|54:30|-23:33,1,105.000004005432
290,247,58929,5,0,0:0:0:0:
29,154,59087,1,0,0:0:0:0:
347,80,59245,5,0,0:0:0:0:
118,237,59403,1,0,0:0:0:0:
418,273,59560,5,0,0:0:0:0:
189,115,59718,1,0,0:0:0:0:
512,31,59876,5,0,0:0:0:0:
353,259,60034,1,0,0:0:0:0:
195,24,60192,2,0,P|150:2|73:5,1,105.000004005432
160,282,60508,1,0,0:0:0:0:
347,80,60666,2,0,P|392:58|469:61,1,105.000004005432
382,338,60981,1,0,0:0:0:0:
189,115,61139,2,0,P|144:93|67:96,1,105.000004005432
249,355,61455,5,0,0:0:0:0:
347,80,61613,1,0,0:0:0:0:
382,338,61771,5,0,0:0:0:0:
263,69,61929,1,0,0:0:0:0:
118,324,62087,5,0,0:0:0:0:
364,209,62245,1,0,0:0:0:0:
89,90,62402,1,0,0:0:0:0:
244,312,62560,1,0,0:0:0:0:
375,55,62718,6,0,P|420:33|497:36,1,105.000004005432
324,284,63034,1,0,0:0:0:0:
177,68,63192,2,0,P|132:46|55:49,1,105.000004005432
151,303,63508,1,0,0:0:0:0:
278,26,63666,5,0,0:0:0:0:
237,266,63824,2,0,L|230:141,1,105.000004005432
368,14,64139,1,0,0:0:0:0:
443,310,64297,2,0,L|450:185,1,105.000004005432
225,84,64613,5,0,0:0:0:0:
506,119,64771,1,0,0:0:0:0:
178,268,64929,1,0,0:0:0:0:
172,235,65007,1,0,0:0:0:0:
167,203,65086,1,0,0:0:0:0:
161,170,65165,1,0,0:0:0:0:
156,138,65245,6,0,P|111:116|34:119,1,105.000004005432
189,333,65560,1,0,0:0:0:0:
285,122,65718,1,0,0:0:0:0:
391,348,65876,2,0,P|436:370|513:367,1,105.000004005432
393,118,66192,6,0,L|386:243,1,105.000004005432
275,384,66508,1,0,0:0:0:0:
224,157,66666,1,0,0:0:0:0:
101,378,66824,2,0,L|94:253,1,105.000004005432
25,87,67139,5,0,0:0:0:0:
211,286,67297,1,0,0:0:0:0:
222,1,67455,1,0,0:0:0:0:
97,289,67613,1,0,0:0:0:0:
326,39,67771,2,0,P|371:17|448:20,1,105.000004005432
325,283,68087,1,0,0:0:0:0:
150,60,68245,2,0,L|143:185,1,105.000004005432
258,364,68560,1,0,0:0:0:0:
411,115,68718,2,0,P|456:93|533:96,1,105.000004005432
211,246,69034,5,0,0:0:0:0:
491,234,69192,1,0,0:0:0:0:
184,89,69350,5,0,0:0:0:0:
407,258,69508,1,0,0:0:0:0:
80,245,69666,5,0,0:0:0:0:
347,161,69824,1,0,0:0:0:0:
33,62,69981,5,0,0:0:0:0:
205,283,70139,1,0,0:0:0:0:
337,24,70297,2,0,P|382:2|459:5,1,105.000004005432
370,268,70613,1,0,0:0:0:0:
196,46,70771,2,0,P|151:24|74:27,1,105.000004005432
171,315,71087,1,0,0:0:0:0:
388,92,71245,2,0,P|433:70|510:73,1,105.000004005432
322,338,71560,5,0,0:0:0:0:
213,63,71718,1,0,0:0:0:0:
171,315,71876,5,0,0:0:0:0:
302,49,72034,1,0,0:0:0:0:
426,320,72192,5,0,0:0:0:0:
192,191,72350,1,0,0:0:0:0:
472,84,72508,1,0,0:0:0:0:
321,304,72666,1,0,0:0:0:0:
197,43,72824,2,0,P|152:21|75:24,1,105.000004005432
229,284,73139,1,0,0:0:0:0:
388,79,73297,2,0,P|433:57|510:60,1,105.000004005432
413,324,73613,1,0,0:0:0:0:
189,119,73771,2,0,P|144:97|67:100,1,105.000004005432
436,140,74087,5,0,0:0:0:0:
152,228,74245,1,0,0:0:0:0:
483,267,74402,5,0,0:0:0:0:
189,119,74560,1,0,0:0:0:0:
442,137,74718,5,0,0:0:0:0:
145,230,74876,1,0,0:0:0:0:
490,270,75034,5,0,0:0:0:0:
181,115,75192,1,0,0:0:0:0:
450,135,75350,5,0,0:0:0:0:
137,232,75508,1,0,0:0:0:0:
497,274,75666,5,0,0:0:0:0:
174,111,75824,1,0,0:0:0:0:
512,96,75981,5,0,0:0:0:0:
185,301,76139,1,0,0:0:0:0:
429,0,76297,5,0,0:0:0:0:
429,0,76376,1,0,0:0:0:0:
429,0,76455,1,0,0:0:0:0:
353,200,76613,1,0,0:0:0:0:
84,41,79455,5,0,0:0:0:0:
200,233,79613,1,0,0:0:0:0:
358,52,79771,2,0,P|396:45|505:84,1,97.9999970092774
321,246,80087,1,0,0:0:0:0:
234,48,80245,1,0,0:0:0:0:
172,331,80402,1,0,0:0:0:0:
271,104,80560,2,0,L|267:212,1,97.9999970092774
355,360,80876,5,0,0:0:0:0:
194,179,81034,2,0,P|156:172|47:211,1,97.9999970092774
380,250,81350,1,0,0:0:0:0:
164,253,81508,1,0,0:0:0:0:
395,100,81666,1,0,0:0:0:0:
263,314,81824,2,0,L|267:206,1,97.9999970092774
170,46,82139,5,0,0:0:0:0:
360,193,82297,2,0,P|398:200|507:161,1,97.9999970092774
164,253,82613,1,0,0:0:0:0:
283,73,82771,1,0,0:0:0:0:
326,354,82929,1,0,0:0:0:0:
167,152,83087,2,0,L|275:156,1,97.9999970092774
419,277,83402,5,0,0:0:0:0:
194,353,83560,2,0,P|156:346|47:385,1,97.9999970092774
86,365,83797,1,0,0:0:0:0:
75,376,83876,1,0,0:0:0:0:
295,254,84034,1,0,0:0:0:0:
0,164,84192,1,0,0:0:0:0:
194,353,84350,2,0,L|198:245,1,97.9999970092774
308,48,84666,5,0,0:0:0:0:
114,236,84824,2,0,P|76:243|-33:204,1,97.9999970092774
316,193,85139,1,0,0:0:0:0:
123,20,85297,1,0,0:0:0:0:
194,353,85455,1,0,0:0:0:0:
308,48,85613,2,0,L|312:156,1,97.9999970092774
412,359,85929,5,0,0:0:0:0:
221,167,86087,2,0,P|183:160|74:199,1,97.9999970092774
408,241,86402,1,0,0:0:0:0:
150,271,86560,1,0,0:0:0:0:
424,83,86718,1,0,0:0:0:0:
227,334,86876,2,0,L|223:226,1,97.9999970092774
178,6,87192,5,0,0:0:0:0:
312,243,87350,2,0,P|350:250|459:211,1,97.9999970092774
99,183,87666,1,0,0:0:0:0:
332,75,87824,1,0,0:0:0:0:
126,330,87981,1,0,0:0:0:0:
243,64,88139,2,0,L|247:172,1,97.9999970092774
361,371,88455,5,0,0:0:0:0:
99,183,88613,1,0,0:0:0:0:
387,209,88771,1,0,0:0:0:0:
94,350,88929,5,0,0:0:0:0:
243,64,89087,1,0,0:0:0:0:
284,367,89245,5,0,0:0:0:0:
101,54,89402,1,0,0:0:0:0:
96,267,90508,5,0,0:0:0:0:
354,153,90666,1,0,0:0:0:0:
256,192,90824,12,0,92324,0:0:0:0:
