osu file format v14

[General]
AudioFilename: audio.mp3
AudioLeadIn: 0
PreviewTime: 53631
Countdown: 0
SampleSet: Soft
StackLeniency: 0.4
Mode: 0
LetterboxInBreaks: 0
WidescreenStoryboard: 0

[Editor]
Bookmarks: 1289,3815,13920,18815,24026,28920,34131,44236,53710,54341,64447,75815,78657,83551
DistanceSpacing: 0.9
BeatDivisor: 2
GridSize: 32
TimelineZoom: 1.9

[Metadata]
Title:ROUGH DIAMONDS (TV Size)
TitleUnicode:ROUGH DIAMONDS (TV Size)
Artist:SCREEN mode
ArtistUnicode:SCREEN mode
Creator:Hazu-
Version:Normal
Source:食戟のソーマ 弐ノ皿
Tags:shokugeki no soma ni no sara tv size food wars opening 3 op season 2 Tatan Cris-
BeatmapID:1865903
BeatmapSetID:822880

[Difficulty]
HPDrainRate:4
CircleSize:3
OverallDifficulty:4
ApproachRate:5
SliderMultiplier:1.1
SliderTickRate:1

[Events]
//Background and Video events
0,0,"Rough Diamonds.jpg",0,0
//Break Periods
2,76015,77457
//Storyboard Layer 0 (Background)
//Storyboard Layer 1 (Fail)
//Storyboard Layer 2 (Pass)
//Storyboard Layer 3 (Foreground)
//Storyboard Sound Samples

[TimingPoints]
26,315.789473684211,4,2,1,50,1,0
973,-100,4,2,1,60,0,0
3815,-100,4,2,1,70,0,0
12736,-100,4,2,1,5,0,0
12815,-100,4,2,1,70,0,0
13447,-100,4,2,1,50,0,0
13920,-100,4,2,1,55,0,0
18815,-100,4,2,1,60,0,0
24026,-100,4,2,1,55,0,0
28920,-100,4,2,1,60,0,0
53710,-100,4,2,1,60,0,0
54341,-100,4,2,1,70,0,1
64368,-100,4,2,1,70,0,0
64447,-100,4,2,1,70,0,1
75815,-100,4,2,1,40,0,0
78657,315.789473684211,4,2,1,70,1,0
83867,-100,4,2,1,50,0,0
84814,-100,4,2,1,60,0,0
86709,-100,4,2,1,5,0,0

[Colours]
Combo1 : 248,135,205
Combo2 : 255,213,128
Combo3 : 240,135,100
Combo4 : 176,140,236

[HitObjects]
122,142,973,5,8,0:0:0:0:
200,81,1289,2,0,P|261:73|368:59,2,165,10|10|10,0:0|0:0|0:0,0:0:0:0:
53,104,2710,2,0,P|37:137|74:200,1,110,8|8,0:0|0:0,0:0:0:0:
117,204,3183,1,8,0:0:0:0:
66,289,3499,1,8,0:0:0:0:
141,352,3815,6,0,P|201:337|248:327,1,110,14|10,0:0|0:0,0:0:0:0:
342,357,4447,2,0,P|402:342|449:332,1,110,2|10,3:2|0:0,0:0:0:0:
486,299,4920,2,0,P|493:232|471:197,1,110,2|2,0:0|0:0,0:0:0:0:
426,176,5394,1,10,0:0:0:0:
334,137,5710,2,0,P|327:204|349:239,1,110,2|10,3:2|0:0,0:0:0:0:
384,271,6183,6,0,P|330:282|276:296,1,110,2|2,0:0|0:0,0:0:0:0:
237,326,6657,1,10,0:0:0:0:
151,376,6973,2,0,P|140:314|128:268,1,110,2|10,3:2|0:0,0:0:0:0:
87,239,7447,2,0,P|98:177|110:131,1,110,2|0,0:0|0:0,0:0:0:0:
127,85,7920,1,10,0:0:0:0:
218,123,8236,1,2,3:2:0:0:
310,86,8552,1,10,0:0:0:0:
400,125,8868,6,0,P|421:179|390:238,1,110,6|10,3:2|0:0,0:0:0:0:
304,224,9499,2,0,P|286:274|307:324,1,110,2|10,3:2|0:0,0:0:0:0:
354,343,9973,2,0,P|285:355|242:369,1,110,2|2,0:0|0:0,0:0:0:0:
199,380,10447,1,10,0:0:0:0:
110,336,10762,2,0,P|98:277|80:226,1,110,2|10,3:2|0:0,0:0:0:0:
107,187,11236,6,0,P|163:142|213:158,1,110,2|2,0:0|0:0,0:0:0:0:
240,169,11710,1,8,0:0:0:0:
325,218,12026,2,0,P|378:217|414:178,1,110,2|10,3:2|0:0,0:0:0:0:
427,130,12499,1,2,0:0:0:0:
507,188,12815,2,0,P|499:222|493:262,1,55,8|8,0:0|0:0,0:0:0:0:
509,289,13131,1,10,0:0:0:0:
427,344,13447,2,0,P|366:331|297:318,1,110,0|8,3:0|3:0,0:0:0:0:
281,353,13920,6,0,P|227:363|173:375,1,110,6|2,3:2|3:2,0:0:0:0:
89,321,14552,1,2,3:2:0:0:
89,321,14710,2,0,P|61:277|79:222,1,110,2|2,0:0|0:0,0:0:0:0:
162,174,15341,2,0,P|223:184|288:200,1,110,2|2,0:0|0:0,0:0:0:0:
367,174,15973,1,2,0:0:0:0:
367,174,16131,2,0,P|361:212|358:245,1,55,2|0,3:2|3:2,0:0:0:0:
385,270,16447,6,0,P|403:336|415:384,1,110,6|2,3:2|3:2,0:0:0:0:
509,352,17078,1,2,3:2:0:0:
509,352,17236,2,0,P|495:298|480:245,1,110,2|2,0:0|0:0,0:0:0:0:
410,174,17868,1,2,0:0:0:0:
385,270,18183,1,2,0:0:0:0:
304,212,18499,2,0,P|270:218|217:226,1,55,8|8,0:0|0:0,0:0:0:0:
214,256,18815,6,0,P|155:264|92:275,1,110,6|0,0:0|3:2,0:0:0:0:
70,308,19289,2,0,P|57:246|38:177,1,110,10|2,0:0|3:2,0:0:0:0:
55,152,19762,1,2,3:2:0:0:
120,77,20078,2,0,P|181:43|237:78,1,110,6|0,3:2|3:2,0:0:0:0:
242,95,20552,2,0,P|294:104|337:72,1,110,10|2,0:0|3:2,0:0:0:0:
355,25,21026,1,2,3:2:0:0:
437,79,21341,6,0,P|422:139|409:204,1,110,6|0,3:2|3:2,0:0:0:0:
452,216,21815,2,0,P|437:276|424:341,1,110,10|2,3:2|3:2,0:0:0:0:
461,359,22289,1,2,3:2:0:0:
363,377,22604,2,0,P|302:368|239:360,1,110,6|0,3:2|3:2,0:0:0:0:
204,353,23078,1,10,0:0:0:0:
107,375,23394,1,2,3:2:0:0:
19,327,23710,2,0,P|24:289|28:258,1,55,10|8,0:0|3:2,0:0:0:0:
54,231,24026,6,0,P|119:202|156:221,1,110,14|2,3:2|3:2,0:0:0:0:
216,142,24657,1,2,3:2:0:0:
216,142,24815,2,0,P|282:167|295:207,1,110,2|2,0:0|0:0,0:0:0:0:
390,171,25447,2,0,P|419:236|400:273,1,110,2|2,0:0|0:0,0:0:0:0:
333,336,26078,1,2,0:0:0:0:
333,336,26236,2,0,P|307:326|268:315,1,55,2|0,3:2|3:2,0:0:0:0:
234,336,26552,6,0,P|158:349|99:359,1,110,6|2,3:2|3:2,0:0:0:0:
99,258,27183,1,2,3:2:0:0:
99,258,27341,2,0,P|153:248|207:239,1,110,2|2,0:0|0:0,0:0:0:0:
281,172,27973,1,2,0:0:0:0:
371,213,28289,1,2,0:0:0:0:
448,152,28604,2,0,P|442:118|430:74,1,55,8|8,3:2|3:2,0:0:0:0:
396,69,28920,6,0,P|341:45|278:83,1,110,6|0,0:0|3:2,0:0:0:0:
272,105,29394,2,0,P|220:120|172:96,1,110,10|2,0:0|3:2,0:0:0:0:
157,49,29868,1,2,3:2:0:0:
66,88,30183,2,0,P|71:132|81:215,1,110,6|0,3:2|3:2,0:0:0:0:
34,220,30657,2,0,P|29:264|19:347,1,110,10|2,0:0|3:2,0:0:0:0:
47,371,31131,1,2,3:2:0:0:
132,321,31447,6,0,P|220:300|254:292,1,110,6|0,3:2|3:2,0:0:0:0:
285,311,31920,2,0,P|373:290|407:282,1,110,10|2,3:2|3:2,0:0:0:0:
440,297,32394,1,2,3:2:0:0:
499,217,32710,2,0,P|505:160|463:123,1,110,6|0,3:2|3:2,0:0:0:0:
423,107,33183,1,10,0:0:0:0:
340,161,33499,1,2,3:2:0:0:
261,100,33815,2,0,P|229:92|192:83,1,55,8|8,0:0|0:0,0:0:0:0:
162,107,34131,6,0,P|175:197|181:249,1,110,6|10,0:0|0:0,0:0:0:0:
91,265,34762,1,2,3:2:0:0:
91,265,34920,2,0,P|83:210|75:156,2,110,0|2|2,3:2|3:2|0:0,0:0:0:0:
166,329,35868,2,0,P|225:340|268:303,1,110,10|2,0:0|3:2,0:0:0:0:
285,268,36341,1,10,0:0:0:0:
373,223,36657,6,0,P|432:212|475:249,1,110,2|10,0:0|0:0,0:0:0:0:
452,337,37289,1,2,3:2:0:0:
452,337,37447,2,0,P|393:348|350:311,1,110,2|2,3:2|3:2,0:0:0:0:
263,356,38078,2,0,P|218:326|166:339,1,110,2|10,0:0|0:0,0:0:0:0:
124,366,38552,2,0,P|115:289|105:233,1,110,0|10,3:2|0:0,0:0:0:0:
188,196,39183,6,0,P|197:119|207:63,1,110,6|10,0:0|0:0,0:0:0:0:
294,123,39815,1,2,3:2:0:0:
294,123,39974,2,0,P|285:200|275:256,2,110,0|2|2,3:2|3:2|0:0,0:0:0:0:
357,47,40920,2,0,P|414:25|472:56,1,110,10|2,0:0|3:2,0:0:0:0:
489,79,41394,1,10,0:0:0:0:
474,176,41710,6,0,P|417:198|359:167,1,110,2|10,0:0|0:0,0:0:0:0:
276,159,42341,1,2,3:2:0:0:
276,159,42499,2,0,P|225:175|155:195,1,110,2|2,3:2|3:2,0:0:0:0:
72,177,43131,1,2,0:0:0:0:
63,275,43447,1,10,0:0:0:0:
162,289,43762,2,0,P|214:273|267:257,1,110,2|0,3:2|3:2,0:0:0:0:
310,232,44236,5,12,0:0:0:0:
310,232,44394,2,0,P|295:299|286:361,1,110,2|12,0:0|0:0,0:0:0:0:
321,377,44868,1,2,0:0:0:0:
402,321,45183,1,12,0:0:0:0:
402,321,45341,2,0,P|417:254|426:192,1,110,2|12,0:0|0:0,0:0:0:0:
391,176,45815,1,2,0:0:0:0:
303,130,46131,2,0,P|245:142|185:153,1,110,14|10,0:0|0:0,0:0:0:0:
102,186,46762,5,12,0:0:0:0:
102,186,46920,2,0,P|88:248|118:298,1,110,2|12,0:0|0:0,0:0:0:0:
152,308,47394,1,2,0:0:0:0:
247,281,47710,1,12,0:0:0:0:
247,281,47868,2,0,P|261:219|231:169,1,110,2|12,0:0|0:0,0:0:0:0:
197,159,48342,1,2,0:0:0:0:
263,85,48657,2,0,P|325:99|379:106,1,110,14|10,0:0|0:0,0:0:0:0:
468,85,49290,6,0,P|452:144|436:218,1,110,14|10,0:0|0:0,0:0:0:0:
478,223,49762,1,0,0:0:0:0:
478,223,49920,2,0,P|494:282|510:356,1,110,10|10,0:0|0:0,0:0:0:0:
407,350,50552,2,0,P|351:324|290:351,1,110,10|10,0:0|0:0,0:0:0:0:
208,325,51183,2,0,P|213:350|222:399,2,55,8|2|8,0:0|0:0|0:0,0:0:0:0:
171,291,51657,6,0,P|160:224|146:149,1,110,6|0,0:0|0:0,0:0:0:0:
144,133,52131,1,10,0:0:0:0:
46,114,52447,2,0,P|57:181|71:256,1,110,10|10,0:0|0:0,0:0:0:0:
1,298,53078,2,0,P|7:327|11:362,1,55,2|2,0:0|0:0,0:0:0:0:
53,376,53394,1,2,0:0:0:0:
160,99,54341,6,0,P|213:81|288:120,1,110,6|8,0:0|0:0,0:0:0:0:
274,144,54815,2,0,P|326:158|377:140,1,110,2|0,0:0|3:2,0:0:0:0:
404,99,55289,1,14,0:0:0:0:
466,175,55604,1,2,3:2:0:0:
466,175,55762,2,0,P|454:244|446:301,1,110,2|0,0:0|0:0,0:0:0:0:
441,332,56236,1,2,3:2:0:0:
351,289,56552,1,10,0:0:0:0:
267,342,56868,6,0,P|206:328|135:314,1,110,6|8,0:0|0:0,0:0:0:0:
114,339,57341,1,2,0:0:0:0:
32,283,57657,1,0,3:2:0:0:
32,283,57815,2,0,P|15:215|49:168,1,110,14|0,0:0|3:2,0:0:0:0:
113,124,58447,2,0,P|185:140|244:156,1,110,8|0,0:0|3:2,0:0:0:0:
305,99,59078,2,0,P|348:90|373:86,1,55,10|2,3:2|0:0,0:0:0:0:
405,70,59394,6,0,P|395:124|386:178,1,110,6|8,0:0|0:0,0:0:0:0:
411,221,59868,1,2,0:0:0:0:
330,278,60183,1,2,3:2:0:0:
330,278,60341,2,0,P|268:266|201:255,1,110,14|0,0:0|3:2,0:0:0:0:
179,348,60973,2,0,P|233:357|287:367,1,110,10|2,0:0|3:2,0:0:0:0:
385,359,61604,1,10,0:0:0:0:
482,340,61920,6,0,P|495:280|463:226,1,110,6|8,0:0|0:0,0:0:0:0:
433,210,62394,2,0,P|354:196|294:184,1,110,2|0,0:0|3:2,0:0:0:0:
279,211,62868,1,14,0:0:0:0:
197,266,63183,1,0,3:2:0:0:
197,266,63341,2,0,P|186:202|167:127,1,110,2|2,0:0|0:0,0:0:0:0:
166,109,63815,1,2,3:2:0:0:
67,104,64131,2,0,P|74:141|79:176,1,55,8|8,0:0|0:0,0:0:0:0:
54,202,64447,6,0,P|41:255|32:309,1,110,6|8,0:0|0:0,0:0:0:0:
64,347,64920,2,0,P|121:366|198:309,1,110,2|0,0:0|3:2,0:0:0:0:
199,313,65394,1,14,0:0:0:0:
244,225,65710,1,2,3:2:0:0:
244,225,65868,2,0,P|295:209|346:228,1,110,2|0,0:0|0:0,0:0:0:0:
370,272,66341,1,2,3:2:0:0:
448,211,66657,1,10,0:0:0:0:
397,125,66973,6,0,P|331:106|274:86,1,110,6|8,0:0|0:0,0:0:0:0:
268,48,67447,1,2,0:0:0:0:
184,100,67762,1,0,3:2:0:0:
184,100,67920,2,0,P|193:159|204:239,1,110,14|0,0:0|3:2,0:0:0:0:
105,240,68552,2,0,P|96:299|85:379,1,110,8|0,0:0|3:2,0:0:0:0:
185,369,69183,2,0,P|246:350|268:344,1,55,10|2,3:2|0:0,0:0:0:0:
275,320,69499,6,0,P|348:334|399:346,1,110,6|8,0:0|0:0,0:0:0:0:
421,372,69973,1,2,0:0:0:0:
478,291,70289,1,2,3:2:0:0:
478,291,70447,2,0,P|490:224|445:164,1,110,14|0,0:0|3:2,0:0:0:0:
387,138,71078,2,0,P|375:205|420:265,1,110,10|2,0:0|3:2,0:0:0:0:
326,315,71710,1,10,0:0:0:0:
241,263,72026,6,0,P|152:244|105:236,1,110,6|8,0:0|0:0,0:0:0:0:
86,256,72499,2,0,P|69:177|58:130,1,110,2|0,0:0|3:2,0:0:0:0:
51,99,72973,1,14,0:0:0:0:
131,41,73289,1,0,3:2:0:0:
131,41,73447,2,0,P|148:120|159:167,1,110,2|0,0:0|0:0,0:0:0:0:
189,183,73920,2,0,P|232:196|292:157,1,110,2|10,3:2|0:0,0:0:0:0:
354,94,74552,6,0,P|397:81|457:120,1,110,2|10,3:2|0:0,0:0:0:0:
498,197,75183,1,2,3:2:0:0:
440,277,75499,2,0,P|414:267|370:253,1,55,8|8,0:0|0:0,0:0:0:0:
340,273,75815,1,2,3:2:0:0:
340,273,78657,6,0,P|286:284|232:298,1,110,14|10,0:0|0:0,0:0:0:0:
150,353,79289,2,0,P|140:298|121:221,1,110,2|10,3:2|0:0,0:0:0:0:
88,215,79762,2,0,P|98:160|117:83,1,110,6|2,0:0|0:0,0:0:0:0:
125,59,80236,1,10,0:0:0:0:
202,120,80552,2,0,P|245:142|313:95,1,110,2|10,3:2|0:0,0:0:0:0:
332,83,81025,6,0,P|380:61|429:83,1,110,6|2,0:0|0:0,0:0:0:0:
461,122,81499,1,10,0:0:0:0:
426,214,81814,2,0,P|377:235|328:213,1,110,2|10,3:2|0:0,0:0:0:0:
289,182,82289,2,0,P|302:235|311:289,1,110,6|0,0:0|0:0,0:0:0:0:
288,333,82762,1,10,0:0:0:0:
201,284,83078,1,2,3:2:0:0:
121,343,83393,2,0,P|79:331|44:324,1,55,10|2,0:0|0:0,0:0:0:0:
4,252,83867,6,0,P|-4:184|32:140,1,110,2|0,0:0|0:0,0:0:0:0:
60,127,84341,2,0,P|113:137|169:149,1,110,2|2,0:0|0:0,0:0:0:0:
214,133,84814,1,4,0:0:0:0:
256,192,84972,12,0,86709,0:0:0:0:
