osu file format v14

[General]
AudioFilename: audio.mp3
AudioLeadIn: 0
PreviewTime: 53631
Countdown: 0
SampleSet: Soft
StackLeniency: 0.4
Mode: 0
LetterboxInBreaks: 0
WidescreenStoryboard: 0

[Editor]
Bookmarks: 1289,3815,13920,18815,24026,28920,34131,44236,53710,54341,64447,75815,78657,83551
DistanceSpacing: 1.2
BeatDivisor: 4
GridSize: 32
TimelineZoom: 1.9

[Metadata]
Title:ROUGH DIAMONDS (TV Size)
TitleUnicode:ROUGH DIAMONDS (TV Size)
Artist:SCREEN mode
ArtistUnicode:SCREEN mode
Creator:Hazu-
Version:Insane
Source:食戟のソーマ 弐ノ皿
Tags:shokugeki no soma ni no sara tv size food wars opening 3 op season 2 Tatan Cris-
BeatmapID:1865902
BeatmapSetID:822880

[Difficulty]
HPDrainRate:6
CircleSize:4
OverallDifficulty:7
ApproachRate:9
SliderMultiplier:1.8
SliderTickRate:1

[Events]
//Background and Video events
0,0,"Rough Diamonds.jpg",0,0
//Break Periods
2,76015,78057
//Storyboard Layer 0 (Background)
//Storyboard Layer 1 (Fail)
//Storyboard Layer 2 (Pass)
//Storyboard Layer 3 (Foreground)
//Storyboard Sound Samples

[TimingPoints]
26,315.789473684211,4,2,1,50,1,0
973,-111.111111111111,4,2,1,60,0,0
3815,-100,4,2,1,70,0,0
12736,-100,4,2,1,5,0,0
12815,-100,4,2,1,70,0,0
13447,-100,4,2,1,50,0,0
13920,-125,4,2,1,55,0,0
18815,-100,4,2,1,60,0,0
24026,-125,4,2,1,55,0,0
28920,-100,4,2,1,60,0,0
53710,-133.333333333333,4,2,1,60,0,0
54341,-100,4,2,1,70,0,1
64368,-100,4,2,1,70,0,0
64447,-100,4,2,1,70,0,1
75815,-100,4,2,1,40,0,0
78657,315.789473684211,4,2,1,40,1,0
83867,-133.333333333333,4,2,1,50,0,0
84814,-100,4,2,1,60,0,0
86709,-100,4,2,1,5,0,0

[Colours]
Combo1 : 248,135,205
Combo2 : 255,213,128
Combo3 : 240,135,100
Combo4 : 176,140,236

[HitObjects]
121,152,973,6,0,P|119:129|117:105,3,40.4999987640381,8|8|8|8,0:0|0:0|0:3|0:3,0:0:0:0:
125,93,1289,1,10,0:0:0:0:
377,213,1762,5,10,0:0:0:0:
137,336,2236,5,10,0:0:0:0:
265,107,2710,5,8,0:0:0:0:
242,189,2868,1,8,0:0:0:0:
182,129,3026,1,8,0:0:0:0:
328,212,3183,6,0,P|331:192|334:171,1,40.4999987640381,8|0,0:0|0:0,0:0:0:0:
261,291,3341,1,8,0:0:0:0:
223,303,3419,1,8,0:0:0:0:
185,291,3498,1,8,0:0:0:0:
161,259,3577,1,8,0:0:0:0:
138,225,3657,1,8,0:0:0:0:
101,213,3736,1,8,0:0:0:0:
63,226,3815,6,0,P|76:277|85:333,1,90,14|2,0:0|0:0,0:0:0:0:
223,136,4131,2,0,P|167:122|129:144,1,90,10|0,0:0|0:0,0:0:0:0:
337,220,4448,1,2,3:2:0:0:
326,95,4604,1,0,3:2:0:0:
218,259,4762,1,10,0:0:0:0:
424,241,4920,6,0,P|371:227|326:217,1,90,2|0,0:0|3:2,0:0:0:0:
174,150,5236,1,2,0:0:0:0:
174,150,5394,2,0,P|216:136|271:164,1,90,10|0,0:0|0:0,0:0:0:0:
56,228,5710,1,2,3:2:0:0:
87,113,5868,1,0,3:2:0:0:
133,297,6026,1,10,0:0:0:0:
0,154,6183,1,2,0:0:0:0:
193,62,6341,6,0,P|183:105|172:160,1,90,6|2,3:2|0:0,0:0:0:0:
278,294,6657,2,0,P|269:249|258:206,1,90,10|0,0:0|0:0,0:0:0:0:
407,101,6973,1,2,3:2:0:0:
352,203,7131,1,0,3:2:0:0:
324,39,7289,1,10,0:0:0:0:
493,133,7447,6,0,P|486:175|477:222,1,90,2|0,0:0|3:2,0:0:0:0:
418,34,7762,1,0,0:0:0:0:
418,34,7921,2,0,P|411:76|402:123,1,90,10|0,0:0|0:0,0:0:0:0:
217,195,8236,1,2,3:2:0:0:
307,111,8394,1,0,3:2:0:0:
264,281,8552,1,10,0:0:0:0:
228,60,8710,1,0,0:0:0:0:
438,209,8868,6,0,P|379:200|325:189,1,90,6|2,3:2|0:0,0:0:0:0:
135,165,9183,2,0,P|194:156|248:145,1,90,10|0,0:0|0:0,0:0:0:0:
379,80,9498,1,2,3:2:0:0:
349,194,9657,1,0,3:2:0:0:
285,36,9815,1,10,0:0:0:0:
445,157,9973,6,0,P|436:211|428:256,1,90,2|0,0:0|3:2,0:0:0:0:
253,139,10289,1,2,0:0:0:0:
253,139,10448,2,0,P|303:116|358:136,1,90,10|0,0:0|0:0,0:0:0:0:
284,286,10762,1,2,3:2:0:0:
181,224,10920,1,0,3:2:0:0:
388,270,11078,1,10,0:0:0:0:
195,364,11236,1,2,0:0:0:0:
300,164,11394,6,0,P|293:208|289:253,1,90,6|2,3:2|0:0,0:0:0:0:
81,185,11710,2,0,P|87:229|91:274,1,90,8|0,0:0|0:0,0:0:0:0:
229,88,12026,1,2,3:2:0:0:
186,205,12183,1,0,3:2:0:0:
135,31,12341,1,10,0:0:0:0:
317,153,12499,6,0,P|326:191|346:300,1,135,2|0,0:0|0:0,0:0:0:0:
323,310,12815,1,8,0:0:0:0:
443,156,12974,1,8,0:0:0:0:
187,287,13132,1,10,0:0:0:0:
187,287,13447,5,0,3:0:0:0:
198,293,13525,1,0,3:0:0:0:
210,299,13604,2,0,P|243:296|261:282,1,45,8|0,3:0|3:0,0:0:0:0:
356,237,13762,2,0,P|335:227|313:227,1,45,8|0,3:0|3:0,0:0:0:0:
427,332,13920,6,0,P|443:244|458:167,2,144,6|2|2,3:2|3:2|3:2,0:0:0:0:
281,331,14710,2,0,P|323:309|363:327,1,72,2|0,0:0|3:2,0:0:0:0:
198,368,15026,6,0,P|162:370|133:350,1,72,2|0,0:0|3:2,0:0:0:0:
32,287,15341,2,0,P|45:338|54:379,1,72,2|0,0:0|3:2,0:0:0:0:
108,230,15657,2,0,P|116:194|125:160,1,72,2|0,0:0|3:2,0:0:0:0:
17,101,15973,1,2,0:0:0:0:
17,101,16131,2,0,P|7:131|34:170,1,72,2|0,3:2|3:2,0:0:0:0:
157,44,16447,6,0,P|98:34|10:15,2,144,6|2|2,3:2|3:2|3:2,0:0:0:0:
235,111,17236,2,0,P|245:56|256:21,1,72,2|0,0:0|3:2,0:0:0:0:
152,151,17552,6,0,P|160:185|166:221,1,72,2|0,0:0|3:2,0:0:0:0:
327,221,17868,2,0,P|285:205|245:223,1,72,2|0,0:0|3:2,0:0:0:0:
380,146,18183,2,0,P|422:130|462:148,1,72,2|8,0:0|0:0,0:0:0:0:
427,229,18499,1,8,0:0:0:0:
338,57,18657,1,8,0:0:0:0:
213,176,18815,6,0,B|325:210|278:107|399:152,1,180,6|0,0:0|3:2,0:0:0:0:
430,313,19289,2,0,P|441:261|417:218,1,90,10|0,0:0|0:0,0:0:0:0:
240,315,19604,1,2,3:2:0:0:
240,315,19762,2,0,P|284:303|346:290,1,90,2|8,3:2|0:0,0:0:0:0:
204,205,20078,6,0,P|128:182|18:145,1,180,6|0,3:2|3:2,0:0:0:0:
56,332,20552,2,0,P|40:271|59:241,1,90,10|0,0:0|0:0,0:0:0:0:
240,290,20869,1,2,3:2:0:0:
240,290,21026,2,0,P|195:298|152:309,1,90,2|8,3:2|0:0,0:0:0:0:
245,154,21341,6,0,P|312:115|401:174,1,180,6|0,3:2|3:2,0:0:0:0:
450,306,21815,2,0,P|459:263|471:209,1,90,10|0,3:2|0:0,0:0:0:0:
338,278,22131,1,2,3:2:0:0:
338,278,22289,2,0,P|326:324|356:365,1,90,2|8,3:2|0:0,0:0:0:0:
198,172,22604,6,0,P|220:255|240:359,1,180,6|0,3:2|3:2,0:0:0:0:
306,156,23078,2,0,P|319:100|276:73,1,90,10|0,0:0|0:0,0:0:0:0:
209,26,23394,1,2,3:2:0:0:
209,26,23552,1,2,3:2:0:0:
80,103,23710,1,10,0:0:0:0:
111,107,23788,1,8,0:0:0:0:
142,112,23867,1,8,3:2:0:0:
173,119,23946,1,8,3:2:0:0:
194,104,24026,6,0,P|122:92|51:82,2,144,14|2|2,3:2|3:2|3:2,0:0:0:0:
328,41,24815,2,0,P|278:34|251:59,1,72,2|0,0:0|3:2,0:0:0:0:
388,106,25131,6,0,P|426:96|465:88,1,72,2|0,0:0|3:2,0:0:0:0:
390,193,25448,2,0,P|352:183|313:175,1,72,2|0,0:0|3:2,0:0:0:0:
478,257,25762,2,0,P|485:217|454:177,1,72,2|0,0:0|3:2,0:0:0:0:
414,327,26078,1,2,0:0:0:0:
414,327,26236,2,0,P|449:334|483:343,1,72,2|0,3:2|3:2,0:0:0:0:
305,235,26552,6,0,P|321:304|337:395,2,144,6|2|2,3:2|3:2|3:2,0:0:0:0:
406,168,27341,2,0,P|397:212|388:264,1,72,2|0,0:0|3:2,0:0:0:0:
342,106,27657,6,0,P|306:87|260:104,1,72,2|0,0:0|3:2,0:0:0:0:
164,188,27973,2,0,P|199:192|229:174,1,72,2|0,0:0|3:2,0:0:0:0:
72,141,28289,2,0,P|80:175|87:220,1,72,2|0,0:0|3:2,0:0:0:0:
79,220,28526,1,0,3:2:0:0:
72,228,28604,2,0,P|81:261|85:289,1,36,8|0,3:2|3:2,0:0:0:0:
31,360,28762,2,0,P|22:327|18:299,1,36,8|0,3:2|3:2,0:0:0:0:
136,348,28920,6,0,P|242:321|317:302,1,180,6|0,0:0|3:2,0:0:0:0:
481,353,29394,2,0,P|436:369|385:327,1,90,10|0,0:0|0:0,0:0:0:0:
439,173,29710,1,2,3:2:0:0:
439,173,29868,2,0,P|448:220|460:287,1,90,2|8,3:2|0:0,0:0:0:0:
307,195,30183,6,0,P|259:122|321:41,1,180,6|0,3:2|3:2,0:0:0:0:
491,58,30657,2,0,P|434:67|394:76,1,90,10|0,0:0|0:0,0:0:0:0:
461,239,30973,1,2,3:2:0:0:
461,239,31131,2,0,P|474:188|441:152,1,90,2|8,3:2|0:0,0:0:0:0:
292,294,31447,6,0,B|393:269|358:356|458:327,1,180,6|0,3:2|3:2,0:0:0:0:
252,379,31920,2,0,P|204:359|158:343,1,90,10|0,3:2|0:0,0:0:0:0:
43,272,32236,1,2,3:2:0:0:
43,272,32394,2,0,P|35:339|63:360,1,90,2|8,3:2|0:0,0:0:0:0:
188,209,32710,6,0,P|102:191|10:171,1,180,6|0,3:2|3:2,0:0:0:0:
223,124,33183,1,10,0:0:0:0:
90,54,33341,2,0,L|94:76,8,22.5,2|0|2|0|2|0|2|0|2,0:0|0:0|0:0|0:0|3:2|0:0|0:0|0:0|3:2,0:0:0:0:
119,292,33815,1,8,0:0:0:0:
124,261,33893,1,8,0:0:0:0:
131,230,33972,1,8,0:0:0:0:
137,199,34051,1,8,0:0:0:0:
144,168,34131,6,0,P|238:182|332:196,1,180,6|10,0:0|0:0,0:0:0:0:
410,117,34604,1,10,0:0:0:0:
494,260,34762,1,2,3:2:0:0:
494,260,34920,2,0,P|509:200|479:160,1,90,0|10,3:2|0:0,0:0:0:0:
364,315,35236,6,0,P|421:339|473:362,1,90,2|0,3:2|0:0,0:0:0:0:
263,357,35552,2,0,P|239:302|271:262,1,90,2|8,0:0|0:0,0:0:0:0:
293,132,35868,2,0,P|313:185|331:236,1,90,10|0,0:0|3:2,0:0:0:0:
398,108,36184,1,2,3:2:0:0:
398,108,36341,2,0,P|413:65|378:24,1,90,10|0,0:0|3:2,0:0:0:0:
119,76,36657,6,0,P|190:62|297:43,1,180,2|10,0:0|0:0,0:0:0:0:
398,108,37131,1,8,0:0:0:0:
305,231,37289,1,2,3:2:0:0:
305,231,37447,2,0,P|294:187|280:144,1,90,2|8,3:2|0:0,0:0:0:0:
480,207,37762,6,0,P|445:226|398:207,1,90,2|0,3:2|0:0,0:0:0:0:
329,324,38078,2,0,P|369:307|408:326,1,90,2|8,0:0|0:0,0:0:0:0:
234,266,38394,1,10,0:0:0:0:
146,360,38552,2,0,P|138:315|127:271,1,90,0|0,3:2|3:2,0:0:0:0:
62,74,38868,1,10,0:0:0:0:
57,105,38946,1,8,0:0:0:0:
50,136,39025,1,8,0:0:0:0:
44,167,39104,1,8,0:0:0:0:
37,198,39184,6,0,P|111:147|203:190,1,180,6|10,0:0|0:0,0:0:0:0:
246,273,39657,1,10,0:0:0:0:
316,122,39815,1,2,3:2:0:0:
316,122,39973,2,0,P|323:166|333:222,1,90,0|10,3:2|0:0,0:0:0:0:
408,343,40289,6,0,P|415:298|422:254,1,90,2|0,3:2|0:0,0:0:0:0:
241,312,40604,2,0,P|279:333|320:319,1,90,2|8,0:0|0:0,0:0:0:0:
204,214,40920,2,0,P|162:200|124:221,1,90,10|0,0:0|3:2,0:0:0:0:
61,338,41236,1,2,3:2:0:0:
61,338,41394,2,0,P|51:291|35:242,1,90,10|0,0:0|3:2,0:0:0:0:
94,76,41710,6,0,P|141:112|122:222,1,180,2|10,0:0|0:0,0:0:0:0:
34,164,42183,1,8,0:0:0:0:
120,318,42341,1,2,3:2:0:0:
120,318,42499,2,0,P|166:311|225:297,1,90,2|8,3:2|0:0,0:0:0:0:
346,200,42815,6,0,P|333:244|322:300,1,90,2|0,3:2|0:0,0:0:0:0:
245,153,43131,2,0,P|235:108|222:65,1,90,2|8,0:0|0:0,0:0:0:0:
444,62,43446,1,10,0:0:0:0:
352,110,43604,2,0,P|338:63|361:9,1,90,2|2,3:2|3:2,0:0:0:0:
439,180,43920,1,8,3:2:0:0:
439,180,43999,1,0,3:2:0:0:
439,180,44078,1,0,3:2:0:0:
318,218,44236,5,12,0:0:0:0:
318,218,44394,2,0,P|274:194|252:140,1,90,2|0,0:0|3:2,0:0:0:0:
365,317,44710,1,12,0:0:0:0:
365,317,44868,2,0,P|317:331|263:308,1,90,2|0,0:0|3:2,0:0:0:0:
150,237,45183,5,12,0:0:0:0:
150,237,45341,2,0,P|163:294|171:340,1,90,2|0,0:0|3:2,0:0:0:0:
269,128,45657,1,12,0:0:0:0:
269,128,45815,2,0,P|256:185|248:231,1,90,2|0,0:0|3:2,0:0:0:0:
92,66,46131,6,0,P|161:51|191:77,1,90,14|0,0:0|0:0,0:0:0:0:
42,158,46447,2,0,P|84:169|124:150,1,90,10|0,0:0|0:0,0:0:0:0:
221,271,46762,5,12,0:0:0:0:
221,271,46920,2,0,P|231:216|246:164,1,90,2|0,0:0|3:2,0:0:0:0:
135,373,47236,1,12,0:0:0:0:
135,372,47394,2,0,P|127:327|116:284,1,90,2|0,0:0|3:2,0:0:0:0:
315,346,47710,5,12,0:0:0:0:
315,346,47868,2,0,P|263:366|218:340,1,90,2|0,0:0|3:2,0:0:0:0:
368,254,48183,1,12,0:0:0:0:
368,254,48341,2,0,P|410:243|449:262,1,90,2|0,0:0|3:2,0:0:0:0:
240,154,48657,6,0,P|254:207|263:263,1,90,14|0,0:0|0:0,0:0:0:0:
340,123,48973,2,0,P|348:78|360:35,1,90,10|0,0:0|0:0,0:0:0:0:
79,86,49289,6,0,P|163:73|258:56,1,180,14|10,0:0|0:0,0:0:0:0:
419,131,49762,1,0,3:2:0:0:
419,131,49841,1,0,3:2:0:0:
419,131,49920,2,0,P|375:144|336:118,1,90,10|0,0:0|0:0,0:0:0:0:
297,230,50236,2,0,P|256:208|247:162,1,90,10|0,0:0|0:0,0:0:0:0:
107,51,50552,6,0,P|130:120|161:231,1,180,10|10,0:0|0:0,0:0:0:0:
235,49,51026,1,8,3:2:0:0:
235,49,51104,1,8,3:2:0:0:
235,49,51183,2,0,P|292:60|350:72,1,90,8|2,0:0|0:0,0:0:0:0:
407,153,51499,1,8,0:0:0:0:
294,306,51657,6,0,P|257:237|307:156,1,180,6|0,0:0|0:0,0:0:0:0:
473,272,52131,2,0,P|419:258|378:250,1,90,10|0,0:0|0:0,0:0:0:0:
474,92,52448,2,0,P|497:126|479:179,1,90,10|0,0:0|0:0,0:0:0:0:
378,96,52762,2,0,P|366:53|390:16,1,90,10|0,0:0|0:0,0:0:0:0:
512,12,53078,5,2,0:0:0:0:
234,63,53236,1,2,0:0:0:0:
486,171,53394,1,2,0:0:0:0:
486,171,53710,6,0,P|433:155|397:144,1,67.5000025749208,2|0,0:0|0:0,0:0:0:0:
442,243,54026,2,0,P|389:227|353:216,1,67.5000025749208,2|0,0:0|0:0,0:0:0:0:
239,74,54341,6,0,P|260:171|280:279,1,180,6|8,0:0|0:0,0:0:0:0:
337,72,54815,1,2,0:0:0:0:
156,25,54973,2,0,P|144:77|171:125,1,90,2|0,3:2|3:2,0:0:0:0:
190,263,55289,6,0,P|131:248|1:217,1,180,14|2,0:0|3:2,0:0:0:0:
210,180,55762,1,2,0:0:0:0:
271,353,55920,2,0,P|288:313|276:268,1,90,8|0,0:0|0:0,0:0:0:0:
148,99,56236,1,2,3:2:0:0:
210,180,56394,1,0,3:2:0:0:
35,131,56552,1,10,0:0:0:0:
279,115,56710,1,0,0:0:0:0:
145,303,56868,6,0,P|101:231|143:135,1,180,6|8,0:0|0:0,0:0:0:0:
230,44,57341,1,2,0:0:0:0:
325,160,57499,2,0,P|282:169|231:139,1,90,2|0,3:2|3:2,0:0:0:0:
468,79,57815,6,0,P|441:143|403:253,1,180,14|0,0:0|3:2,0:0:0:0:
287,59,58289,2,0,P|335:45|372:70,1,90,2|8,0:0|0:0,0:0:0:0:
162,157,58604,2,0,P|210:171|247:146,1,90,2|0,0:0|3:2,0:0:0:0:
44,91,58920,1,0,3:2:0:0:
44,91,58999,1,0,3:2:0:0:
44,91,59078,2,0,P|60:154|69:204,1,90,10|2,3:2|0:0,0:0:0:0:
292,307,59394,6,0,B|183:339|238:239|93:289,1,180,6|8,0:0|0:0,0:0:0:0:
12,380,59868,1,2,0:0:0:0:
11,181,60026,2,0,P|26:240|35:292,1,90,0|2,3:2|3:2,0:0:0:0:
194,173,60341,6,0,P|218:92|123:19,1,180,14|0,0:0|3:2,0:0:0:0:
0,89,60815,1,2,0:0:0:0:
0,89,60973,2,0,P|46:98|107:113,1,90,10|0,0:0|0:0,0:0:0:0:
292,58,61289,1,2,3:2:0:0:
189,91,61447,1,0,3:2:0:0:
361,131,61604,1,10,0:0:0:0:
196,1,61763,1,0,0:0:0:0:
126,221,61920,6,0,P|184:204|233:191,1,90,6|0,0:0|0:0,0:0:0:0:
98,104,62236,1,8,0:0:0:0:
6,202,62394,1,2,0:0:0:0:
6,201,62552,2,0,P|-2:245|17:284,1,90,2|0,3:2|3:2,0:0:0:0:
222,326,62868,6,0,P|164:309|115:296,1,90,14|0,0:0|0:0,0:0:0:0:
289,239,63183,1,0,3:2:0:0:
382,332,63341,2,0,P|397:261|409:214,1,90,2|8,0:0|0:0,0:0:0:0:
331,88,63657,2,0,L|334:110,8,22.5,2|0|2|0|2|0|2|0|2,0:0|0:0|0:0|0:0|3:2|0:0|0:0|0:0|3:2,0:0:0:0:
168,194,64131,1,8,0:0:0:0:
199,198,64209,1,8,0:0:0:0:
230,204,64288,1,8,0:0:0:0:
261,209,64367,1,8,0:0:0:0:
291,198,64447,6,0,P|196:219|98:248,1,180,6|8,0:0|0:0,0:0:0:0:
93,127,64920,1,2,0:0:0:0:
15,317,65078,2,0,P|3:263|26:220,1,90,2|0,3:2|3:2,0:0:0:0:
268,331,65394,6,0,B|159:299|214:399|69:349,1,180,14|2,0:0|3:2,0:0:0:0:
218,239,65868,1,2,0:0:0:0:
341,377,66026,2,0,P|355:327|331:277,1,90,8|0,0:0|0:0,0:0:0:0:
250,112,66341,1,2,3:2:0:0:
303,203,66499,1,0,3:2:0:0:
153,153,66657,1,10,0:0:0:0:
383,129,66815,1,0,0:0:0:0:
242,319,66973,6,0,P|252:233|263:140,1,180,6|8,0:0|0:0,0:0:0:0:
158,251,67447,1,2,0:0:0:0:
340,354,67604,2,0,P|351:301|326:261,1,90,2|0,3:2|3:2,0:0:0:0:
67,334,67920,6,0,B|126:349|126:349|241:319,1,180,14|0,0:0|3:2,0:0:0:0:
88,236,68394,2,0,P|39:219|-2:242,1,90,2|8,0:0|0:0,0:0:0:0:
168,169,68710,2,0,P|209:183|249:166,1,90,2|0,0:0|3:2,0:0:0:0:
92,40,69026,1,0,3:2:0:0:
92,40,69104,1,0,3:2:0:0:
92,40,69183,2,0,P|85:84|77:128,1,90,10|2,3:2|0:0,0:0:0:0:
336,72,69499,6,0,P|264:23|183:56,1,180,6|8,0:0|0:0,0:0:0:0:
161,172,69974,1,2,0:0:0:0:
279,250,70132,2,0,P|292:205|248:155,1,90,0|2,3:2|3:2,0:0:0:0:
129,318,70448,6,0,P|219:336|320:364,1,180,14|0,0:0|3:2,0:0:0:0:
405,268,70921,1,2,0:0:0:0:
272,168,71079,2,0,P|290:223|303:274,1,90,10|0,0:0|0:0,0:0:0:0:
422,48,71395,1,2,3:2:0:0:
374,128,71553,1,0,3:2:0:0:
298,20,71711,1,10,0:0:0:0:
486,147,71868,1,0,0:0:0:0:
251,223,72027,6,0,P|262:170|272:130,1,90,6|0,0:0|0:0,0:0:0:0:
158,274,72342,1,8,0:0:0:0:
337,323,72500,1,2,0:0:0:0:
337,323,72658,2,0,P|353:274|326:231,1,90,2|0,3:2|3:2,0:0:0:0:
130,189,72974,6,0,P|173:177|217:166,1,90,14|0,0:0|0:0,0:0:0:0:
102,77,73290,1,0,3:2:0:0:
21,195,73448,1,2,0:0:0:0:
21,195,73605,2,0,P|12:238|29:279,1,90,8|0,0:0|0:0,0:0:0:0:
226,311,73921,2,0,P|182:282|133:296,1,90,2|0,3:2|3:2,0:0:0:0:
309,250,74237,2,0,P|352:252|387:225,1,90,10|0,0:0|0:0,0:0:0:0:
427,103,74553,5,2,3:2:0:0:
427,103,74711,1,0,0:0:0:0:
282,51,74869,2,0,P|306:115|319:164,1,90,10|0,0:0|0:0,0:0:0:0:
357,310,75184,2,0,P|370:267|387:225,1,90,2|2,3:2|3:2,0:0:0:0:
198,151,75500,1,8,0:0:0:0:
192,181,75578,1,8,0:0:0:0:
200,211,75657,1,8,0:0:0:0:
222,234,75736,1,8,0:0:0:0:
251,244,75815,5,2,3:2:0:0:
251,244,78657,6,0,P|195:234|152:225,1,90,14|2,0:0|0:0,0:0:0:0:
310,150,78972,2,0,P|366:140|400:174,1,90,10|0,0:0|0:0,0:0:0:0:
412,282,79288,1,2,3:2:0:0:
487,187,79446,1,0,3:2:0:0:
316,284,79604,1,10,0:0:0:0:
509,365,79762,6,0,P|501:320|494:275,1,90,6|0,0:0|3:2,0:0:0:0:
408,109,80078,1,2,0:0:0:0:
408,109,80235,2,0,P|400:154|393:199,1,90,10|0,0:0|0:0,0:0:0:0:
219,282,80551,1,2,3:2:0:0:
314,200,80709,1,0,3:2:0:0:
237,382,80867,1,10,0:0:0:0:
103,219,81025,6,0,P|145:209|201:196,1,90,6|0,0:0|0:0,0:0:0:0:
329,282,81341,1,2,0:0:0:0:
329,282,81499,2,0,P|285:301|231:259,1,90,10|0,0:0|0:0,0:0:0:0:
409,161,81814,1,2,3:2:0:0:
296,194,81972,1,0,3:2:0:0:
472,247,82130,1,10,0:0:0:0:
427,73,82288,6,0,P|412:139|405:183,1,90,6|0,0:0|3:2,0:0:0:0:
314,281,82605,1,0,0:0:0:0:
314,281,82762,2,0,P|305:236|295:193,1,90,10|0,0:0|3:2,0:0:0:0:
146,66,83078,1,2,3:2:0:0:
224,127,83235,1,0,3:2:0:0:
234,15,83393,1,10,0:0:0:0:
125,197,83551,1,2,0:0:0:0:
125,197,83867,5,2,0:0:0:0:
170,127,84024,1,2,0:0:0:0:
254,136,84182,1,0,0:0:0:0:
310,200,84341,1,2,0:0:0:0:
394,209,84499,1,0,0:0:0:0:
439,139,84656,1,2,0:0:0:0:
242,274,84814,5,4,0:0:0:0:
256,192,84893,12,0,86709,0:0:0:0:
