osu file format v14

[General]
AudioFilename: audio.mp3
AudioLeadIn: 0
PreviewTime: 53631
Countdown: 0
SampleSet: Soft
StackLeniency: 0.4
Mode: 0
LetterboxInBreaks: 0
WidescreenStoryboard: 0

[Editor]
Bookmarks: 1289,3815,13920,18815,24026,28920,34131,44236,53710,54341,64447,75815,78657,83551
DistanceSpacing: 1.2
BeatDivisor: 4
GridSize: 32
TimelineZoom: 1.9

[Metadata]
Title:ROUGH DIAMONDS (TV Size)
TitleUnicode:ROUGH DIAMONDS (TV Size)
Artist:SCREEN mode
ArtistUnicode:SCREEN mode
Creator:Hazu-
Version:Easy
Source:食戟のソーマ 弐ノ皿
Tags:shokugeki no soma ni no sara tv size food wars opening 3 op season 2 Tatan Cris-
BeatmapID:1865901
BeatmapSetID:822880

[Difficulty]
HPDrainRate:2
CircleSize:3
OverallDifficulty:2
ApproachRate:3
SliderMultiplier:0.899999999999999
SliderTickRate:1

[Events]
//Background and Video events
0,0,"Rough Diamonds.jpg",0,0
//Break Periods
2,76015,77217
//Storyboard Layer 0 (Background)
//Storyboard Layer 1 (Fail)
//Storyboard Layer 2 (Pass)
//Storyboard Layer 3 (Foreground)
//Storyboard Sound Samples

[TimingPoints]
26,315.789473684211,4,2,1,50,1,0
973,-100,4,2,1,60,0,0
3815,-100,4,2,1,70,0,0
12736,-100,4,2,1,5,0,0
12815,-100,4,2,1,70,0,0
13447,-100,4,2,1,50,0,0
13920,-100,4,2,1,55,0,0
18815,-100,4,2,1,60,0,0
24026,-100,4,2,1,55,0,0
28920,-100,4,2,1,60,0,0
53710,-100,4,2,1,60,0,0
54341,-100,4,2,1,70,0,1
64368,-100,4,2,1,70,0,0
64447,-100,4,2,1,70,0,1
75815,-100,4,2,1,40,0,0
78657,315.789473684211,4,2,1,70,1,0
83867,-100,4,2,1,50,0,0
84814,-100,4,2,1,60,0,0
86709,-100,4,2,1,5,0,0

[Colours]
Combo1 : 248,135,205
Combo2 : 255,213,128
Combo3 : 240,135,100
Combo4 : 176,140,236

[HitObjects]
87,130,973,5,8,0:0:0:0:
155,188,1289,2,0,P|220:179|295:170,2,135,10|10|10,0:0|0:0|0:0,0:0:0:0:
71,81,2711,2,0,P|136:72|211:63,1,135,8|8,0:0|0:0,0:0:0:0:
281,16,3499,1,8,0:0:0:0:
353,69,3815,6,0,P|363:120|370:164,1,89.9999999999999,14|10,0:0|0:0,0:0:0:0:
436,217,4446,2,0,P|426:268|411:360,2,135,2|2|10,3:2|0:0|0:0,0:0:0:0:
369,157,5710,2,0,P|359:106|344:14,2,135,2|2|10,3:2|0:0|0:0,0:0:0:0:
314,228,6973,2,0,P|248:253|188:221,2,135,2|2|10,3:2|0:0|0:0,0:0:0:0:
369,157,8236,1,2,3:2:0:0:
367,66,8552,1,10,0:0:0:0:
286,26,8868,6,0,P|241:38|195:46,1,89.9999999999999,6|10,3:2|0:0,0:0:0:0:
151,122,9499,2,0,P|98:103|13:76,2,135,2|2|10,3:2|0:0|0:0,0:0:0:0:
198,45,10762,2,0,P|251:26|336:-1,2,135,2|2|8,3:2|0:0|0:0,0:0:0:0:
151,122,12026,2,0,P|130:183|184:255,1,135,2|2,3:2|0:0,0:0:0:0:
240,284,12815,1,8,0:0:0:0:
321,244,13131,2,0,P|374:256|418:264,1,89.9999999999999,10|0,0:0|3:0,0:0:0:0:
437,130,13920,6,0,P|384:118|340:110,1,89.9999999999999,6|2,3:2|3:2,0:0:0:0:
270,67,14552,2,0,P|210:82|115:102,1,135,2|2,3:2|0:0,0:0:0:0:
52,70,15341,1,2,0:0:0:0:
3,145,15657,2,0,P|-11:207|40:263,1,135,2|2,0:0|3:2,0:0:0:0:
113,295,16447,6,0,P|168:277|213:263,1,89.9999999999999,6|2,3:2|3:2,0:0:0:0:
270,322,17078,2,0,P|344:338|418:359,1,135,2|2,3:2|0:0,0:0:0:0:
479,308,17868,1,2,0:0:0:0:
435,229,18183,2,0,P|444:160|451:119,1,89.9999999999999,2|8,0:0|0:0,0:0:0:0:
380,79,18815,6,0,P|328:90|235:117,1,135,6|10,0:0|0:0,0:0:0:0:
193,182,19604,2,0,P|134:139|56:172,2,135,2|6|10,3:2|3:2|0:0,0:0:0:0:
251,250,20868,2,0,P|237:302|216:386,2,135,2|6|10,3:2|3:2|3:2,0:0:0:0:
333,213,22131,2,0,P|360:157|299:82,2,135,2|6|10,3:2|3:2|0:0,0:0:0:0:
251,250,23394,1,2,3:2:0:0:
162,234,23710,1,10,0:0:0:0:
97,171,24026,6,0,P|91:134|123:74,1,89.9999999999999,14|2,3:2|3:2,0:0:0:0:
195,57,24657,2,0,P|248:46|347:24,1,135,2|2,3:2|0:0,0:0:0:0:
408,68,25447,1,2,0:0:0:0:
350,136,25762,2,0,B|342:185|342:185|374:268,1,135,2|2,0:0|3:2,0:0:0:0:
429,335,26552,6,0,P|373:348|322:362,1,89.9999999999999,6|2,3:2|3:2,0:0:0:0:
264,310,27183,2,0,P|201:292|123:269,1,135,2|2,3:2|0:0,0:0:0:0:
71,337,27973,1,2,0:0:0:0:
14,266,28289,2,0,P|4:204|-5:155,1,89.9999999999999,2|8,0:0|3:2,0:0:0:0:
48,102,28920,6,0,P|144:75|188:118,1,135,6|10,0:0|0:0,0:0:0:0:
199,173,29710,2,0,P|261:193|318:160,2,135,2|6|10,3:2|3:2|0:0,0:0:0:0:
113,202,30973,2,0,P|131:266|144:333,2,135,2|6|10,3:2|3:2|3:2,0:0:0:0:
199,173,32236,2,0,P|211:106|230:41,2,135,2|6|10,3:2|3:2|0:0,0:0:0:0:
247,248,33499,1,2,3:2:0:0:
332,219,33815,1,8,0:0:0:0:
389,287,34131,6,0,P|441:309|489:283,1,89.9999999999999,6|10,0:0|0:0,0:0:0:0:
511,219,34762,2,0,P|500:163|485:75,1,135,2|2,3:2|3:2,0:0:0:0:
408,41,35552,1,2,0:0:0:0:
336,95,35868,2,0,P|269:81|185:66,1,135,10|10,0:0|0:0,0:0:0:0:
123,28,36657,6,0,P|78:42|15:56,1,89.9999999999999,2|10,0:0|0:0,0:0:0:0:
6,137,37289,2,0,B|-4:183|-4:183|47:296,1,135,2|2,3:2|3:2,0:0:0:0:
109,309,38078,1,2,0:0:0:0:
179,252,38394,2,0,P|244:270|325:294,1,135,10|10,0:0|0:0,0:0:0:0:
387,332,39183,6,0,P|399:277|411:231,1,89.9999999999999,6|10,0:0|0:0,0:0:0:0:
349,174,39815,2,0,P|330:101|310:20,1,135,2|2,3:2|3:2,0:0:0:0:
229,18,40604,1,2,0:0:0:0:
160,76,40920,2,0,P|179:149|199:230,1,135,10|10,0:0|0:0,0:0:0:0:
132,273,41710,6,0,P|124:310|110:378,1,89.9999999999999,2|10,0:0|0:0,0:0:0:0:
23,359,42341,2,0,P|32:314|55:217,1,135,2|2,3:2|3:2,0:0:0:0:
36,138,43131,1,2,0:0:0:0:
112,89,43447,2,0,P|180:75|244:118,1,135,10|8,0:0|3:2,0:0:0:0:
282,182,44236,6,0,P|263:236|233:340,1,135,12|12,0:0|0:0,0:0:0:0:
358,377,45183,2,0,P|377:312|399:248,1,135,12|12,0:0|0:0,0:0:0:0:
362,118,46131,2,0,P|354:69|345:22,1,89.9999999999999,14|10,0:0|0:0,0:0:0:0:
263,63,46762,6,0,P|189:78|110:87,1,135,12|12,0:0|0:0,0:0:0:0:
114,219,47710,2,0,P|188:204|267:195,1,135,12|12,0:0|0:0,0:0:0:0:
377,163,48657,2,0,P|382:106|361:71,1,89.9999999999999,14|10,0:0|0:0,0:0:0:0:
289,33,49289,6,0,B|225:23|225:23|89:71,1,180,14|10,0:0|0:0,0:0:0:0:
27,46,50236,1,10,0:0:0:0:
3,133,50552,2,0,P|6:176|45:213,1,89.9999999999999,10|10,0:0|0:0,0:0:0:0:
117,249,51183,6,0,P|179:229|259:203,2,135,8|6|10,0:0|0:0|0:0,0:0:0:0:
36,209,52447,1,10,0:0:0:0:
101,147,52762,1,10,0:0:0:0:
20,106,53078,2,0,P|11:63|-4:7,1,89.9999999999999,2|2,0:0|0:0,0:0:0:0:
269,20,54341,6,0,P|278:63|306:171,1,135,6|2,0:0|0:0,0:0:0:0:
215,257,55289,2,0,P|206:214|178:106,1,135,14|2,0:0|0:0,0:0:0:0:
65,60,56236,2,0,P|76:104|86:154,1,89.9999999999999,2|10,3:2|0:0,0:0:0:0:
30,219,56868,6,0,P|13:284|-1:350,2,135,6|2|14,0:0|0:0|0:0,0:0:0:0:
84,147,58131,2,0,P|121:132|174:157,1,89.9999999999999,0|8,3:2|0:0,0:0:0:0:
224,217,58762,1,0,3:2:0:0:
307,182,59078,1,10,3:2:0:0:
379,235,59394,6,0,P|363:307|341:400,2,135,6|2|14,0:0|0:0|0:0,0:0:0:0:
451,181,60657,2,0,P|459:142|419:84,1,89.9999999999999,0|10,3:2|0:0,0:0:0:0:
363,46,61289,1,2,3:2:0:0:
286,92,61604,1,10,0:0:0:0:
209,44,61920,6,0,P|125:33|62:21,1,135,6|2,0:0|0:0,0:0:0:0:
100,156,62868,2,0,P|184:167|247:179,2,135,14|2|2,0:0|0:0|3:2,0:0:0:0:
23,107,64131,1,8,0:0:0:0:
3,194,64447,6,0,P|16:244|38:337,1,135,6|2,0:0|0:0,0:0:0:0:
164,362,65394,2,0,P|151:312|129:219,1,135,14|2,0:0|0:0,0:0:0:0:
214,124,66341,2,0,P|227:174|238:223,1,89.9999999999999,2|10,3:2|0:0,0:0:0:0:
296,277,66973,6,0,P|367:296|410:259,2,135,6|2|14,0:0|0:0|0:0,0:0:0:0:
213,312,68236,2,0,P|169:300|119:291,1,89.9999999999999,0|8,3:2|0:0,0:0:0:0:
45,249,68868,1,0,3:2:0:0:
41,159,69183,1,10,3:2:0:0:
118,113,69499,6,0,P|162:101|260:82,2,135,6|2|14,0:0|0:0|0:0,0:0:0:0:
41,159,70762,2,0,P|28:196|60:260,1,89.9999999999999,0|10,3:2|0:0,0:0:0:0:
116,294,71394,1,2,3:2:0:0:
191,244,71710,1,10,0:0:0:0:
259,302,72026,6,0,P|340:323|411:339,1,135,6|2,0:0|0:0,0:0:0:0:
444,210,72973,2,0,P|363:189|292:173,2,135,14|2|2,0:0|0:0|3:2,0:0:0:0:
507,145,74236,1,10,0:0:0:0:
461,67,74552,6,0,P|380:46|340:35,1,89.9999999999999,2|10,3:2|0:0,0:0:0:0:
291,81,75183,2,0,P|247:69|203:58,1,89.9999999999999,2|8,3:2|0:0,0:0:0:0:
120,93,75815,1,2,3:2:0:0:
120,93,78657,6,0,P|100:155|136:193,1,89.9999999999999,14|10,0:0|0:0,0:0:0:0:
188,217,79288,2,0,P|256:200|332:182,2,135,2|6|10,3:2|0:0|0:0,0:0:0:0:
130,286,80551,2,0,P|62:269|-14:251,2,135,2|6|10,3:2|0:0|0:0,0:0:0:0:
205,334,81814,2,0,P|270:349|324:298,2,135,2|6|10,3:2|0:0|0:0,0:0:0:0:
216,244,83078,2,0,P|164:203|101:219,1,135,2|2,3:2|0:0,0:0:0:0:
75,305,83867,6,0,P|57:180|32:24,1,270,2|4,0:0|0:0,0:0:0:0:
256,192,84972,12,0,86709,0:0:0:0:
