osu file format v14

[General]
AudioFilename: audio.mp3
AudioLeadIn: 0
PreviewTime: 53999
Countdown: 0
SampleSet: Soft
StackLeniency: 0.4
Mode: 0
LetterboxInBreaks: 0
WidescreenStoryboard: 1

[Editor]
Bookmarks: 1289,3815,13920,18815,24026,28920,34131,44236,53710,54341,64447,75815,78657,83551
DistanceSpacing: 1
BeatDivisor: 4
GridSize: 32
TimelineZoom: 1.9

[Metadata]
Title:ROUGH DIAMONDS (TV Size)
TitleUnicode:ROUGH DIAMONDS (TV Size)
Artist:SCREEN mode
ArtistUnicode:SCREEN mode
Creator:Cris-
Version:TATAN'S HARD
Source:食戟のソーマ 弐ノ皿
Tags:Hazu- Tatan browiec Shokugeki no Soma Souma Ni no Sara Food Wars Opening 3 Season 2 J.C.Staff Anime Japanese Rock J-Rock JRock 1/1 イチブンノイチ
BeatmapID:2586411
BeatmapSetID:1244230

[Difficulty]
HPDrainRate:4
CircleSize:3.5
OverallDifficulty:6.5
ApproachRate:8
SliderMultiplier:1.2
SliderTickRate:1

[Events]
//Background and Video events
0,0,"Rough Diamonds.jpg",0,0
Video,-250,"ROUGH DIAMONDS OPENING.mp4"
//Break Periods
2,76382,78275
//Storyboard Layer 0 (Background)
//Storyboard Layer 1 (Fail)
//Storyboard Layer 2 (Pass)
//Storyboard Layer 3 (Foreground)
//Storyboard Layer 4 (Overlay)
//Storyboard Sound Samples

[TimingPoints]
394,315.789473684211,4,2,1,50,1,0
1341,-100,4,2,1,60,0,0
3709,-100,4,2,1,65,0,0
3867,-100,4,2,1,70,0,0
4183,-83.3333333333333,4,2,1,70,0,0
13815,-83.3333333333333,4,2,1,50,0,0
14288,-90.9090909090909,4,2,1,55,0,0
19183,-90.9090909090909,4,2,1,60,0,0
24394,-90.9090909090909,4,2,1,55,0,0
29288,-90.9090909090909,4,2,1,70,0,0
44604,-83.3333333333333,4,2,1,70,0,0
49657,-76.9230769230769,4,2,1,70,0,0
54078,-90.9090909090909,4,2,1,45,0,0
54709,-71.4285714285714,4,2,1,80,0,1
64736,-71.4285714285714,4,2,1,80,0,0
64815,-71.4285714285714,4,2,1,80,0,1
76183,-71.4285714285714,4,2,1,40,0,0
79025,315.789473684211,4,2,1,70,1,0
79025,-76.9230769230769,4,2,1,70,0,0
84235,-71.4285714285714,4,2,1,50,0,0
85025,-71.4285714285714,4,2,1,60,0,0
85182,-71.4285714285714,4,2,1,70,0,0
85972,-71.4285714285714,4,2,1,60,0,0
86603,-71.4285714285714,4,2,1,50,0,0
87077,-71.4285714285714,4,2,1,5,0,0

[Colours]
Combo1 : 248,135,205
Combo2 : 255,213,128
Combo3 : 240,135,100
Combo4 : 176,140,236

[HitObjects]
79,70,1341,6,0,L|114:71,3,30,8|8|8|8,0:0|0:0|0:3|0:3,0:0:0:0:
153,73,1657,2,0,L|149:201,1,120,10|0,0:0|0:0,0:0:0:0:
227,238,2130,2,0,L|230:118,1,120,10|0,0:0|0:0,0:0:0:0:
307,163,2604,2,0,L|304:283,1,120,10|0,0:0|0:0,0:0:0:0:
361,352,3078,5,8,0:0:0:0:
437,303,3236,2,0,L|435:236,1,60,8|8,0:0|0:0,0:0:0:0:
356,195,3551,2,0,L|357:135,1,60,8|8,0:0|0:0,0:0:0:0:
363,93,3788,1,8,0:0:0:0:
363,93,3867,2,0,L|328:92,3,30,8|8|8|8,0:0|0:0|0:0|0:0,0:0:0:0:
285,92,4183,6,0,P|250:91|215:106,1,71.9999978027344,14|2,0:0|0:0,0:0:0:0:
266,184,4499,2,0,P|272:215|263:255,1,71.9999978027344,10|0,0:0|0:0,0:0:0:0:
235,344,4815,2,0,P|169:310|89:326,1,143.999995605469,2|10,3:2|0:0,0:0:0:0:
26,374,5288,1,2,0:0:0:0:
0,279,5446,6,0,L|2:207,1,71.9999978027344,0|2,3:2|0:0,0:0:0:0:
6,112,5762,1,10,0:0:0:0:
69,43,5920,1,0,0:0:0:0:
135,109,6078,2,0,P|217:128|278:84,1,143.999995605469,2|10,3:2|0:0,0:0:0:0:
330,32,6551,1,2,0:0:0:0:
412,77,6709,6,0,L|409:148,1,71.9999978027344,6|2,3:2|0:0,0:0:0:0:
404,243,7025,1,10,0:0:0:0:
321,198,7183,1,0,0:0:0:0:
237,239,7341,2,0,P|226:303|164:345,1,143.999995605469,2|10,3:2|0:0,0:0:0:0:
109,269,7815,1,2,0:0:0:0:
136,180,7972,6,0,L|140:97,1,71.9999978027344,0|0,3:2|0:0,0:0:0:0:
227,73,8288,2,0,L|370:79,1,143.999995605469,10|2,0:0|3:2,0:0:0:0:
450,130,8762,1,0,3:2:0:0:
441,223,8920,1,10,0:0:0:0:
432,316,9078,1,2,0:0:0:0:
351,268,9236,6,0,L|264:264,1,71.9999978027344,6|2,3:2|0:0,0:0:0:0:
202,319,9551,2,0,L|130:322,1,71.9999978027344,10|0,0:0|0:0,0:0:0:0:
43,284,9867,2,0,P|11:189|46:135,1,143.999995605469,2|10,3:2|0:0,0:0:0:0:
104,100,10341,1,2,0:0:0:0:
186,145,10499,6,0,P|199:186|190:233,1,71.9999978027344,0|2,3:2|0:0,0:0:0:0:
288,193,10815,2,0,P|275:160|277:124,1,71.9999978027344,10|0,0:0|0:0,0:0:0:0:
369,136,11130,2,0,L|359:295,1,143.999995605469,2|10,3:2|0:0,0:0:0:0:
384,370,11604,1,2,0:0:0:0:
295,340,11762,6,0,P|247:320|212:326,1,71.9999978027344,6|2,3:2|0:0,0:0:0:0:
135,336,12078,2,0,P|87:356|52:350,1,71.9999978027344,8|0,0:0|0:0,0:0:0:0:
44,266,12394,2,0,P|97:213|152:254,1,143.999995605469,2|10,3:2|0:0,0:0:0:0:
234,205,12867,2,0,P|247:155|240:118,1,71.9999978027344,2|0,0:0|0:0,0:0:0:0:
192,51,13183,5,8,0:0:0:0:
270,0,13341,1,8,0:0:0:0:
327,74,13499,1,10,0:0:0:0:
470,249,13815,5,0,3:0:0:0:
470,249,13894,1,0,3:0:0:0:
470,249,13972,2,0,L|435:247,3,35.9999989013672,8|0|8|0,3:0|3:0|3:0|3:0,0:0:0:0:
403,266,14288,6,0,L|246:258,1,132.00000402832,6|2,3:2|3:2,0:0:0:0:
178,251,14762,1,0,0:0:0:0:
139,167,14920,1,2,3:2:0:0:
184,86,15078,2,0,L|272:82,1,66.0000020141602,2|0,0:0|3:2,0:0:0:0:
337,115,15394,2,0,P|351:145|349:178,1,66.0000020141602,2|0,0:0|3:2,0:0:0:0:
277,226,15709,2,0,P|262:196|264:162,1,66.0000020141602,2|0,3:2|3:2,0:0:0:0:
355,264,16025,2,0,P|314:304|230:297,1,132.00000402832,2|2,3:2|0:0,0:0:0:0:
164,248,16499,2,0,P|120:235|81:245,1,66.0000020141602,2|0,3:2|3:2,0:0:0:0:
16,277,16815,6,0,P|21:208|14:142,1,132.00000402832,6|2,3:2|3:2,0:0:0:0:
10,52,17288,1,0,0:0:0:0:
90,97,17446,1,2,3:2:0:0:
173,56,17604,2,0,L|256:65,1,66.0000020141602,2|0,0:0|3:2,0:0:0:0:
298,154,17920,2,0,L|156:137,2,132.00000402832,2|2|2,0:0|3:2|3:2,0:0:0:0:
360,221,18709,1,8,0:0:0:0:
317,310,18867,1,8,0:0:0:0:
284,306,18946,1,0,3:2:0:0:
251,304,19025,1,8,0:0:0:0:
157,318,19183,6,0,P|109:275|108:211,1,132.00000402832,6|0,3:2|3:2,0:0:0:0:
166,138,19657,2,0,L|256:132,1,66.0000020141602,10|0,0:0|0:0,0:0:0:0:
297,68,19972,1,2,3:2:0:0:
371,123,20130,2,0,P|377:164|369:212,1,66.0000020141602,2|8,3:2|0:0,0:0:0:0:
354,281,20446,6,0,P|315:249|231:248,1,132.00000402832,6|0,3:2|3:2,0:0:0:0:
186,324,20920,2,0,P|142:341|106:338,1,66.0000020141602,10|0,0:0|0:0,0:0:0:0:
32,327,21236,1,2,3:2:0:0:
74,245,21394,1,2,3:2:0:0:
20,169,21551,1,8,0:0:0:0:
57,84,21709,6,0,P|147:60|198:79,1,132.00000402832,6|0,3:2|3:2,0:0:0:0:
266,111,22183,2,0,L|269:197,1,66.0000020141602,10|0,3:2|0:0,0:0:0:0:
274,269,22499,1,2,3:2:0:0:
362,241,22657,2,0,L|364:175,1,66.0000020141602,2|8,3:2|0:0,0:0:0:0:
443,127,22972,2,0,L|438:258,1,132.00000402832,6|0,3:2|3:2,0:0:0:0:
429,351,23446,2,0,P|365:331|292:345,1,132.00000402832,10|2,0:0|3:2,0:0:0:0:
215,376,23920,1,2,3:2:0:0:
152,308,24078,1,10,0:0:0:0:
66,343,24236,5,8,3:2:0:0:
66,343,24315,1,8,3:2:0:0:
66,343,24394,2,0,P|53:265|65:204,1,132.00000402832,14|2,3:2|3:2,0:0:0:0:
137,159,24867,1,0,0:0:0:0:
210,215,25025,1,2,3:2:0:0:
286,163,25183,2,0,L|283:74,1,66.0000020141602,2|0,0:0|3:2,0:0:0:0:
374,78,25499,2,0,P|450:105|505:90,2,132.00000402832,2|2|2,0:0|3:2|3:2,0:0:0:0:
307,14,26288,2,0,P|268:13|232:26,1,66.0000020141602,0|2,3:2|0:0,0:0:0:0:
171,81,26604,2,0,L|168:146,1,66.0000020141602,2|0,3:2|3:2,0:0:0:0:
164,239,26920,6,0,P|235:215|296:233,1,132.00000402832,6|2,3:2|3:2,0:0:0:0:
352,296,27394,1,0,0:0:0:0:
438,266,27551,2,0,L|434:185,1,66.0000020141602,2|2,3:2|0:0,0:0:0:0:
427,107,27867,1,0,3:2:0:0:
353,50,28025,2,0,P|334:95|363:176,2,132.00000402832,2|2|2,0:0|3:2|3:2,0:0:0:0:
267,13,28815,1,0,3:2:0:0:
197,62,28972,1,8,3:2:0:0:
164,59,29050,1,0,3:2:0:0:
131,56,29129,1,8,3:2:0:0:
38,32,29288,6,0,P|19:83|37:170,1,132.00000402832,6|0,3:2|3:2,0:0:0:0:
89,230,29762,2,0,P|86:262|75:293,1,66.0000020141602,10|0,0:0|0:0,0:0:0:0:
43,380,30078,1,2,3:2:0:0:
135,372,30236,1,2,3:2:0:0:
227,364,30394,1,8,0:0:0:0:
301,310,30551,6,0,P|273:260|193:274,1,132.00000402832,6|0,3:2|3:2,0:0:0:0:
116,234,31025,2,0,P|112:201|123:143,1,66.0000020141602,10|0,0:0|0:0,0:0:0:0:
166,91,31341,1,2,3:2:0:0:
247,134,31499,1,2,3:2:0:0:
318,75,31657,1,8,0:0:0:0:
401,115,31815,6,0,P|443:180|426:247,1,132.00000402832,6|0,3:2|3:2,0:0:0:0:
302,215,32288,2,0,P|349:192|387:199,1,66.0000020141602,10|0,3:2|0:0,0:0:0:0:
362,285,32604,1,2,3:2:0:0:
271,301,32762,2,0,L|191:297,1,66.0000020141602,2|8,3:2|0:0,0:0:0:0:
171,207,33078,6,0,B|222:205|222:205|248:215|248:215|300:214,1,132.00000402832,6|0,3:2|3:2,0:0:0:0:
350,129,33551,2,0,B|284:130|284:130,1,66.0000020141602,10|2,0:0|0:0,0:0:0:0:
196,111,33867,1,2,3:2:0:0:
113,142,34025,1,2,3:2:0:0:
76,61,34183,1,8,0:0:0:0:
80,31,34262,1,8,0:0:0:0:
87,2,34341,1,8,0:0:0:0:
192,21,34499,6,0,P|286:36|348:24,1,132.00000402832,6|10,3:2|0:0,0:0:0:0:
411,7,34972,1,10,0:0:0:0:
464,82,35130,2,0,P|469:133|459:165,1,66.0000020141602,2|0,3:2|3:2,0:0:0:0:
408,220,35446,1,10,0:0:0:0:
321,187,35604,2,0,P|267:182|232:197,1,66.0000020141602,2|0,3:2|0:0,0:0:0:0:
180,238,35920,2,0,P|126:243|91:228,1,66.0000020141602,2|8,3:2|0:0,0:0:0:0:
39,185,36236,2,0,L|34:36,1,132.00000402832,10|2,0:0|3:2,0:0:0:0:
121,22,36709,2,0,L|123:110,1,66.0000020141602,10|0,0:0|3:2,0:0:0:0:
202,137,37025,6,0,P|261:141|324:100,2,132.00000402832,2|10|2,3:2|0:0|3:2,0:0:0:0:
123,87,37815,2,0,P|86:74|52:74,1,66.0000020141602,2|8,3:2|0:0,0:0:0:0:
2,146,38130,2,0,L|6:277,1,132.00000402832,2|2,3:2|3:2,0:0:0:0:
66,348,38604,1,8,0:0:0:0:
123,275,38762,2,0,L|120:202,2,66.0000020141602,10|0|0,0:0|3:2|3:2,0:0:0:0:
186,343,39236,1,10,0:0:0:0:
252,279,39394,1,8,0:0:0:0:
334,347,39551,6,0,L|341:213,1,132.00000402832,6|10,3:2|0:0,0:0:0:0:
339,122,40025,1,10,0:0:0:0:
260,171,40183,1,2,3:2:0:0:
211,92,40341,2,0,L|209:1,1,66.0000020141602,0|10,3:2|0:0,0:0:0:0:
128,5,40657,2,0,P|56:24|26:98,1,132.00000402832,2|2,3:2|3:2,0:0:0:0:
23,163,41130,1,8,0:0:0:0:
114,151,41288,2,0,L|112:60,2,66.0000020141602,10|0|2,0:0|3:2|3:2,0:0:0:0:
167,227,41762,2,0,L|165:292,1,66.0000020141602,10|0,0:0|3:2,0:0:0:0:
201,378,42078,6,0,P|262:380|315:313,2,132.00000402832,2|10|2,3:2|0:0|3:2,0:0:0:0:
165,292,42867,2,0,L|241:284,1,66.0000020141602,2|8,3:2|0:0,0:0:0:0:
298,221,43183,2,0,L|443:236,2,132.00000402832,2|2|10,3:2|3:2|0:0,0:0:0:0:
210,193,43972,1,2,3:2:0:0:
210,100,44130,1,2,3:2:0:0:
298,72,44287,1,10,3:2:0:0:
319,98,44367,1,2,3:2:0:0:
324,130,44446,1,2,3:2:0:0:
297,220,44604,6,0,P|225:215|157:238,1,143.999995605469,12|0,0:0|3:2,0:0:0:0:
87,327,45078,2,0,P|158:322|226:344,1,143.999995605469,12|0,0:0|3:2,0:0:0:0:
320,384,45551,2,0,B|325:327|325:327|340:300|340:300|345:243,1,143.999995605469,12|0,0:0|3:2,0:0:0:0:
367,160,46025,2,0,B|328:149|295:169|295:169|262:190|223:179,1,143.999995605469,12|0,0:0|3:2,0:0:0:0:
130,115,46499,2,0,P|187:70|249:107,1,143.999995605469,14|10,0:0|0:0,0:0:0:0:
265,307,47130,6,0,P|193:311|125:289,1,143.999995605469,12|0,0:0|3:2,0:0:0:0:
54,201,47604,2,0,P|125:205|193:183,1,143.999995605469,12|0,0:0|3:2,0:0:0:0:
266,113,48078,2,0,P|330:97|351:169,1,143.999995605469,12|0,0:0|3:2,0:0:0:0:
287,232,48551,2,0,P|353:205|428:211,1,143.999995605469,12|0,0:0|3:2,0:0:0:0:
419,290,49025,2,0,B|362:272|313:305|313:305|264:339|207:321,1,215.999993408203,14|0,0:0|0:0,0:0:0:0:
135,269,49657,6,0,L|131:187,1,77.9999964294435,14|0,0:0|3:2,0:0:0:0:
212,143,49972,2,0,L|216:225,1,77.9999964294435,10|0,0:0|3:2,0:0:0:0:
124,243,50288,2,0,L|120:161,1,77.9999964294435,10|2,0:0|3:2,0:0:0:0:
201,117,50604,2,0,L|205:199,1,77.9999964294435,10|2,0:0|0:0,0:0:0:0:
113,217,50921,2,0,L|109:135,1,77.9999964294435,10|0,0:0|3:2,0:0:0:0:
190,91,51236,2,0,L|194:173,1,77.9999964294435,10|0,0:0|3:2,0:0:0:0:
102,191,51551,2,0,L|98:109,1,77.9999964294435,8|2,0:0|3:2,0:0:0:0:
179,65,51867,1,8,0:0:0:0:
266,98,52025,6,0,P|341:111|412:58,1,155.999992858887,6|0,3:2|3:2,0:0:0:0:
495,88,52499,2,0,P|482:150|484:186,1,77.9999964294435,10|0,0:0|3:2,0:0:0:0:
498,257,52815,1,10,0:0:0:0:
403,223,52972,1,0,3:2:0:0:
324,287,53130,2,0,L|328:374,1,77.9999964294435,10|0,0:0|3:2,0:0:0:0:
416,313,53446,5,10,0:0:0:0:
410,210,53604,1,10,0:0:0:0:
405,108,53762,1,10,0:0:0:0:
405,108,54709,6,0,B|360:100|324:126|324:126|290:152|245:144,1,167.999994873047,6|8,3:2|0:0,0:0:0:0:
146,98,55183,2,0,P|185:40|267:67,1,167.999994873047,2|0,0:0|3:2,0:0:0:0:
311,168,55657,6,0,P|296:266|297:346,1,167.999994873047,14|2,0:0|3:2,0:0:0:0:
190,363,56130,2,0,P|159:279|62:303,1,167.999994873047,2|0,0:0|0:0,0:0:0:0:
6,205,56604,1,2,3:2:0:0:
51,105,56762,1,0,3:2:0:0:
148,153,56920,2,0,L|253:161,1,83.9999974365235,10|0,0:0|3:2,0:0:0:0:
307,80,57236,6,0,P|379:54|449:110,1,167.999994873047,6|8,3:2|0:0,0:0:0:0:
365,214,57709,2,0,P|358:168|380:122,1,83.9999974365235,2|2,0:0|3:2,0:0:0:0:
465,193,58025,1,0,3:2:0:0:
433,287,58183,6,0,B|388:279|352:305|352:305|318:331|273:323,1,167.999994873047,14|0,0:0|3:2,0:0:0:0:
186,255,58657,1,2,0:0:0:0:
186,255,58815,2,0,L|180:156,1,83.9999974365235,8|2,0:0|0:0,0:0:0:0:
105,104,59130,1,0,3:2:0:0:
30,172,59288,1,0,3:2:0:0:
40,221,59367,1,0,3:2:0:0:
78,260,59446,2,0,P|141:267|183:246,1,83.9999974365235,10|2,3:2|3:2,0:0:0:0:
247,210,59762,6,0,P|310:188|406:220,1,167.999994873047,6|8,3:2|0:0,0:0:0:0:
288,340,60236,2,0,P|280:289|366:316,1,167.999994873047,2|2,0:0|3:2,0:0:0:0:
453,348,60709,2,0,P|450:286|463:181,1,167.999994873047,14|0,0:0|3:2,0:0:0:0:
509,90,61183,1,2,0:0:0:0:
509,90,61341,2,0,P|460:99|397:97,1,83.9999974365235,10|0,0:0|0:0,0:0:0:0:
324,97,61657,1,2,3:2:0:0:
236,46,61815,1,0,3:2:0:0:
142,81,61972,2,0,P|111:126|110:175,1,83.9999974365235,10|0,0:0|3:2,0:0:0:0:
152,244,62288,6,0,L|339:240,1,167.999994873047,6|8,3:2|0:0,0:0:0:0:
398,150,62762,2,0,P|335:151|324:245,1,167.999994873047,2|0,0:0|3:2,0:0:0:0:
452,253,63236,2,0,L|445:84,1,167.999994873047,14|0,0:0|3:2,0:0:0:0:
367,20,63709,2,0,B|322:12|286:38|286:38|252:64|207:56,1,167.999994873047,2|2,0:0|0:0,0:0:0:0:
107,40,64183,6,0,P|111:84|98:137,1,83.9999974365235,2|2,3:2|3:2,0:0:0:0:
53,211,64499,2,0,L|94:214,3,41.9999987182618,8|8|8|8,0:0|0:0|0:0|0:0,0:0:0:0:
130,251,64815,6,0,L|317:247,1,167.999994873047,6|8,3:2|0:0,0:0:0:0:
375,183,65288,2,0,B|333:152|333:152|215:154,1,167.999994873047,2|0,0:0|3:2,0:0:0:0:
128,96,65762,2,0,B|169:126|169:126|287:124,1,167.999994873047,14|2,0:0|3:2,0:0:0:0:
375,77,66236,2,0,L|378:244,1,167.999994873047,2|0,0:0|0:0,0:0:0:0:
414,339,66709,2,0,L|322:333,1,83.9999974365235,2|0,3:2|3:2,0:0:0:0:
229,349,67025,1,10,0:0:0:0:
158,276,67183,1,0,3:2:0:0:
216,193,67341,6,0,L|206:12,1,167.999994873047,6|8,3:2|0:0,0:0:0:0:
134,97,67815,2,0,L|138:180,2,83.9999974365235,2|2|0,0:0|3:2|3:2,0:0:0:0:
80,21,68288,2,0,B|53:63|53:63|60:189,1,167.999994873047,14|0,0:0|3:2,0:0:0:0:
116,266,68762,1,2,0:0:0:0:
116,266,68920,2,0,L|212:258,1,83.9999974365235,8|2,0:0|0:0,0:0:0:0:
295,226,69236,1,0,3:2:0:0:
291,124,69394,1,0,3:2:0:0:
246,100,69472,1,0,3:2:0:0:
192,97,69551,1,10,3:2:0:0:
138,180,69709,1,2,3:2:0:0:
199,259,69867,6,0,L|374:244,1,167.999994873047,6|8,3:2|0:0,0:0:0:0:
450,194,70341,2,0,P|387:149|292:176,1,167.999994873047,2|2,0:0|3:2,0:0:0:0:
199,259,70815,2,0,P|216:184|186:88,1,167.999994873047,14|0,0:0|3:2,0:0:0:0:
95,68,71288,1,2,0:0:0:0:
95,68,71446,2,0,L|92:156,1,83.9999974365235,10|0,0:0|0:0,0:0:0:0:
42,240,71762,5,2,3:2:0:0:
105,318,71920,1,0,3:2:0:0:
201,287,72078,2,0,P|260:265|296:264,1,83.9999974365235,10|0,0:0|3:2,0:0:0:0:
364,320,72394,6,0,L|374:140,1,167.999994873047,6|8,3:2|0:0,0:0:0:0:
289,95,72867,2,0,L|279:262,1,167.999994873047,2|0,3:2|3:2,0:0:0:0:
211,338,73341,2,0,P|140:292|53:314,1,167.999994873047,14|0,0:0|3:2,0:0:0:0:
11,219,73815,2,0,L|190:208,1,167.999994873047,2|0,3:2|3:2,0:0:0:0:
261,150,74288,5,2,3:2:0:0:
261,150,74446,1,0,3:2:0:0:
349,198,74604,2,0,P|366:247|362:284,1,83.9999974365235,10|0,0:0|3:2,0:0:0:0:
286,344,74920,1,2,3:2:0:0:
286,344,75078,1,0,3:2:0:0:
199,292,75236,1,10,0:0:0:0:
199,292,75394,1,0,3:2:0:0:
108,334,75551,6,0,L|101:217,1,83.9999974365235,2|2,3:2|3:2,0:0:0:0:
148,159,75867,1,8,0:0:0:0:
148,159,75946,1,8,0:0:0:0:
148,159,76025,2,0,L|152:77,2,41.9999987182618,8|8|2,0:0|0:0|3:2,0:0:0:0:
148,159,79025,6,0,L|238:154,1,77.9999964294435,14|2,3:2|3:2,0:0:0:0:
309,97,79340,2,0,L|386:101,1,77.9999964294435,10|0,0:0|0:0,0:0:0:0:
470,159,79656,1,2,3:2:0:0:
382,210,79814,2,0,P|355:262|359:291,1,77.9999964294435,0|10,3:2|0:0,0:0:0:0:
432,347,80130,6,0,P|363:315|271:334,1,155.999992858887,6|2,3:2|3:2,0:0:0:0:
197,376,80603,2,0,L|194:285,1,77.9999964294435,10|0,0:0|0:0,0:0:0:0:
189,196,80919,1,2,3:2:0:0:
101,144,81077,1,0,3:2:0:0:
22,208,81235,1,10,0:0:0:0:
38,307,81393,6,0,L|201:297,1,155.999992858887,6|2,3:2|3:2,0:0:0:0:
295,299,81867,2,0,P|304:239|294:201,1,77.9999964294435,10|0,0:0|3:2,0:0:0:0:
231,149,82182,1,2,3:2:0:0:
231,149,82340,2,0,P|223:98|240:55,1,77.9999964294435,0|10,3:2|0:0,0:0:0:0:
314,16,82656,6,0,L|487:10,1,155.999992858887,6|0,3:2|3:2,0:0:0:0:
506,105,83130,2,0,L|400:101,1,77.9999964294435,10|0,0:0|3:2,0:0:0:0:
325,100,83446,1,2,3:2:0:0:
335,200,83603,1,0,3:2:0:0:
346,300,83761,1,10,0:0:0:0:
432,246,83919,1,2,0:0:0:0:
325,100,84235,6,0,P|366:93|407:99,2,83.9999974365235,2|2|0,0:0|0:0|0:0,0:0:0:0:
258,152,84709,2,0,P|216:158|175:152,1,83.9999974365235,2|0,0:0|0:0,0:0:0:0:
125,83,85025,1,14,3:2:0:0:
125,83,85182,1,6,3:2:0:0:
256,192,85340,12,0,87077,0:0:0:0:
