osu file format v14

[General]
AudioFilename: audio.mp3
AudioLeadIn: 0
PreviewTime: 53999
Countdown: 0
SampleSet: Soft
StackLeniency: 0.4
Mode: 0
LetterboxInBreaks: 0
WidescreenStoryboard: 0

[Editor]
Bookmarks: 1289,3815,13920,18815,24026,28920,34131,44236,53710,54341,64447,75815,78657,83551
DistanceSpacing: 1
BeatDivisor: 4
GridSize: 32
TimelineZoom: 1.9

[Metadata]
Title:ROUGH DIAMONDS (TV Size)
TitleUnicode:ROUGH DIAMONDS (TV Size)
Artist:SCREEN mode
ArtistUnicode:SCREEN mode
Creator:Cris-
Version:HAZU'S EASY
Source:食戟のソーマ 弐ノ皿
Tags:Hazu- Tatan browiec Shokugeki no Soma Souma Ni no Sara Food Wars Opening 3 Season 2 J.C.Staff Anime Japanese Rock J-Rock JRock 1/1 イチブンノイチ
BeatmapID:2586407
BeatmapSetID:1244230

[Difficulty]
HPDrainRate:2
CircleSize:3
OverallDifficulty:2
ApproachRate:3
SliderMultiplier:0.899999999999999
SliderTickRate:1

[Events]
//Background and Video events
0,0,"Rough Diamonds.jpg",0,0
Video,-250,"ROUGH DIAMONDS OPENING.mp4"
//Break Periods
2,76383,77585
//Storyboard Layer 0 (Background)
//Storyboard Layer 1 (Fail)
//Storyboard Layer 2 (Pass)
//Storyboard Layer 3 (Foreground)
//Storyboard Layer 4 (Overlay)
//Storyboard Sound Samples

[TimingPoints]
394,315.789473684211,4,2,1,50,1,0
1341,-100,4,2,1,60,0,0
3709,-100,4,2,1,65,0,0
3867,-100,4,2,1,70,0,0
4183,-100,4,2,1,70,0,0
13104,-100,4,2,1,5,0,0
13183,-100,4,2,1,70,0,0
13815,-100,4,2,1,50,0,0
14288,-100,4,2,1,55,0,0
19183,-100,4,2,1,60,0,0
24394,-100,4,2,1,55,0,0
29288,-100,4,2,1,60,0,0
44604,-100,4,2,1,70,0,0
54078,-100,4,2,1,45,0,0
54709,-100,4,2,1,80,0,1
64736,-100,4,2,1,80,0,0
64815,-100,4,2,1,80,0,1
76183,-100,4,2,1,40,0,0
79025,315.789473684211,4,2,1,70,1,0
84235,-100,4,2,1,50,0,0
85025,-100,4,2,1,60,0,0
85182,-100,4,2,1,70,0,0
85340,-100,4,2,1,70,0,0
85972,-100,4,2,1,60,0,0
86603,-100,4,2,1,50,0,0
87077,-100,4,2,1,5,0,0

[Colours]
Combo1 : 248,135,205
Combo2 : 255,213,128
Combo3 : 240,135,100
Combo4 : 176,140,236

[HitObjects]
87,130,1341,5,8,0:0:0:0:
155,188,1657,2,0,P|220:179|295:170,2,135,10|10|10,0:0|0:0|0:0,0:0:0:0:
71,81,3079,2,0,P|136:72|211:63,1,135,8|8,0:0|0:0,0:0:0:0:
281,16,3867,1,8,0:0:0:0:
353,69,4183,6,0,P|363:120|370:164,1,89.9999999999999,14|10,0:0|0:0,0:0:0:0:
436,217,4814,2,0,P|426:268|411:360,2,135,2|2|10,3:2|0:0|0:0,0:0:0:0:
369,157,6078,2,0,P|359:106|344:14,2,135,2|2|10,3:2|0:0|0:0,0:0:0:0:
314,228,7341,2,0,P|248:253|188:221,2,135,2|2|10,3:2|0:0|0:0,0:0:0:0:
369,157,8604,1,2,3:2:0:0:
367,66,8920,1,10,0:0:0:0:
286,26,9236,6,0,P|241:38|195:46,1,89.9999999999999,6|10,3:2|0:0,0:0:0:0:
151,122,9867,2,0,P|98:103|13:76,2,135,2|2|10,3:2|0:0|0:0,0:0:0:0:
198,45,11130,2,0,P|251:26|336:-1,2,135,2|2|8,3:2|0:0|0:0,0:0:0:0:
151,122,12394,2,0,P|130:183|184:255,1,135,2|2,3:2|0:0,0:0:0:0:
240,284,13183,1,8,0:0:0:0:
321,244,13499,1,10,0:0:0:0:
444,55,14288,6,0,P|391:43|347:35,1,89.9999999999999,6|2,3:2|3:2,0:0:0:0:
270,67,14920,2,0,P|210:82|115:102,1,135,2|2,3:2|0:0,0:0:0:0:
52,70,15709,1,2,3:2:0:0:
4,146,16025,1,2,3:2:0:0:
33,277,16499,1,2,3:2:0:0:
121,294,16815,6,0,P|176:276|221:262,1,89.9999999999999,6|2,3:2|3:2,0:0:0:0:
274,326,17446,2,0,P|348:342|422:363,1,135,2|2,3:2|0:0,0:0:0:0:
479,308,18236,1,2,3:2:0:0:
435,229,18551,2,0,P|444:160|451:119,1,89.9999999999999,2|8,3:2|0:0,0:0:0:0:
380,79,19183,6,0,P|328:90|235:117,1,135,6|10,3:2|0:0,0:0:0:0:
193,182,19972,2,0,P|134:139|56:172,2,135,2|6|10,3:2|3:2|0:0,0:0:0:0:
251,250,21236,2,0,P|237:302|216:386,2,135,2|6|10,3:2|3:2|3:2,0:0:0:0:
333,213,22499,2,0,P|360:157|299:82,2,135,2|6|10,3:2|3:2|0:0,0:0:0:0:
251,250,23762,1,2,3:2:0:0:
162,234,24078,1,10,0:0:0:0:
97,171,24394,6,0,P|91:134|123:74,1,89.9999999999999,14|2,3:2|3:2,0:0:0:0:
195,57,25025,2,0,P|248:46|347:24,1,135,2|2,3:2|0:0,0:0:0:0:
408,68,25815,1,2,3:2:0:0:
350,136,26130,1,2,3:2:0:0:
400,261,26604,1,2,3:2:0:0:
426,347,26920,6,0,P|370:360|319:374,1,89.9999999999999,6|2,3:2|3:2,0:0:0:0:
267,313,27551,2,0,P|204:295|126:272,1,135,2|2,3:2|0:0,0:0:0:0:
71,337,28341,1,2,3:2:0:0:
14,266,28657,2,0,P|4:204|-5:155,1,89.9999999999999,2|8,3:2|3:2,0:0:0:0:
48,102,29288,6,0,P|144:75|188:118,1,135,6|10,3:2|0:0,0:0:0:0:
199,173,30078,2,0,P|261:193|318:160,2,135,2|6|10,3:2|3:2|0:0,0:0:0:0:
113,202,31341,2,0,P|131:266|144:333,2,135,2|6|10,3:2|3:2|3:2,0:0:0:0:
199,173,32604,2,0,P|211:106|230:41,2,135,2|6|10,3:2|3:2|0:0,0:0:0:0:
247,248,33867,1,2,3:2:0:0:
332,219,34183,1,8,0:0:0:0:
389,287,34499,6,0,P|441:309|489:283,1,89.9999999999999,6|10,3:2|0:0,0:0:0:0:
511,219,35130,2,0,P|500:163|485:75,1,135,2|2,3:2|3:2,0:0:0:0:
408,41,35920,1,2,3:2:0:0:
336,95,36236,2,0,P|269:81|185:66,1,135,10|10,0:0|0:0,0:0:0:0:
123,28,37025,6,0,P|78:42|15:56,1,89.9999999999999,2|10,3:2|0:0,0:0:0:0:
6,137,37657,2,0,B|-4:183|-4:183|47:296,1,135,2|2,3:2|3:2,0:0:0:0:
109,309,38446,1,2,3:2:0:0:
179,252,38762,2,0,P|244:270|325:294,1,135,10|10,0:0|0:0,0:0:0:0:
387,332,39551,6,0,P|399:277|411:231,1,89.9999999999999,6|10,3:2|0:0,0:0:0:0:
349,174,40183,2,0,P|330:101|310:20,1,135,2|2,3:2|3:2,0:0:0:0:
229,18,40972,1,2,3:2:0:0:
160,76,41288,2,0,P|179:149|199:230,1,135,10|10,0:0|0:0,0:0:0:0:
132,273,42078,6,0,P|124:310|110:378,1,89.9999999999999,2|10,3:2|0:0,0:0:0:0:
23,359,42709,2,0,P|32:314|55:217,1,135,2|2,3:2|3:2,0:0:0:0:
36,138,43499,1,2,3:2:0:0:
112,89,43815,2,0,P|180:75|244:118,1,135,10|10,0:0|3:2,0:0:0:0:
282,182,44604,6,0,P|263:236|233:340,1,135,12|12,0:0|0:0,0:0:0:0:
358,377,45551,2,0,P|377:312|399:248,1,135,12|12,0:0|0:0,0:0:0:0:
362,118,46499,2,0,P|354:69|345:22,1,89.9999999999999,14|10,0:0|0:0,0:0:0:0:
263,63,47130,6,0,P|189:78|110:87,1,135,12|12,0:0|0:0,0:0:0:0:
114,219,48078,2,0,P|188:204|267:195,1,135,12|12,0:0|0:0,0:0:0:0:
377,163,49025,2,0,P|382:106|361:71,1,89.9999999999999,14|10,0:0|0:0,0:0:0:0:
289,33,49657,6,0,B|225:23|225:23|89:71,1,180,14|10,0:0|0:0,0:0:0:0:
27,46,50604,1,10,0:0:0:0:
3,133,50920,2,0,P|6:176|45:213,1,89.9999999999999,10|10,0:0|0:0,0:0:0:0:
117,249,51551,6,0,P|179:229|259:203,2,135,8|6|10,0:0|3:2|0:0,0:0:0:0:
36,209,52815,1,10,0:0:0:0:
101,147,53130,1,10,0:0:0:0:
20,106,53446,2,0,P|11:63|-4:7,1,89.9999999999999,10|10,0:0|0:0,0:0:0:0:
269,20,54709,6,0,P|278:63|306:171,1,135,6|2,3:2|0:0,0:0:0:0:
215,257,55657,2,0,P|206:214|178:106,1,135,14|2,0:0|0:0,0:0:0:0:
65,60,56604,2,0,P|76:104|86:154,1,89.9999999999999,2|10,3:2|0:0,0:0:0:0:
30,219,57236,6,0,P|13:284|-1:350,2,135,6|2|14,3:2|0:0|0:0,0:0:0:0:
84,147,58499,2,0,P|121:132|174:157,1,89.9999999999999,0|8,3:2|0:0,0:0:0:0:
224,217,59130,1,0,3:2:0:0:
307,182,59446,1,10,3:2:0:0:
379,235,59762,6,0,P|363:307|341:400,2,135,6|2|14,3:2|0:0|0:0,0:0:0:0:
451,181,61025,2,0,P|459:142|419:84,1,89.9999999999999,0|10,3:2|0:0,0:0:0:0:
363,46,61657,1,2,3:2:0:0:
286,92,61972,1,10,0:0:0:0:
209,44,62288,6,0,P|125:33|62:21,1,135,6|2,3:2|0:0,0:0:0:0:
100,156,63236,2,0,P|184:167|247:179,2,135,14|2|2,0:0|0:0|3:2,0:0:0:0:
23,107,64499,1,8,0:0:0:0:
3,194,64815,6,0,P|16:244|38:337,1,135,6|2,3:2|0:0,0:0:0:0:
164,362,65762,2,0,P|151:312|129:219,1,135,14|2,0:0|0:0,0:0:0:0:
214,124,66709,2,0,P|227:174|238:223,1,89.9999999999999,2|10,3:2|0:0,0:0:0:0:
296,277,67341,6,0,P|367:296|410:259,2,135,6|2|14,3:2|0:0|0:0,0:0:0:0:
213,312,68604,2,0,P|169:300|119:291,1,89.9999999999999,0|8,3:2|0:0,0:0:0:0:
45,249,69236,1,0,3:2:0:0:
41,159,69551,1,10,3:2:0:0:
118,113,69867,6,0,P|162:101|260:82,2,135,6|2|14,3:2|0:0|0:0,0:0:0:0:
41,159,71130,2,0,P|28:196|60:260,1,89.9999999999999,0|10,3:2|0:0,0:0:0:0:
116,294,71762,1,2,3:2:0:0:
191,244,72078,1,10,0:0:0:0:
259,302,72394,6,0,P|340:323|411:339,1,135,6|2,3:2|3:2,0:0:0:0:
444,210,73341,2,0,P|363:189|292:173,2,135,14|2|2,0:0|3:2|3:2,0:0:0:0:
507,145,74604,1,10,0:0:0:0:
461,67,74920,6,0,P|380:46|340:35,1,89.9999999999999,2|10,3:2|0:0,0:0:0:0:
291,81,75551,2,0,P|247:69|203:58,1,89.9999999999999,2|8,3:2|0:0,0:0:0:0:
120,93,76183,1,2,3:2:0:0:
120,93,79025,6,0,P|100:155|136:193,1,89.9999999999999,14|10,3:2|0:0,0:0:0:0:
188,217,79656,2,0,P|256:200|332:182,2,135,2|6|10,3:2|3:2|0:0,0:0:0:0:
130,286,80919,2,0,P|62:269|-14:251,2,135,2|6|10,3:2|3:2|0:0,0:0:0:0:
205,334,82182,2,0,P|270:349|324:298,2,135,2|6|10,3:2|3:2|0:0,0:0:0:0:
216,244,83446,2,0,P|164:203|101:219,1,135,2|2,3:2|0:0,0:0:0:0:
75,305,84235,6,0,P|57:180|32:24,1,270,2|6,0:0|3:2,0:0:0:0:
256,192,85340,12,0,87077,0:0:0:0:
