osu file format v14

[General]
AudioFilename: audio.mp3
AudioLeadIn: 0
PreviewTime: 53999
Countdown: 0
SampleSet: Soft
StackLeniency: 0.4
Mode: 0
LetterboxInBreaks: 0
WidescreenStoryboard: 1

[Editor]
DistanceSpacing: 1.2
BeatDivisor: 4
GridSize: 4
TimelineZoom: 2.899999

[Metadata]
Title:ROUGH DIAMONDS (TV Size)
TitleUnicode:ROUGH DIAMONDS (TV Size)
Artist:SCREEN mode
ArtistUnicode:SCREEN mode
Creator:Cris-
Version:BROWIEC'S EXPERT
Source:食戟のソーマ 弐ノ皿
Tags:Hazu- Tatan browiec Shokugeki no Soma Souma Ni no Sara Food Wars Opening 3 Season 2 J.C.Staff Anime Japanese Rock J-Rock JRock 1/1 イチブンノイチ
BeatmapID:2617143
BeatmapSetID:1244230

[Difficulty]
HPDrainRate:5.6
CircleSize:3.3
OverallDifficulty:8.3
ApproachRate:9.2
SliderMultiplier:1.8
SliderTickRate:1

[Events]
//Background and Video events
0,0,"ROUGH DIAMONDS.jpg",0,0
Video,-250,"ROUGH DIAMONDS OPENING.mp4"
//Break Periods
//Storyboard Layer 0 (Background)
//Storyboard Layer 1 (Fail)
//Storyboard Layer 2 (Pass)
//Storyboard Layer 3 (Foreground)
//Storyboard Layer 4 (Overlay)
//Storyboard Sound Samples

[TimingPoints]
394,315.789473684211,4,2,1,50,1,0
1341,-111.111111111111,4,2,1,60,0,0
1657,-111.111111111111,4,2,1,60,0,0
1815,-111.111111111111,4,2,1,5,0,0
2130,-111.111111111111,4,2,1,60,0,0
2288,-111.111111111111,4,2,1,5,0,0
2604,-111.111111111111,4,2,1,60,0,0
2762,-111.111111111111,4,2,1,5,0,0
3078,-111.111111111111,4,2,1,60,0,0
3709,-111.111111111111,4,2,1,65,0,0
3867,-111.111111111111,4,2,1,70,0,0
4183,-111.111111111111,4,2,1,70,0,0
13815,-125,4,2,1,70,0,0
14288,-125,4,2,1,55,0,0
14525,-125,4,2,1,5,0,0
14604,-125,4,2,1,55,0,0
17051,-125,4,2,1,5,0,0
17130,-125,4,2,1,55,0,0
19183,-111.111111111111,4,2,1,60,0,0
24394,-125,4,2,1,55,0,0
29288,-111.111111111111,4,2,1,60,0,0
34499,-111.111111111111,4,2,1,60,0,0
36946,-111.111111111111,4,2,1,5,0,0
37025,-111.111111111111,4,2,1,60,0,0
41999,-111.111111111111,4,2,1,5,0,0
42078,-111.111111111111,4,2,1,60,0,0
44604,-111.111111111111,4,2,1,70,0,0
52183,-111.111111111111,4,2,1,70,0,0
54078,-133.333333333333,4,2,1,45,0,0
54709,-100,4,2,1,80,0,0
64499,-100,4,2,1,80,0,0
64815,-100,4,2,1,80,0,0
76183,-100,4,2,1,40,0,0
79025,315.789473684211,4,2,1,70,1,0
79025,-111.111111111111,4,2,1,70,0,0
84077,-133.333333333333,4,2,1,50,0,0
85025,-133.333333333333,4,2,1,60,0,0
85182,-133.333333333333,4,2,1,70,0,0
85972,-133.333333333333,4,2,1,60,0,0
86603,-133.333333333333,4,2,1,50,0,0
87077,-133.333333333333,4,2,1,5,0,0

[Colours]
Combo1 : 248,135,205
Combo2 : 255,213,128
Combo3 : 240,135,100
Combo4 : 176,140,236

[HitObjects]
108,96,1341,5,8,0:0:0:0:
108,96,1420,1,8,0:0:0:0:
108,96,1499,2,0,L|112:136,1,40.4999987640381,8|8,0:3|0:3,0:0:0:0:
80,240,1657,6,0,L|159:230,1,80.9999975280763,10|0,0:0|0:0,0:0:0:0:
372,376,2130,6,0,L|292:366,1,80.9999975280763,10|0,0:0|0:0,0:0:0:0:
188,128,2604,6,0,L|267:118,1,80.9999975280763,10|0,0:0|0:0,0:0:0:0:
456,352,3078,5,8,0:0:0:0:
420,136,3236,1,8,0:0:0:0:
304,340,3394,1,8,0:0:0:0:
256,96,3551,1,8,0:0:0:0:
392,288,3709,1,8,0:0:0:0:
392,288,3788,1,8,0:0:0:0:
392,288,3867,2,0,L|388:248,1,40.4999987640381,8|8,0:0|0:0,0:0:0:0:
352,32,4025,2,0,L|348:72,1,40.4999987640381,8|8,0:0|0:0,0:0:0:0:
236,272,4183,6,0,P|196:280|152:268,1,80.9999975280763,14|2,0:0|0:0,0:0:0:0:
48,56,4499,2,0,P|88:48|132:60,1,80.9999975280763,10|0,0:0|0:0,0:0:0:0:
304,212,4815,1,2,3:2:0:0:
84,144,4972,1,0,3:2:0:0:
292,56,5130,1,10,0:0:0:0:
204,292,5288,6,0,B|160:252|160:252|192:144,1,161.999995056153,2|2,0:0|0:0,0:0:0:0:
384,20,5762,2,0,L|394:103,1,80.9999975280763,10|0,0:0|0:0,0:0:0:0:
416,328,6078,1,2,3:2:0:0:
288,144,6236,1,0,3:2:0:0:
256,364,6394,1,10,0:0:0:0:
456,236,6551,6,0,B|376:200|388:272|300:240,1,161.999995056153,2|2,0:0|0:0,0:0:0:0:
232,52,7025,2,0,P|258:82|270:126,1,80.9999975280763,10|0,0:0|0:0,0:0:0:0:
180,312,7341,1,2,3:2:0:0:
112,100,7499,1,0,3:2:0:0:
304,224,7657,1,10,0:0:0:0:
92,280,7815,6,0,B|40:304|-12:276|-12:276|20:276|56:252,1,161.999995056153,2|0,0:0|0:0,0:0:0:0:
216,96,8288,2,0,L|205:179,1,80.9999975280763,10|0,0:0|0:0,0:0:0:0:
372,376,8604,1,2,3:2:0:0:
312,148,8762,1,0,3:2:0:0:
188,344,8920,1,10,0:0:0:0:
440,268,9078,2,0,L|356:257,1,80.9999975280763,2|6,0:0|3:2,0:0:0:0:
192,128,9394,5,2,0:0:0:0:
428,80,9551,2,0,P|436:120|424:164,1,80.9999975280763,10|0,0:0|0:0,0:0:0:0:
180,224,9867,1,2,3:2:0:0:
324,32,10025,1,0,3:2:0:0:
360,268,10183,1,10,0:0:0:0:
216,32,10341,6,0,B|156:24|156:24|124:44|124:44|60:36,1,161.999995056153,2|2,0:0|0:0,0:0:0:0:
0,252,10815,2,0,L|83:241,1,80.9999975280763,10|0,0:0|0:0,0:0:0:0:
288,140,11130,1,2,3:2:0:0:
176,340,11288,1,0,3:2:0:0:
96,128,11446,1,10,0:0:0:0:
280,316,11604,6,0,P|340:328|368:224,1,161.999995056153,2|2,0:0|0:0,0:0:0:0:
204,96,12078,2,0,L|193:179,1,80.9999975280763,8|0,0:0|0:0,0:0:0:0:
88,376,12394,1,2,3:2:0:0:
24,152,12551,1,0,3:2:0:0:
172,320,12709,1,10,0:0:0:0:
204,96,12867,2,0,P|244:88|288:100,1,80.9999975280763,2|0,0:0|0:0,0:0:0:0:
400,336,13183,5,8,0:0:0:0:
488,68,13341,1,8,0:0:0:0:
240,188,13499,1,10,0:0:0:0:
224,204,13815,6,0,L|259:208,1,36,0|0,3:0|3:0,0:0:0:0:
376,252,13972,2,0,L|340:256,1,36,8|0,3:0|3:0,0:0:0:0:
224,300,14130,2,0,L|259:304,1,36,8|0,3:0|3:0,0:0:0:0:
444,320,14288,6,0,B|484:280|484:280|444:180,2,144,6|2|2,3:2|3:2|3:2,0:0:0:0:
356,384,15078,2,0,L|347:312,1,72,2|0,0:0|3:2,0:0:0:0:
268,200,15394,6,0,P|232:208|192:200,1,72,2|0,0:0|3:2,0:0:0:0:
192,52,15709,2,0,P|216:79|230:117,1,72,2|0,3:2|3:2,0:0:0:0:
102,192,16025,2,0,P|113:156|140:126,1,72,2|0,3:2|3:2,0:0:0:0:
268,200,16341,1,2,0:0:0:0:
140,280,16499,2,0,P|104:288|64:280,1,72,2|0,3:2|3:2,0:0:0:0:
104,48,16815,6,0,B|184:24|172:80|244:56,2,144,6|2|2,3:2|3:2|3:2,0:0:0:0:
32,156,17604,2,0,P|68:148|108:156,1,72,2|0,0:0|3:2,0:0:0:0:
72,320,17920,6,0,L|63:248,1,72,2|0,0:0|3:2,0:0:0:0:
196,176,18236,2,0,L|187:247,1,72,2|0,3:2|3:2,0:0:0:0:
288,376,18551,1,2,3:2:0:0:
400,184,18709,5,8,0:0:0:0:
400,184,18788,1,0,3:2:0:0:
400,184,18867,2,0,L|364:179,1,36,8|0,0:0|3:2,0:0:0:0:
187,247,19025,2,0,L|222:242,1,36,8|0,0:0|3:2,0:0:0:0:
400,88,19183,6,0,B|340:80|340:80|308:100|308:100|244:92,1,161.999995056153,6|0,3:2|3:2,0:0:0:0:
76,12,19657,2,0,L|86:95,1,80.9999975280763,10|0,0:0|0:0,0:0:0:0:
172,296,19972,1,2,3:2:0:0:
68,108,20130,1,2,3:2:0:0:
0,312,20288,1,8,0:0:0:0:
188,196,20446,6,0,P|236:176|280:272,1,161.999995056153,6|0,3:2|3:2,0:0:0:0:
96,380,20920,2,0,L|86:299,1,80.9999975280763,10|0,0:0|0:0,0:0:0:0:
224,92,21236,1,2,3:2:0:0:
4,172,21394,1,2,3:2:0:0:
204,284,21551,1,8,0:0:0:0:
128,40,21709,6,0,B|76:76|76:76|112:184,1,161.999995056153,6|0,3:2|3:2,0:0:0:0:
300,288,22183,2,0,L|309:207,1,80.9999975280763,10|0,3:2|0:0,0:0:0:0:
500,64,22499,1,2,3:2:0:0:
396,264,22657,1,2,3:2:0:0:
312,44,22815,1,8,0:0:0:0:
512,172,22972,6,0,B|460:196|408:168|408:168|440:168|476:144,1,161.999995056153,6|0,3:2|3:2,0:0:0:0:
296,28,23446,2,0,L|305:108,1,80.9999975280763,10|0,0:0|0:0,0:0:0:0:
264,320,23762,1,2,3:2:0:0:
172,120,23920,1,2,3:2:0:0:
124,340,24078,1,10,0:0:0:0:
124,340,24157,1,8,0:0:0:0:
124,340,24236,2,0,L|128:300,1,40.4999987640381,8|8,3:2|3:2,0:0:0:0:
320,220,24394,6,0,B|400:192|388:252|460:224,2,144,14|2|2,3:2|3:2|3:2,0:0:0:0:
344,380,25183,2,0,L|353:308,1,72,2|0,0:0|3:2,0:0:0:0:
220,192,25499,6,0,L|229:264,1,72,2|0,0:0|3:2,0:0:0:0:
152,376,25815,2,0,P|116:384|76:376,1,72,2|0,3:2|3:2,0:0:0:0:
4,272,26130,2,0,P|40:280|80:272,1,72,2|0,3:2|3:2,0:0:0:0:
204,208,26446,1,2,0:0:0:0:
76,124,26604,2,0,P|51:151|38:189,1,72,2|0,3:2|3:2,0:0:0:0:
186,350,26920,6,0,L|203:207,2,144,6|2|2,3:2|3:2|3:2,0:0:0:0:
312,384,27709,2,0,L|303:312,1,72,2|0,0:0|3:2,0:0:0:0:
436,220,28025,2,0,P|400:228|360:220,1,72,2|0,0:0|3:2,0:0:0:0:
400,60,28341,2,0,P|408:96|400:136,1,72,2|0,3:2|3:2,0:0:0:0:
248,216,28657,1,2,3:2:0:0:
296,20,28815,2,0,L|301:56,1,36,0|0,3:2|3:2,0:0:0:0:
352,248,28972,1,8,3:2:0:0:
352,248,29051,1,0,3:2:0:0:
352,248,29130,2,0,L|357:212,1,36,8|0,3:2|3:2,0:0:0:0:
208,88,29288,6,0,P|160:72|120:168,1,161.999995056153,6|0,3:2|3:2,0:0:0:0:
268,316,29762,2,0,L|187:307,1,80.9999975280763,10|0,0:0|0:0,0:0:0:0:
0,216,30078,1,2,3:2:0:0:
220,176,30236,1,2,3:2:0:0:
88,348,30394,1,8,0:0:0:0:
72,108,30551,6,0,B|124:144|124:144|88:252,1,161.999995056153,6|0,3:2|3:2,0:0:0:0:
256,360,31025,2,0,L|247:279,1,80.9999975280763,10|0,0:0|0:0,0:0:0:0:
324,80,31341,1,2,3:2:0:0:
400,276,31499,1,2,3:2:0:0:
480,72,31657,1,8,0:0:0:0:
280,192,31815,6,0,B|200:156|212:228|124:196,1,161.999995056153,6|0,3:2|3:2,0:0:0:0:
36,28,32288,2,0,P|76:19|119:32,1,80.9999975280763,10|0,3:2|0:0,0:0:0:0:
208,240,32604,1,2,3:2:0:0:
276,24,32762,1,2,3:2:0:0:
68,120,32920,1,8,0:0:0:0:
312,200,33078,6,0,B|372:192|372:192|404:212|404:212|468:204,1,161.999995056153,6|0,3:2|3:2,0:0:0:0:
440,20,33551,2,0,L|431:101,1,80.9999975280763,10|2,0:0|0:0,0:0:0:0:
344,316,33867,1,2,3:2:0:0:
272,100,34025,1,2,3:2:0:0:
471,244,34183,1,8,0:0:0:0:
471,244,34262,1,8,0:0:0:0:
471,244,34341,2,0,L|467:204,1,40.4999987640381,8|8,0:0|0:0,0:0:0:0:
309,12,34499,6,0,P|269:3|226:16,1,80.9999975280763,6|0,3:2|0:0,0:0:0:0:
192,208,34815,1,10,0:0:0:0:
364,88,34972,1,10,0:0:0:0:
268,280,35130,1,2,3:2:0:0:
172,104,35288,2,0,L|91:95,1,80.9999975280763,0|10,3:2|0:0,0:0:0:0:
8,292,35604,6,0,B|60:328|60:328|164:296,1,161.999995056153,2|2,3:2|0:0,0:0:0:0:
320,168,36078,1,8,0:0:0:0:
276,360,36236,2,0,L|267:279,1,80.9999975280763,10|0,0:0|3:2,0:0:0:0:
316,68,36551,1,2,3:2:0:0:
192,208,36709,2,0,P|152:217|109:204,1,80.9999975280763,10|0,0:0|0:0,0:0:0:0:
216,16,37025,6,0,L|225:97,1,80.9999975280763,2|0,3:2|3:2,0:0:0:0:
388,216,37341,2,0,L|397:135,1,80.9999975280763,10|8,0:0|0:0,0:0:0:0:
224,288,37657,1,2,3:2:0:0:
312,108,37815,1,2,3:2:0:0:
376,304,37972,1,8,0:0:0:0:
212,132,38130,6,0,P|172:121|128:133,1,80.9999975280763,2|0,3:2|0:0,0:0:0:0:
60,328,38446,2,0,P|99:338|143:326,1,80.9999975280763,2|8,3:2|0:0,0:0:0:0:
296,164,38762,1,10,0:0:0:0:
232,348,38920,1,0,3:2:0:0:
168,128,39078,1,0,3:2:0:0:
304,284,39236,1,10,0:0:0:0:
100,208,39394,2,0,L|127:204,1,26.9999991760254,8|8,0:0|0:0,0:0:0:0:
340,80,39551,6,0,P|379:69|423:81,1,80.9999975280763,6|0,3:2|3:2,0:0:0:0:
472,276,39867,1,10,0:0:0:0:
280,148,40025,1,10,0:0:0:0:
376,336,40183,1,2,3:2:0:0:
488,160,40341,2,0,L|407:169,1,80.9999975280763,0|10,3:2|0:0,0:0:0:0:
280,344,40657,6,0,B|200:308|212:380|124:348,1,161.999995056153,2|2,3:2|3:2,0:0:0:0:
0,184,41130,1,8,0:0:0:0:
176,232,41288,2,0,P|215:242|259:230,1,80.9999975280763,10|0,0:0|3:2,0:0:0:0:
184,48,41604,1,2,3:2:0:0:
92,192,41762,2,0,P|81:231|93:275,1,80.9999975280763,10|0,0:0|3:0,0:0:0:0:
324,140,42078,6,0,L|243:131,1,80.9999975280763,2|0,3:2|3:2,0:0:0:0:
336,324,42394,2,0,L|417:315,1,80.9999975280763,10|8,0:0|0:0,0:0:0:0:
436,104,42709,1,2,3:2:0:0:
300,236,42867,1,2,3:2:0:0:
372,28,43025,1,8,0:0:0:0:
472,212,43183,6,0,P|432:222|388:210,1,80.9999975280763,2|0,3:2|0:0,0:0:0:0:
283,73,43499,2,0,P|311:102|323:145,1,80.9999975280763,2|8,3:2|0:0,0:0:0:0:
300,340,43815,1,10,0:0:0:0:
216,148,43972,1,2,3:2:0:0:
184,372,44130,1,2,3:2:0:0:
356,244,44288,1,10,3:2:0:0:
356,244,44367,1,2,3:2:0:0:
356,244,44446,1,2,3:2:0:0:
104,296,44604,6,0,P|64:306|20:294,1,80.9999975280763,12|2,0:0|0:0,0:0:0:0:
72,56,44920,1,0,3:2:0:0:
184,232,45078,6,0,P|224:242|268:230,1,80.9999975280763,12|2,0:0|0:0,0:0:0:0:
356,32,45394,1,0,3:2:0:0:
140,136,45551,5,12,0:0:0:0:
368,224,45709,1,2,0:0:0:0:
256,16,45867,1,0,3:2:0:0:
296,300,46025,5,12,0:0:0:0:
424,104,46183,1,2,0:0:0:0:
196,204,46341,1,0,3:2:0:0:
448,284,46499,5,14,0:0:0:0:
328,64,46657,1,0,0:0:0:0:
280,320,46815,5,10,0:0:0:0:
344,80,46972,1,0,0:0:0:0:
464,300,47130,6,0,L|455:381,1,80.9999975280763,12|2,0:0|0:0,0:0:0:0:
212,256,47446,1,0,3:2:0:0:
432,200,47604,6,0,L|513:209,1,80.9999975280763,12|2,0:0|0:0,0:0:0:0:
336,384,47920,1,0,3:2:0:0:
280,120,48078,5,12,0:0:0:0:
408,316,48236,1,2,0:0:0:0:
464,76,48394,1,0,3:2:0:0:
300,288,48551,5,12,0:0:0:0:
248,32,48709,1,2,0:0:0:0:
376,228,48867,1,0,3:2:0:0:
140,112,49025,5,14,0:0:0:0:
216,336,49183,1,0,0:0:0:0:
344,140,49341,2,0,P|304:130|260:142,1,80.9999975280763,10|0,0:0|0:0,0:0:0:0:
80,288,49657,5,14,0:0:0:0:
300,360,49815,1,0,3:2:0:0:
64,272,49972,1,10,0:0:0:0:
276,148,50130,1,0,3:2:0:0:
276,148,50209,1,0,3:2:0:0:
276,148,50288,2,0,L|267:229,1,80.9999975280763,10|2,0:0|3:2,0:0:0:0:
88,368,50604,2,0,L|79:287,1,80.9999975280763,10|2,0:0|0:0,0:0:0:0:
152,16,50920,5,10,0:0:0:0:
252,244,51078,1,0,3:2:0:0:
344,20,51236,1,10,0:0:0:0:
120,160,51394,1,0,3:2:0:0:
120,160,51472,1,0,3:2:0:0:
120,160,51551,2,0,P|160:170|204:158,1,80.9999975280763,8|2,0:0|3:2,3:3:0:0:
328,4,51867,1,8,0:0:0:0:
364,240,52025,6,0,B|412:208|412:208|384:100,1,161.999995056153,6|0,3:2|3:2,0:0:0:0:
280,296,52499,1,10,0:0:0:0:
188,84,52657,1,0,3:2:0:0:
144,336,52815,1,10,0:0:0:0:
268,132,52972,1,0,3:2:0:0:
320,384,53130,1,10,0:0:0:0:
188,172,53288,1,0,3:2:0:0:
428,296,53446,5,10,0:0:0:0:
164,360,53604,1,10,0:0:0:0:
356,152,53762,1,10,0:0:0:0:
372,136,54078,6,0,L|439:144,2,67.5000025749208,2|0|2,0:0|0:0|0:0,0:0:0:0:
308,240,54551,1,0,0:0:0:0:
212,32,54709,6,0,P|168:4|108:108,1,180,6|8,3:2|0:0,0:0:0:0:
208,312,55183,2,0,L|217:222,1,90,2|2,0:0|3:2,0:0:0:0:
308,44,55499,1,0,3:2:0:0:
412,276,55657,6,0,P|368:288|316:272,1,90,14|0,0:0|0:0,0:0:0:0:
412,40,55972,1,2,3:2:0:0:
500,236,56130,2,0,P|512:280|496:332,1,90,2|8,0:0|0:0,0:0:0:0:
244,232,56446,1,0,0:0:0:0:
472,156,56604,1,2,3:2:0:0:
308,336,56762,1,0,3:2:0:0:
240,104,56920,1,10,0:0:0:0:
412,276,57078,1,0,3:2:0:0:
400,20,57236,6,0,B|340:56|340:56|372:172,1,180,6|8,3:2|0:0,0:0:0:0:
212,324,57709,2,0,L|221:234,1,90,2|2,0:0|3:2,0:0:0:0:
200,36,58025,1,0,3:2:0:0:
96,240,58183,2,0,P|52:252|0:236,1,90,14|0,0:0|0:0,0:0:0:0:
100,12,58499,5,0,3:2:0:0:
208,216,58657,1,2,0:0:0:0:
84,28,58815,2,0,L|93:117,1,90,8|2,0:0|0:0,0:0:0:0:
140,348,59130,1,0,3:2:0:0:
240,132,59288,1,0,3:2:0:0:
240,132,59367,1,0,3:2:0:0:
240,132,59446,1,10,3:2:0:0:
8,212,59604,1,2,3:2:0:0:
252,316,59762,6,0,B|352:288|332:364|424:332,1,180,6|8,3:2|0:0,0:0:0:0:
364,136,60236,2,0,L|354:225,1,90,2|0,0:0|3:2,0:0:0:0:
136,120,60551,1,2,3:2:0:0:
320,48,60709,2,0,P|364:36|416:52,1,90,14|0,0:0|0:0,0:0:0:0:
456,244,61025,6,0,P|412:256|360:240,1,90,0|2,3:2|0:0,0:0:0:0:
222,118,61341,2,0,P|178:107|135:119,1,90,10|0,0:0|0:0,0:0:0:0:
192,368,61657,1,2,3:2:0:0:
304,160,61815,1,0,3:2:0:0:
76,248,61972,1,10,0:0:0:0:
308,352,62130,1,0,3:2:0:0:
184,108,62288,6,0,L|194:197,1,90,6|0,3:2|0:0,0:0:0:0:
44,336,62604,1,8,0:0:0:0:
80,64,62762,2,0,L|90:153,1,90,2|2,0:0|3:2,0:0:0:0:
192,336,63078,1,0,3:2:0:0:
280,112,63236,6,0,P|322:100|366:110,1,90,14|0,0:0|0:0,0:0:0:0:
308,352,63551,1,0,3:2:0:0:
192,160,63709,2,0,P|180:117|190:73,1,90,2|8,0:0|0:0,0:0:0:0:
424,184,64025,1,2,0:0:0:0:
192,264,64183,5,2,3:2:0:0:
440,168,64341,1,2,3:2:0:0:
328,372,64499,1,8,0:0:0:0:
328,372,64578,1,8,0:0:0:0:
328,372,64657,2,0,L|322:324,1,45,8|8,0:0|0:0,0:0:0:0:
228,104,64815,6,0,B|168:96|168:96|120:120|120:120|52:112,1,180,6|8,3:2|0:0,0:0:0:0:
0,328,65288,2,0,L|89:318,1,90,2|2,0:0|3:2,0:0:0:0:
284,180,65604,1,0,3:2:0:0:
216,384,65762,6,0,L|206:295,1,90,14|0,0:0|0:0,0:0:0:0:
284,68,66078,1,2,3:2:0:0:
352,316,66236,2,0,P|395:328|439:318,1,90,2|8,0:0|0:0,0:0:0:0:
380,52,66551,1,0,0:0:0:0:
272,256,66709,1,2,3:2:0:0:
452,112,66867,1,0,3:2:0:0:
368,332,67025,1,10,0:0:0:0:
292,88,67183,1,0,3:2:0:0:
204,340,67341,6,0,B|140:380|140:380|32:344,1,180,6|8,3:2|0:0,0:0:0:0:
168,136,67815,2,0,L|158:225,1,90,2|2,0:0|3:2,0:0:0:0:
292,384,68130,1,0,3:2:0:0:
360,156,68288,2,0,P|317:144|273:154,1,90,14|0,0:0|0:0,0:0:0:0:
116,336,68604,5,0,3:2:0:0:
316,244,68762,1,2,0:0:0:0:
100,352,68920,2,0,P|57:364|13:354,1,90,8|2,0:0|0:0,0:0:0:0:
104,116,69236,1,0,3:2:0:0:
216,340,69394,1,0,3:2:0:0:
216,340,69472,1,0,3:2:0:0:
216,340,69551,1,10,3:2:0:0:
280,108,69709,1,2,3:2:0:0:
56,220,69867,6,0,B|156:192|136:268|228:236,1,180,6|8,3:2|0:0,0:0:0:0:
325,34,70341,2,0,P|293:65|279:108,1,90,2|0,0:0|3:2,0:0:0:0:
344,304,70657,1,2,3:2:0:0:
472,104,70815,6,0,L|383:114,1,90,14|0,0:0|0:0,0:0:0:0:
176,212,71130,2,0,L|265:222,1,90,0|2,3:2|0:0,0:0:0:0:
472,320,71446,2,0,L|383:330,1,90,10|0,0:0|0:0,0:0:0:0:
104,260,71762,1,2,3:2:0:0:
320,152,71920,1,0,3:2:0:0:
216,376,72078,1,10,0:0:0:0:
116,148,72236,1,0,3:2:0:0:
348,316,72394,6,0,P|391:328|435:318,1,90,6|0,3:2|3:2,0:0:0:0:
388,72,72709,1,8,0:0:0:0:
252,268,72867,2,0,P|209:280|165:270,1,90,2|2,3:2|3:2,0:0:0:0:
224,16,73182,1,0,3:2:0:0:
358,226,73341,6,0,L|348:315,1,90,14|0,0:0|3:2,0:0:0:0:
240,32,73657,1,0,3:2:0:0:
165,270,73815,2,0,L|175:359,1,90,2|8,3:2|0:0,0:0:0:0:
304,120,74130,1,0,3:2:0:0:
72,208,74288,1,2,3:2:0:0:
296,308,74446,1,0,3:2:0:0:
116,120,74604,2,0,P|73:108|29:118,1,90,10|0,0:0|3:2,0:0:0:0:
184,360,74920,5,2,3:2:0:0:
264,128,75078,1,0,3:2:0:0:
116,300,75236,1,10,0:0:0:0:
68,56,75394,1,0,3:2:0:0:
204,268,75551,1,2,3:2:0:0:
280,20,75709,1,2,3:2:0:0:
52,160,75867,1,8,0:0:0:0:
52,160,75946,1,8,0:0:0:0:
52,160,76025,2,0,L|99:165,1,45,8|8,0:0|0:0,0:0:0:0:
328,228,76183,5,2,3:2:0:0:
328,228,79025,6,0,P|368:236|412:224,1,80.9999975280763,14|2,3:2|3:2,0:0:0:0:
284,12,79341,2,0,P|244:4|200:16,1,80.9999975280763,10|0,0:0|0:0,0:0:0:0:
76,232,79656,1,2,3:2:0:0:
248,104,79814,1,0,3:2:0:0:
152,304,79972,1,10,0:0:0:0:
90,93,80130,6,0,B|46:133|46:133|78:241,1,161.999995056153,6|2,3:2|3:2,0:0:0:0:
248,344,80603,2,0,L|257:263,1,80.9999975280763,10|0,0:0|0:0,0:0:0:0:
352,56,80919,1,2,3:2:0:0:
180,200,81077,1,0,3:2:0:0:
264,16,81235,1,10,0:0:0:0:
352,232,81393,6,0,P|420:248|452:160,1,161.999995056153,6|2,3:2|3:2,0:0:0:0:
372,0,81867,2,0,L|362:80,1,80.9999975280763,10|0,0:0|3:2,0:0:0:0:
360,124,82103,1,0,0:0:0:0:
360,124,82182,1,2,3:2:0:0:
288,316,82340,1,0,3:2:0:0:
224,120,82498,1,10,0:0:0:0:
148,324,82656,6,0,B|96:348|44:320|44:320|76:320|112:296,1,161.999995056153,6|0,3:2|3:2,0:0:0:0:
288,184,83130,1,10,0:0:0:0:
84,120,83288,1,0,3:2:0:0:
84,120,83367,1,0,0:0:0:0:
84,120,83446,1,2,3:2:0:0:
248,276,83603,1,0,3:2:0:0:
224,40,83761,1,10,0:0:0:0:
72,216,83919,1,2,0:0:0:0:
56,200,84235,6,0,L|47:132,2,67.5000025749208,2|2|0,0:0|0:0|0:0,0:0:0:0:
148,280,84709,2,0,L|139:347,1,67.5000025749208,2|0,0:0|0:0,0:0:0:0:
316,280,85025,1,14,3:2:0:0:
156,176,85182,5,6,3:2:0:0:
256,192,85261,12,0,87077,0:0:0:0:
