osu file format v14

[General]
AudioFilename: audio.mp3
AudioLeadIn: 0
PreviewTime: 53631
Countdown: 0
SampleSet: Soft
StackLeniency: 0.4
Mode: 0
LetterboxInBreaks: 0
WidescreenStoryboard: 1

[Editor]
DistanceSpacing: 1.8
BeatDivisor: 4
GridSize: 4
TimelineZoom: 1.8

[Metadata]
Title:ROUGH DIAMONDS
TitleUnicode:「ROUGH DIAMONDS」
Artist:SCREEN mode
ArtistUnicode:SCREEN mode
Creator:Ohwow
Version:Shira's Light Insane
Source:食戟のソーマ 弍ノ皿
Tags:Shokugeki no Soma: Ni no Sara food wars tv size opening 3 season 2 太田 雅友 Oota Masatomo 松井 洋平 Matsui Youhei Akitoshi Corinn Kyle Y Shiratoi Neoskylove
BeatmapID:1142295
BeatmapSetID:478294

[Difficulty]
HPDrainRate:6
CircleSize:4
OverallDifficulty:6
ApproachRate:9
SliderMultiplier:1.5
SliderTickRate:1

[Events]
//Background and Video events
0,0,"background.png",0,0
Video,0,"video.avi"
//Break Periods
//Storyboard Layer 0 (Background)
//Storyboard Layer 1 (Fail)
//Storyboard Layer 2 (Pass)
//Storyboard Layer 3 (Foreground)
//Storyboard Sound Samples

[TimingPoints]
26,315.789473684211,4,2,1,70,1,0
973,-100,4,3,1,70,0,0
1289,-111.111111111111,4,3,1,70,0,0
3815,-111.111111111111,4,2,1,70,0,0
13920,-125,4,2,1,50,0,0
18815,-125,4,2,1,60,0,0
23078,-125,4,2,1,50,0,0
28920,-125,4,2,1,60,0,0
33183,-125,4,2,1,50,0,0
34131,-142.857142857143,4,2,1,60,0,0
41868,-142.857142857143,4,2,1,55,0,0
44236,-125,4,2,1,60,0,0
49289,-111.111111111111,4,2,1,60,0,0
53078,-166.666666666667,4,2,1,60,0,0
54341,-100,4,2,1,70,0,1
75815,-142.857142857143,4,2,1,30,0,0
78657,315.789473684211,4,2,1,70,1,0
78657,-125,4,2,1,70,0,0
83393,-142.857142857143,4,2,1,70,0,0
86551,-142.857142857143,4,2,1,5,0,0

[Colours]
Combo1 : 255,130,4
Combo2 : 255,70,70
Combo3 : 255,223,0
Combo4 : 157,0,4

[HitObjects]
234,91,973,6,0,L|235:140,3,37.5,8|8|4|4,0:0|0:3|0:3|0:3,0:0:0:0:
266,165,1289,6,0,B|330:146|330:146|403:168,1,134.999995880127,4|0,1:2|0:0,0:0:0:0:
389,265,1762,2,0,B|332:283|332:283|256:259,1,134.999995880127,4|0,1:2|0:0,0:0:0:0:
138,173,2236,2,0,P|181:216|171:293,1,134.999995880127,4|0,1:2|0:0,0:0:0:0:
54,209,2710,2,0,L|57:128,1,67.4999979400635,0|0,1:0|1:0,0:0:0:0:
123,72,3026,1,0,1:0:0:0:
138,173,3183,2,0,L|194:179,3,33.7499989700318,4|4|0|0,1:2|0:0|1:0|1:0,0:0:0:0:
249,91,3499,2,0,L|213:95,3,33.7499989700318,0|0|0|0,1:0|1:0|1:0|1:0,0:0:0:0:
332,25,3815,6,0,L|328:160,1,134.999995880127,4|8,3:2|0:0,0:0:0:0:
380,238,4289,1,0,0:0:0:0:
436,154,4447,2,0,P|473:160|522:151,2,67.4999979400635,0|0|8,3:0|0:0|0:0,0:0:0:0:
380,238,4920,6,0,P|313:227|230:243,1,134.999995880127,0|0,0:0|0:0,0:0:0:0:
157,278,5394,2,0,P|163:221|157:194,1,67.4999979400635,8|0,0:0|0:0,0:0:0:0:
116,127,5710,2,0,P|147:127|187:119,2,67.4999979400635,0|0|8,3:0|0:0|0:0,0:0:0:0:
50,59,6183,6,0,P|23:119|47:190,1,134.999995880127,0|0,0:0|0:0,0:0:0:0:
69,263,6657,2,0,L|-9:271,1,67.4999979400635,8|0,0:0|0:0,0:0:0:0:
89,359,6973,2,0,L|156:366,2,67.4999979400635,0|0|8,3:0|0:0|0:0,0:0:0:0:
163,277,7447,6,0,L|301:293,1,134.999995880127,0|0,0:0|0:0,0:0:0:0:
386,330,7920,2,0,P|383:282|388:249,1,67.4999979400635,8|0,0:0|0:0,0:0:0:0:
382,173,8236,2,0,P|334:176|299:173,2,67.4999979400635,0|0|8,3:0|3:0|0:0,0:0:0:0:
464,113,8710,1,0,3:0:0:0:
232,121,9026,6,0,L|232:204,1,67.4999979400635,0|8,0:0|0:0,0:0:0:0:
178,262,9341,1,0,0:0:0:0:
102,128,9499,2,0,P|154:140|234:119,1,134.999995880127,0|8,3:0|0:0,0:0:0:0:
325,28,9973,6,0,P|313:80|333:159,1,134.999995880127,0|0,0:0|0:0,0:0:0:0:
423,143,10447,2,0,P|460:134|507:139,1,67.4999979400635,8|0,0:0|0:0,0:0:0:0:
342,248,10762,2,0,P|311:256|274:258,2,67.4999979400635,0|0|8,3:0|0:0|0:0,0:0:0:0:
431,277,11236,6,0,L|422:130,1,134.999995880127,0|0,0:0|0:0,0:0:0:0:
424,47,11710,2,0,P|377:51|340:42,1,67.4999979400635,8|0,0:0|0:0,0:0:0:0:
266,41,12026,2,0,P|270:88|262:125,2,67.4999979400635,0|0|8,3:0|0:0|0:0,0:0:0:0:
167,106,12499,6,0,L|29:104,1,134.999995880127,0|0,0:0|0:0,0:0:0:0:
98,195,12973,1,8,0:0:0:0:
108,14,13131,1,8,0:0:0:0:
232,258,13447,2,0,L|180:253,5,33.7499989700318,8|8|8|8|4|4,0:3|0:3|0:3|0:3|0:3|0:3,0:0:0:0:
313,297,13920,5,4,3:2:0:0:
313,297,14236,2,0,P|374:290|441:298,2,120,0|0|0,3:0|3:0|3:0,0:0:0:0:
353,207,15026,2,0,P|360:160|357:125,1,60,0|0,0:0|3:0,0:0:0:0:
264,64,15341,2,0,P|258:91|258:125,1,60,0|0,0:0|3:0,0:0:0:0:
371,55,15657,2,0,P|422:72|497:61,1,120,0|0,0:0|0:0,0:0:0:0:
487,161,16131,1,0,3:0:0:0:
264,64,16447,5,4,3:2:0:0:
264,64,16762,2,0,L|140:62,2,120,0|0|0,3:0|3:0|3:0,0:0:0:0:
211,156,17552,2,0,P|207:191|211:240,1,60,0|0,0:0|3:0,0:0:0:0:
342,270,17868,2,0,P|314:268|282:274,1,60,0|0,0:0|3:0,0:0:0:0:
187,307,18183,1,0,0:0:0:0:
70,250,18341,2,0,L|76:209,5,30,0|0|0|0|4|0,3:0|3:0|3:0|0:0|0:3|0:0,0:0:0:0:
75,298,18815,6,0,P|142:321|191:304,1,120,4|0,3:2|3:0,0:0:0:0:
286,272,19289,2,0,L|284:349,1,60,8|0,0:0|0:0,0:0:0:0:
405,264,19604,2,0,L|401:203,1,60,0|0,3:0|3:0,0:0:0:0:
337,118,19920,1,8,0:0:0:0:
286,272,20078,6,0,L|416:264,1,120,4|0,3:2|3:0,0:0:0:0:
432,132,20552,2,0,P|430:90|419:63,1,60,8|0,0:0|0:0,0:0:0:0:
348,14,20868,1,0,3:0:0:0:
337,118,21026,2,0,L|265:111,1,60,0|8,3:0|0:0,0:0:0:0:
164,189,21341,6,0,L|285:201,1,120,4|0,3:2|3:0,0:0:0:0:
384,275,21815,2,0,P|387:231|384:201,1,60,8|0,0:0|0:0,0:0:0:0:
337,118,22131,1,0,3:0:0:0:
164,189,22289,2,0,L|153:273,1,60,0|8,3:0|0:0,0:0:0:0:
108,88,22604,6,0,P|163:109|220:85,1,120,4|0,3:2|3:0,0:0:0:0:
90,5,23078,2,0,L|26:21,1,60,8|0,0:0|0:0,0:0:0:0:
238,10,23394,2,0,L|302:26,1,60,0|0,3:0|3:0,0:0:0:0:
108,88,23710,2,0,L|100:137,3,30,8|8|4|8,0:0|0:0|0:3|0:0,0:0:0:0:
99,203,24026,5,4,3:2:0:0:
99,203,24341,2,0,P|167:199|223:210,2,120,0|0|0,3:0|3:0|3:0,0:0:0:0:
93,293,25131,2,0,P|103:334|101:369,1,60,0|0,0:0|3:0,0:0:0:0:
217,208,25447,2,0,P|218:178|227:149,1,60,0|0,0:0|3:0,0:0:0:0:
315,292,25762,2,0,L|173:311,1,120,0|0,0:0|0:0,0:0:0:0:
93,293,26236,1,0,3:0:0:0:
338,173,26552,5,4,3:2:0:0:
338,173,26868,2,0,P|327:102|340:34,2,120,0|0|0,3:0|3:0|3:0,0:0:0:0:
424,224,27657,2,0,L|432:287,1,60,0|0,0:0|3:0,0:0:0:0:
315,292,27973,2,0,L|307:355,1,60,0|0,0:0|3:0,0:0:0:0:
433,375,28289,1,0,0:0:0:0:
508,243,28447,2,0,L|510:213,5,30,0|0|8|2|2|2,3:0|0:0|0:0|0:0|0:0|0:0,0:0:0:0:
501,170,28920,6,0,P|435:130|376:141,1,120,4|0,3:2|3:0,0:0:0:0:
284,59,29394,2,0,P|290:97|290:129,1,60,8|0,0:0|0:0,0:0:0:0:
116,170,29710,2,0,P|154:164|186:164,1,60,0|0,3:0|3:0,0:0:0:0:
254,219,30026,1,8,0:0:0:0:
130,289,30183,6,0,L|114:162,1,120,4|0,3:2|3:0,0:0:0:0:
12,131,30657,2,0,L|19:190,1,60,8|0,0:0|0:0,0:0:0:0:
130,289,30973,1,0,3:0:0:0:
254,219,31131,2,0,P|310:217|337:211,1,60,0|8,3:0|0:0,0:0:0:0:
115,169,31447,6,0,P|64:129|10:132,1,120,4|0,3:2|3:0,0:0:0:0:
130,289,31920,2,0,L|200:285,1,60,8|0,0:0|0:0,0:0:0:0:
254,219,32236,1,0,3:0:0:0:
166,366,32394,2,0,L|236:362,1,60,0|8,3:0|0:0,0:0:0:0:
317,157,32710,6,0,P|338:217|314:288,1,120,4|0,3:2|3:0,0:0:0:0:
228,141,33183,2,0,L|185:132,3,30,8|0|0|0,0:0|0:0|0:0|0:0,0:0:0:0:
317,157,33499,2,0,L|360:148,3,30,0|0|0|0,3:0|0:0|3:0|0:0,0:0:0:0:
286,65,33815,2,0,L|243:56,3,30,8|8|8|8,0:0|0:0|0:0|0:0,0:0:0:0:
429,93,34131,6,0,L|430:209,1,104.999996795654,4|8,3:2|0:0,0:0:0:0:
317,157,34604,1,8,0:0:0:0:
286,65,34762,2,0,P|253:69|215:65,2,52.4999983978272,0|0|8,3:0|3:0|0:0,0:0:0:0:
317,157,35236,6,0,L|317:224,1,52.4999983978272,0|0,3:0|0:0,0:0:0:0:
196,241,35552,2,0,L|196:188,1,52.4999983978272,0|8,3:0|0:0,0:0:0:0:
242,313,35868,2,0,P|189:327|138:303,1,104.999996795654,8|0,0:0|3:0,0:0:0:0:
44,289,36341,2,0,P|62:240|54:196,1,78.7499975967408,8|0,0:0|0:0,0:0:0:0:
49,165,36657,6,0,L|123:171,1,52.4999983978272,0|0,3:0|3:0,0:0:0:0:
185,61,36973,2,0,L|111:67,1,52.4999983978272,8|8,0:0|0:0,0:0:0:0:
227,154,37289,2,0,P|221:196|226:228,2,52.4999983978272,0|0|8,3:0|3:0|0:0,0:0:0:0:
322,112,37762,6,0,P|371:123|419:113,1,78.7499975967408,0|0,3:0|0:0,0:0:0:0:
450,105,38078,2,0,L|448:160,1,52.4999983978272,0|8,3:0|0:0,0:0:0:0:
400,262,38394,2,0,P|443:260|475:267,1,52.4999983978272,8|0,0:0|0:0,0:0:0:0:
508,347,38710,1,0,3:0:0:0:
400,262,38868,1,8,0:0:0:0:
306,357,39026,1,8,0:0:0:0:
320,112,39183,6,0,L|325:205,1,78.7499975967408,4|0,3:2|0:0,0:0:0:0:
284,227,39499,2,0,P|240:219|211:220,1,52.4999983978272,8|8,0:0|0:0,0:0:0:0:
123,282,39815,2,0,P|120:255|114:230,1,52.4999983978272,0|0,3:0|3:0,0:0:0:0:
61,152,40131,1,8,0:0:0:0:
46,302,40289,6,0,L|129:280,1,78.7499975967408,0|0,3:0|0:0,0:0:0:0:
165,292,40604,2,0,P|164:320|169:349,1,52.4999983978272,0|8,3:0|0:0,0:0:0:0:
324,190,40920,2,0,P|254:177|209:178,1,104.999996795654,8|0,0:0|3:0,0:0:0:0:
61,152,41394,2,0,P|103:140|126:128,1,52.4999983978272,8|0,0:0|0:0,0:0:0:0:
320,85,41710,6,0,L|324:204,1,104.999996795654,0|8,3:0|0:0,0:0:0:0:
413,140,42183,1,8,0:0:0:0:
248,170,42341,2,0,L|250:241,2,52.4999983978272,0|0|8,3:0|3:0|0:0,0:0:0:0:
454,72,42815,6,0,P|487:111|490:160,1,78.7499975967408,0|0,3:0|0:0,0:0:0:0:
460,179,43131,2,0,L|525:176,1,52.4999983978272,0|8,3:0|0:0,0:0:0:0:
412,257,43447,2,0,P|377:218|371:166,1,104.999996795654,0|0,0:0|3:0,0:0:0:0:
270,230,43920,2,0,L|224:221,3,26.2499991989136,8|8|0|0,0:0|0:0|3:0|0:0,0:0:0:0:
217,238,44236,6,0,L|247:111,1,120,12|0,0:0|3:0,0:0:0:0:
136,35,44710,2,0,L|108:151,1,120,8|0,0:0|3:0,0:0:0:0:
244,121,45183,2,0,P|292:137|374:115,1,120,8|0,0:0|3:0,0:0:0:0:
358,16,45657,2,0,P|310:0|228:22,1,120,8|0,0:0|3:0,0:0:0:0:
136,35,46131,2,0,L|66:8,1,60,8|0,0:0|3:0,0:0:0:0:
188,143,46447,2,0,L|243:121,1,60,8|0,0:0|3:0,0:0:0:0:
358,16,46762,6,0,B|346:80|346:80|364:151,1,120,12|0,0:0|3:0,0:0:0:0:
474,168,47236,2,0,B|486:232|486:232|468:303,1,120,8|0,0:0|3:0,0:0:0:0:
359,133,47710,2,0,L|488:173,1,120,8|0,0:0|3:0,0:0:0:0:
364,254,48183,2,0,L|245:260,1,120,8|0,0:0|3:0,0:0:0:0:
163,199,48657,2,0,P|162:154|153:119,1,60,8|0,0:0|3:0,0:0:0:0:
101,295,48973,2,0,P|102:340|111:375,1,60,8|0,0:0|3:0,0:0:0:0:
250,174,49289,6,0,L|316:127,1,67.4999979400635,12|0,0:0|3:0,0:0:0:0:
73,208,49604,2,0,L|7:161,1,67.4999979400635,8|0,0:0|3:0,0:0:0:0:
235,64,49920,2,0,L|301:17,1,67.4999979400635,8|0,0:0|3:0,0:0:0:0:
60,98,50236,2,0,L|-6:51,1,67.4999979400635,8|0,0:0|3:0,0:0:0:0:
136,3,50552,5,8,0:0:0:0:
250,174,50710,1,0,3:0:0:0:
60,98,50868,1,8,0:0:0:0:
167,233,51026,1,0,3:0:0:0:
234,63,51183,1,8,0:0:0:0:
73,208,51341,2,0,L|64:281,1,67.4999979400635,0|8,3:0|0:0,0:0:0:0:
344,57,51657,6,0,P|308:29|235:63,1,134.999995880127,4|0,3:2|0:0,0:0:0:0:
250,174,52131,1,8,0:0:0:0:
404,132,52289,1,0,0:0:0:0:
228,163,52447,1,0,3:0:0:0:
418,226,52604,1,0,3:0:0:0:
206,154,52762,1,8,0:0:0:0:
358,300,52920,1,0,3:0:0:0:
344,57,53078,5,2,3:2:0:0:
270,278,53236,1,2,3:2:0:0:
234,63,53394,1,2,3:2:0:0:
270,278,53710,6,0,L|212:279,1,44.999998626709,0|0,0:0|0:0,0:0:0:0:
145,357,54026,2,0,L|203:358,1,44.999998626709,0|0,0:0|0:0,0:0:0:0:
136,125,54341,6,0,P|119:193|141:285,1,150,4|8,3:2|0:0,0:0:0:0:
270,278,54815,2,0,P|284:205|267:132,1,150,0|0,0:0|3:0,0:0:0:0:
136,125,55289,2,0,P|92:129|44:118,1,75,12|0,0:0|0:0,0:0:0:0:
105,50,55604,5,0,3:0:0:0:
170,198,55762,2,0,P|89:207|3:187,1,150,0|0,0:0|0:0,0:0:0:0:
222,126,56236,2,0,L|263:192,1,75,0|0,3:0|3:0,0:0:0:0:
347,78,56552,2,0,L|307:14,1,75,8|0,0:0|0:0,0:0:0:0:
226,258,56868,6,0,P|298:261|342:193,1,150,4|8,3:2|0:0,0:0:0:0:
457,149,57341,2,0,P|413:206|341:203,1,150,0|0,0:0|3:0,0:0:0:0:
252,122,57815,6,0,P|242:85|313:113,1,150,12|0,0:0|3:0,0:0:0:0:
340,202,58289,2,0,P|347:240|343:280,1,75,0|8,3:0|0:0,0:0:0:0:
258,338,58604,1,0,0:0:0:0:
120,277,58762,2,0,B|163:240|163:240|222:260|263:230,1,150,0|8,3:0|0:0,0:0:0:0:
340,202,59236,1,0,3:0:0:0:
274,57,59394,6,0,B|206:88|206:88|206:191,1,150,4|8,3:2|0:0,0:0:0:0:
273,271,59868,2,0,B|205:239|205:239|205:136,1,150,0|0,0:0|3:0,0:0:0:0:
315,55,60341,2,0,B|415:160|415:160|305:278,1,300,12|8,0:0|0:0,0:0:0:0:
116,56,61289,2,0,P|166:60|204:50,1,75,0|0,3:0|3:0,0:0:0:0:
84,145,61604,2,0,P|34:141|-4:151,1,75,8|0,0:0|0:0,0:0:0:0:
184,198,61920,6,0,P|205:133|187:49,1,150,4|8,3:2|0:0,0:0:0:0:
84,145,62394,2,0,P|68:217|89:288,1,150,0|0,3:0|3:0,0:0:0:0:
184,198,62868,2,0,L|349:201,1,150,12|0,0:0|3:0,0:0:0:0:
296,293,63341,2,0,L|221:291,1,75,0|8,3:0|0:0,0:0:0:0:
184,198,63657,2,0,L|184:151,1,37.5,0|0,3:0|0:0,0:0:0:0:
86,174,63815,2,0,L|42:173,3,37.5,0|0|0|0,3:0|0:0|3:0|0:0,0:0:0:0:
61,200,64131,2,0,L|17:199,3,37.5,8|8|8|8,0:0|0:0|0:0|0:0,0:0:0:0:
39,237,64447,6,0,L|72:395,1,150,4|8,3:2|0:0,0:0:0:0:
266,173,64920,2,0,P|236:101|161:88,1,150,0|0,0:0|3:0,0:0:0:0:
360,256,65394,2,0,P|335:188|265:172,1,150,12|0,0:0|3:0,0:0:0:0:
297,336,65868,2,0,B|378:352|378:352|444:308,1,150,0|0,0:0|0:0,0:0:0:0:
458,186,66341,1,0,3:0:0:0:
512,353,66499,1,0,3:0:0:0:
360,256,66657,1,8,0:0:0:0:
512,259,66815,1,0,3:0:0:0:
297,336,66973,6,0,P|262:283|284:186,1,150,4|8,3:2|0:0,0:0:0:0:
434,50,67447,2,0,P|469:103|447:200,1,150,0|0,0:0|3:0,0:0:0:0:
234,94,67920,2,0,L|384:127,1,150,12|0,0:0|3:0,0:0:0:0:
337,18,68394,1,0,3:0:0:0:
234,94,68552,2,0,P|239:142|229:186,1,75,8|0,0:0|0:0,0:0:0:0:
126,207,68868,2,0,P|116:132|126:58,1,150,0|8,3:0|0:0,0:0:0:0:
234,94,69341,1,0,3:0:0:0:
49,209,69499,6,0,P|39:134|49:60,1,150,4|8,3:2|0:0,0:0:0:0:
234,94,69973,2,0,L|316:91,1,75,0|0,0:0|3:0,0:0:0:0:
389,163,70289,1,0,3:0:0:0:
275,258,70447,6,0,P|237:249|295:199,1,150,12|0,0:0|3:0,0:0:0:0:
389,163,70920,1,0,3:0:0:0:
380,271,71078,2,0,P|379:317|385:361,1,75,8|0,0:0|0:0,0:0:0:0:
275,258,71394,2,0,P|229:259|185:253,1,75,0|0,3:0|3:0,0:0:0:0:
389,163,71710,1,8,0:0:0:0:
380,271,71868,1,0,3:0:0:0:
334,100,72026,6,0,P|402:81|470:148,1,150,4|8,3:2|0:0,0:0:0:0:
264,167,72499,2,0,B|241:122|241:122|253:66|253:66|238:1,1,150,0|0,3:0|3:0,0:0:0:0:
130,33,72973,2,0,B|139:74|139:74|127:130|127:130|150:175,1,150,12|0,0:0|3:0,0:0:0:0:
264,167,73447,1,0,3:0:0:0:
228,258,73604,6,0,L|146:264,1,75,8|0,0:0|3:0,0:0:0:0:
44,341,73920,2,0,L|126:347,1,75,0|0,3:0|3:0,0:0:0:0:
242,330,74236,2,0,P|227:280|232:233,1,75,8|0,0:0|3:0,0:0:0:0:
328,115,74552,6,0,P|340:150|342:187,1,75,0|0,3:0|3:0,0:0:0:0:
242,330,74868,2,0,P|277:317|314:315,1,75,8|0,0:0|3:0,0:0:0:0:
414,267,75183,1,0,3:0:0:0:
341,187,75341,1,0,3:0:0:0:
242,330,75499,2,0,L|242:367,3,37.5,8|8|8|0,0:0|0:0|0:0|0:0,0:0:0:0:
233,218,75815,5,0,0:0:0:0:
207,74,78657,6,0,P|158:88|124:86,1,60,4|0,3:2|3:0,0:0:0:0:
293,126,78973,2,0,P|342:112|376:114,1,60,8|0,0:0|0:0,0:0:0:0:
209,189,79289,2,0,P|195:116|220:51,1,120,0|8,3:0|0:0,0:0:0:0:
293,126,79762,6,0,P|305:184|290:241,1,120,4|0,3:2|3:0,0:0:0:0:
162,296,80236,2,0,L|239:304,1,60,8|0,0:0|3:0,0:0:0:0:
209,189,80552,2,0,L|132:197,2,60,0|0|8,3:0|3:0|0:0,0:0:0:0:
250,381,81026,6,0,L|130:368,1,120,4|0,3:2|3:0,0:0:0:0:
65,290,81499,2,0,P|73:254|70:213,1,60,8|0,0:0|3:0,0:0:0:0:
72,137,81815,2,0,P|108:145|149:142,2,60,0|0|8,3:0|3:0|0:0,0:0:0:0:
187,78,82289,6,0,P|212:114|201:196,1,120,4|0,3:2|3:0,0:0:0:0:
308,168,82762,2,0,L|394:171,1,60,8|0,0:0|3:0,0:0:0:0:
445,262,83078,2,0,L|385:264,2,60,0|0|8,3:0|3:0|0:0,0:0:0:0:
512,190,83552,1,0,0:0:0:0:
512,190,83828,6,0,P|506:144|510:117,1,65.624997997284
477,35,84183,1,0,0:0:0:0:
383,48,84341,2,0,P|337:54|310:50,1,52.4999983978272,0|0,0:0|0:0,0:0:0:0:
239,28,84657,5,0,3:0:0:0:
317,152,84815,1,4,3:2:0:0:
256,192,84894,12,0,86552,0:0:0:0:
