osu file format v14

[General]
AudioFilename: audio.mp3
AudioLeadIn: 0
PreviewTime: 53631
Countdown: 0
SampleSet: Soft
StackLeniency: 0.3
Mode: 0
LetterboxInBreaks: 0
WidescreenStoryboard: 0

[Editor]
Bookmarks: 13920,18815,24026,28920,34131,44236,78657
DistanceSpacing: 0.4
BeatDivisor: 4
GridSize: 16
TimelineZoom: 2.1

[Metadata]
Title:ROUGH DIAMONDS
TitleUnicode:「ROUGH DIAMONDS」
Artist:SCREEN mode
ArtistUnicode:SCREEN mode
Creator:Ohwow
Version:STRIP!!!!!
Source:食戟のソーマ 弍ノ皿
Tags:Shokugeki no Soma: Ni no Sara food wars tv size opening 3 season 2 太田 雅友 Oota Masatomo 松井 洋平 Matsui Youhei Akitoshi Corinn Kyle Y Shiratoi Neoskylove
BeatmapID:1026077
BeatmapSetID:478294

[Difficulty]
HPDrainRate:6.5
CircleSize:4.2
OverallDifficulty:9
ApproachRate:9.3
SliderMultiplier:1.8
SliderTickRate:1

[Events]
//Background and Video events
0,0,"background.png",0,0
Video,-360,"video.avi"
//Break Periods
2,76015,78103
//Storyboard Layer 0 (Background)
//Storyboard Layer 1 (Fail)
//Storyboard Layer 2 (Pass)
//Storyboard Layer 3 (Foreground)
//Storyboard Sound Samples

[TimingPoints]
26,315.789473684211,4,2,1,70,1,0
1289,-83.3333333333333,4,2,1,70,0,0
3815,-100,4,2,1,70,0,0
13368,-100,4,2,1,5,0,0
13447,-100,4,2,1,70,0,0
18815,-90.9090909090909,4,2,1,70,0,0
24026,-100,4,2,1,70,0,0
28920,-90.9090909090909,4,2,1,70,0,0
49289,-100,4,2,1,70,0,0
54341,-83.3333333333333,4,2,1,80,0,1
75815,-83.3333333333333,4,2,1,70,0,0
78657,315.789473684211,4,2,1,70,1,0
78657,-83.3333333333333,4,2,1,70,0,0
83867,-100,4,2,1,70,0,0
86551,-100,4,2,1,5,0,0

[Colours]
Combo1 : 255,130,4
Combo2 : 255,70,70
Combo3 : 255,223,0
Combo4 : 157,0,4

[HitObjects]
8,149,973,5,8,0:0:0:0:
13,176,1052,1,8,0:3:0:0:
18,203,1131,1,4,0:3:0:0:
23,230,1210,1,4,0:3:0:0:
27,256,1289,6,0,P|79:246|133:244,1,107.999996704102,4|0,1:2|0:0,0:0:0:0:
394,329,1762,6,0,P|341:318|287:316,1,107.999996704102,4|0,1:2|0:0,0:0:0:0:
2,236,2236,6,0,P|54:225|108:223,1,107.999996704102,4|0,1:2|0:0,0:0:0:0:
245,82,2710,6,0,P|218:83|191:89,1,53.9999983520508,0|0,1:0|0:0,0:0:0:0:
89,273,2868,2,0,P|101:249|109:223,1,53.9999983520508,0|0,1:0|0:0,0:0:0:0:
2,42,3026,2,0,P|16:64|35:84,1,53.9999983520508,0|0,1:0|0:0,0:0:0:0:
323,68,3183,5,4,1:2:0:0:
229,192,3341,1,0,1:0:0:0:
213,214,3420,1,0,1:0:0:0:
196,234,3499,5,0,1:0:0:0:
249,223,3578,1,0,1:0:0:0:
301,235,3657,1,0,1:0:0:0:
342,269,3736,1,0,1:0:0:0:
365,316,3815,6,0,P|408:306|453:301,1,90,4|0,3:2|0:0,0:0:0:0:
298,118,4131,2,0,P|253:113|209:102,1,90,8|0,0:0|0:0,0:0:0:0:
35,246,4447,1,0,3:0:0:0:
229,192,4604,1,0,0:0:0:0:
172,365,4762,1,8,0:0:0:0:
31,151,4920,2,0,P|74:160|108:189,1,90,0|0,0:0|3:0,0:0:0:0:
352,199,5236,5,0,0:0:0:0:
246,18,5394,2,0,L|239:107,1,90,8|0,0:0|0:0,0:0:0:0:
171,268,5710,1,0,3:0:0:0:
347,117,5868,1,0,0:0:0:0:
280,289,6026,1,8,0:0:0:0:
131,97,6183,1,0,0:0:0:0:
424,65,6341,5,4,3:2:0:0:
292,256,6499,1,0,0:0:0:0:
497,165,6657,2,0,P|452:156|407:157,1,90,8|0,0:0|0:0,0:0:0:0:
210,59,6973,1,0,3:0:0:0:
304,223,7131,1,0,0:0:0:0:
336,85,7289,1,8,0:0:0:0:
148,231,7447,2,0,P|103:231|58:223,1,90,0|0,0:0|3:0,0:0:0:0:
210,59,7762,5,0,0:0:0:0:
295,300,7920,2,0,P|339:300|384:292,1,90,8|0,0:0|0:0,0:0:0:0:
428,124,8236,1,0,3:0:0:0:
172,313,8394,1,0,3:0:0:0:
210,59,8552,1,8,0:0:0:0:
427,278,8710,1,0,3:0:0:0:
79,245,8868,6,0,P|60:295|57:345,1,90,4|0,3:2|0:0,0:0:0:0:
49,129,9183,2,0,P|93:125|137:134,1,90,8|0,0:0|0:0,0:0:0:0:
295,300,9499,1,0,3:0:0:0:
304,135,9657,1,0,0:0:0:0:
164,220,9815,1,8,0:0:0:0:
403,242,9973,2,0,P|447:246|491:237,1,90,0|0,0:0|3:0,0:0:0:0:
473,66,10289,5,0,0:0:0:0:
304,135,10447,2,0,L|201:121,1,90,8|0,0:0|0:0,0:0:0:0:
105,32,10762,1,0,3:0:0:0:
40,231,10920,1,0,0:0:0:0:
137,134,11078,1,8,0:0:0:0:
202,303,11236,1,0,0:0:0:0:
276,41,11394,5,4,3:2:0:0:
170,219,11552,1,0,0:0:0:0:
426,178,11710,2,0,P|381:174|337:182,1,90,8|0,0:0|0:0,0:0:0:0:
137,134,12026,1,0,3:0:0:0:
287,267,12183,1,0,0:0:0:0:
93,353,12341,1,8,0:0:0:0:
248,178,12499,2,0,P|292:174|336:182,1,90,0|0,0:0|3:0,0:0:0:0:
139,37,12815,5,0,0:0:0:0:
116,195,12973,1,8,0:0:0:0:
93,353,13131,2,0,L|257:347,1,135,8|0,0:0|0:0,0:0:0:0:
373,238,13447,5,8,0:3:0:0:
413,257,13526,1,8,0:3:0:0:
433,296,13604,1,8,0:3:0:0:
424,340,13683,1,8,0:3:0:0:
390,368,13762,1,4,0:3:0:0:
346,369,13841,1,4,0:3:0:0:
311,343,13920,6,0,L|302:249,1,90,4|0,3:2|0:0,0:0:0:0:
207,93,14236,2,0,L|198:182,1,90,0|0,3:0|0:0,0:0:0:0:
113,322,14552,1,0,3:0:0:0:
18,195,14710,2,0,L|127:187,1,90,0|0,0:0|3:0,0:0:0:0:
385,104,15026,6,0,L|276:96,1,90,0|0,0:0|3:0,0:0:0:0:
117,86,15341,2,0,L|206:92,1,90,0|0,0:0|3:0,0:0:0:0:
410,197,15657,2,0,P|332:188|268:268,1,180
172,344,16131,2,0,L|179:254,1,90,0|0,3:0|0:0,0:0:0:0:
205,72,16447,6,0,P|162:85|117:85,1,90,4|0,3:2|0:0,0:0:0:0:
13,200,16762,2,0,P|55:213|100:213,1,90,0|0,3:0|0:0,0:0:0:0:
296,155,17078,1,0,3:0:0:0:
228,347,17236,2,0,L|220:257,1,90,0|0,0:0|3:0,0:0:0:0:
395,67,17552,6,0,L|389:156,1,90,0|0,0:0|3:0,0:0:0:0:
375,335,17868,2,0,L|381:245,1,90,0|0,0:0|3:0,0:0:0:0:
206,162,18183,2,0,L|295:154,1,90,0|0,0:0|3:0,0:0:0:0:
282,136,18420,1,0,3:0:0:0:
268,117,18499,1,0,3:0:0:0:
133,259,18657,1,4,0:3:0:0:
20,49,18815,6,0,P|110:17|184:76,1,198.000006042481,4|0,3:2|3:0,0:0:0:0:
118,280,19289,2,0,P|165:266|214:262,1,99.0000030212403,8|0,0:0|0:0,0:0:0:0:
380,292,19604,1,0,3:0:0:0:
206,162,19762,1,0,3:0:0:0:
245,355,19920,1,8,0:0:0:0:
443,197,20078,6,0,P|328:172|289:241,1,198.000006042481,4|0,3:2|3:0,0:0:0:0:
84,161,20552,2,0,P|131:146|180:142,1,99.0000030212403,8|0,0:0|0:0,0:0:0:0:
12,279,20868,1,0,3:0:0:0:
26,79,21026,1,0,3:0:0:0:
142,243,21183,1,8,0:0:0:0:
297,46,21341,6,0,B|240:73|240:73|107:53,1,198.000006042481,4|0,3:2|3:0,0:0:0:0:
125,270,21815,2,0,B|222:255,1,99.0000030212403,8|0,0:0|0:0,0:0:0:0:
303,153,22131,1,0,3:0:0:0:
270,344,22289,1,0,3:0:0:0:
308,125,22447,1,8,0:0:0:0:
418,284,22604,6,0,B|222:255,1,198.000006042481,4|0,3:2|3:0,0:0:0:0:
102,111,23078,2,0,B|139:203,1,99.0000030212403,8|0,0:0|0:0,0:0:0:0:
68,371,23394,2,0,B|129:293,1,99.0000030212403,0|0,3:0|3:0,0:0:0:0:
346,275,23710,1,8,0:0:0:0:
313,270,23789,1,8,0:0:0:0:
279,265,23868,1,4,0:3:0:0:
246,260,23947,1,8,0:0:0:0:
212,256,24026,6,0,L|223:148,1,90,4|0,3:2|0:0,0:0:0:0:
316,6,24341,2,0,L|325:95,1,90,0|0,3:0|0:0,0:0:0:0:
392,244,24657,1,0,3:0:0:0:
505,108,24815,2,0,L|396:100,1,90,0|0,0:0|3:0,0:0:0:0:
212,256,25131,6,0,L|321:248,1,90,0|0,0:0|3:0,0:0:0:0:
482,238,25447,2,0,L|393:244,1,90,0|0,0:0|3:0,0:0:0:0:
207,101,25762,2,0,P|293:99|335:204,1,180
115,149,26236,2,0,L|107:40,1,90,0|0,3:0|0:0,0:0:0:0:
28,279,26552,6,0,P|69:262|116:258,1,90,4|0,3:2|0:0,0:0:0:0:
282,368,26868,2,0,P|240:351|194:347,1,90,0|0,3:0|0:0,0:0:0:0:
294,241,27183,1,0,3:0:0:0:
446,296,27341,2,0,L|439:206,1,90,0|0,0:0|3:0,0:0:0:0:
307,61,27657,6,0,L|300:150,1,90,0|0,0:0|3:0,0:0:0:0:
288,331,27973,2,0,L|294:242,1,90,0|0,0:0|3:0,0:0:0:0:
481,113,28289,2,0,L|391:119,1,90,0|0,0:0|3:0,0:0:0:0:
146,88,28604,1,8,0:0:0:0:
178,97,28683,1,8,0:0:0:0:
202,120,28762,1,8,0:0:0:0:
213,152,28841,1,8,0:0:0:0:
210,185,28920,6,0,P|111:191|15:214,1,198.000006042481,4|0,3:2|3:0,0:0:0:0:
162,10,29394,2,0,P|212:10|260:22,1,99.0000030212403,8|0,0:0|0:0,0:0:0:0:
396,207,29710,1,0,3:0:0:0:
210,185,29868,1,0,3:0:0:0:
368,56,30026,1,8,0:0:0:0:
486,262,30183,6,0,P|439:235|337:340,1,198.000006042481,4|0,3:2|3:0,0:0:0:0:
107,276,30657,2,0,P|156:275|204:263,1,99.0000030212403,8|0,0:0|0:0,0:0:0:0:
256,109,30973,1,0,3:0:0:0:
335,308,31131,1,0,3:0:0:0:
243,78,31289,1,8,0:0:0:0:
482,181,31447,6,0,B|422:206|422:206|289:192,1,198.000006042481,4|0,3:2|3:0,0:0:0:0:
376,1,31920,2,0,L|365:99,1,99.0000030212403,8|0,0:0|0:0,0:0:0:0:
498,271,32236,1,0,3:0:0:0:
466,91,32394,1,0,3:0:0:0:
340,274,32552,1,8,0:0:0:0:
205,44,32710,6,0,P|111:29|50:102,1,198.000006042481,4|0,3:2|3:0,0:0:0:0:
32,236,33183,1,8,0:0:0:0:
55,227,33262,1,0,0:0:0:0:
79,227,33341,1,0,0:0:0:0:
102,235,33420,1,0,0:0:0:0:
121,251,33499,1,0,3:0:0:0:
133,273,33578,1,0,0:0:0:0:
137,297,33657,1,0,3:0:0:0:
131,321,33736,1,0,0:0:0:0:
118,342,33815,5,8,0:0:0:0:
157,312,33894,1,8,0:0:0:0:
204,296,33973,1,8,0:0:0:0:
253,297,34052,1,8,0:0:0:0:
299,314,34131,5,4,3:2:0:0:
388,149,34289,1,0,3:0:0:0:
428,285,34447,1,8,0:0:0:0:
315,90,34604,1,8,0:0:0:0:
506,107,34762,1,0,3:0:0:0:
301,182,34920,2,0,P|256:162|227:122,1,99.0000030212403,0|8,3:0|0:0,0:0:0:0:
36,115,35236,6,0,L|134:120,1,99.0000030212403,0|0,3:0|0:0,0:0:0:0:
337,14,35552,2,0,L|239:9,1,99.0000030212403,0|8,3:0|0:0,0:0:0:0:
85,201,35868,2,0,P|179:204|227:123,1,198.000006042481,8|0,0:0|3:0,0:0:0:0:
381,230,36341,2,0,L|386:328,1,99.0000030212403,8|0,0:0|0:0,0:0:0:0:
320,135,36657,5,0,3:0:0:0:
493,224,36815,1,0,3:0:0:0:
277,319,36973,2,0,P|227:314|178:315,1,99.0000030212403,8|8,0:0|0:0,0:0:0:0:
43,228,37289,1,0,3:0:0:0:
138,22,37447,2,0,L|134:150,1,99.0000030212403,0|8,3:0|0:0,0:0:0:0:
178,315,37762,6,0,P|227:314|277:319,1,99.0000030212403,0|0,3:0|0:0,0:0:0:0:
493,224,38078,2,0,P|444:223|394:228,1,99.0000030212403,0|8,3:0|0:0,0:0:0:0:
226,121,38394,2,0,P|295:57|382:92,1,198.000006042481,8|0,0:0|3:0,0:0:0:0:
192,242,38868,1,8,0:0:0:0:
98,98,39026,2,0,P|95:122|88:146,1,49.5000015106202,8|8,0:0|0:0,0:0:0:0:
10,323,39183,6,0,P|59:311|113:308,1,99.0000030212403,4|0,3:2|3:0,0:0:0:0:
231,338,39499,1,8,0:0:0:0:
320,164,39657,1,8,0:0:0:0:
346,308,39815,1,0,3:0:0:0:
122,157,39973,2,0,L|220:160,1,99.0000030212403,0|8,3:0|0:0,0:0:0:0:
438,119,40289,6,0,P|416:163|406:211,1,99.0000030212403,0|0,3:0|0:0,0:0:0:0:
259,362,40604,2,0,P|248:313|227:269,1,99.0000030212403,0|8,3:0|0:0,0:0:0:0:
21,83,40920,2,0,P|54:145|169:105,1,198.000006042481,8|0,0:0|3:0,0:0:0:0:
316,19,41394,2,0,P|268:6|219:1,1,99.0000030212403,8|0,0:0|0:0,0:0:0:0:
87,180,41710,6,0,L|97:82,1,99.0000030212403,0|0,3:0|3:0,0:0:0:0:
210,205,42026,1,8,0:0:0:0:
16,232,42183,1,8,0:0:0:0:
100,56,42341,1,0,3:0:0:0:
158,282,42499,2,0,P|203:298|251:289,1,99.0000030212403,0|8,3:0|0:0,0:0:0:0:
347,124,42815,6,0,L|341:236,1,99.0000030212403,0|0,3:0|0:0,0:0:0:0:
186,20,43131,2,0,L|192:132,1,99.0000030212403,0|8,3:0|0:0,0:0:0:0:
463,133,43447,2,0,B|416:97|416:97|268:111,1,198.000006042481,0|0,0:0|3:0,0:0:0:0:
202,260,43920,1,8,0:0:0:0:
237,257,43999,1,8,0:0:0:0:
272,254,44078,1,0,3:0:0:0:
484,268,44236,6,0,L|468:170,1,99.0000030212403,12|0,0:0|3:0,0:0:0:0:
444,23,44552,1,0,3:0:0:0:
384,299,44710,6,0,L|368:201,1,99.0000030212403,8|0,0:0|3:0,0:0:0:0:
344,54,45026,1,0,3:0:0:0:
284,330,45183,6,0,L|268:232,1,99.0000030212403,8|0,0:0|3:0,0:0:0:0:
244,85,45499,1,0,3:0:0:0:
184,361,45657,6,0,L|168:263,1,99.0000030212403,8|0,0:0|3:0,0:0:0:0:
144,116,45973,1,0,3:0:0:0:
272,247,46131,5,8,0:0:0:0:
241,65,46289,1,0,3:0:0:0:
376,231,46447,5,8,0:0:0:0:
338,14,46604,1,0,3:0:0:0:
144,116,46762,5,12,0:0:0:0:
365,145,46920,1,0,3:0:0:0:
384,149,47078,1,0,3:0:0:0:
107,188,47236,5,8,0:0:0:0:
328,217,47394,1,0,3:0:0:0:
347,221,47552,1,0,3:0:0:0:
70,260,47710,5,8,0:0:0:0:
291,289,47868,1,0,3:0:0:0:
310,293,48026,1,0,3:0:0:0:
33,332,48183,5,8,0:0:0:0:
254,361,48341,1,0,3:0:0:0:
273,365,48499,1,0,3:0:0:0:
128,102,48657,5,8,0:0:0:0:
162,317,48815,1,0,3:0:0:0:
274,99,48973,5,8,0:0:0:0:
259,298,49131,1,0,3:0:0:0:
374,94,49289,6,0,L|392:194,1,90,12|0,0:0|3:0,0:0:0:0:
496,288,49604,2,0,L|480:199,1,90,8|0,0:0|3:0,0:0:0:0:
407,303,49841,1,0,3:0:0:0:
407,303,49920,2,0,L|318:318,1,90,8|0,0:0|3:0,0:0:0:0:
212,213,50236,2,0,L|300:197,1,90,8|0,0:0|3:0,0:0:0:0:
199,376,50552,6,0,L|110:360,1,90,8|0,0:0|3:0,0:0:0:0:
29,260,50868,2,0,L|117:275,1,90,8|0,0:0|3:0,0:0:0:0:
212,213,51104,1,0,3:0:0:0:
212,213,51183,1,8,0:0:0:0:
255,345,51341,5,0,3:0:0:0:
368,146,51499,1,8,0:0:0:0:
473,349,51657,1,4,3:2:0:0:
487,370,51973,5,0,0:0:0:0:
245,227,52131,1,8,0:0:0:0:
440,70,52289,1,0,0:0:0:0:
434,273,52447,5,0,3:0:0:0:
247,30,52604,1,0,3:0:0:0:
132,324,52762,1,8,0:0:0:0:
368,146,52920,1,0,3:0:0:0:
45,59,53078,5,2,3:2:0:0:
446,161,53236,1,2,3:2:0:0:
60,357,53394,1,2,3:2:0:0:
42,369,54341,6,0,L|162:360,1,107.999996704102,4|0,3:2|0:0,0:0:0:0:
290,202,54657,1,8,0:0:0:0:
128,103,54815,2,0,P|104:167|140:233,1,107.999996704102,0|0,0:0|3:0,0:0:0:0:
259,353,55131,1,0,3:0:0:0:
405,155,55289,6,0,P|297:163|190:164,1,215.999993408203,12|0,0:0|3:0,0:0:0:0:
410,31,55762,2,0,P|433:78|424:131,1,107.999996704102,0|8,0:0|0:0,0:0:0:0:
226,39,56078,1,0,0:0:0:0:
142,249,56236,1,0,3:0:0:0:
107,112,56394,1,0,3:0:0:0:
283,258,56552,1,8,0:0:0:0:
334,128,56710,1,0,0:0:0:0:
99,336,56868,6,0,P|109:283|113:229,1,107.999996704102,4|0,3:2|0:0,0:0:0:0:
305,276,57183,1,8,0:0:0:0:
159,122,57341,2,0,P|106:112|54:127,1,107.999996704102,0|0,0:0|3:0,0:0:0:0:
95,362,57657,1,0,3:0:0:0:
330,181,57815,6,0,P|399:257|364:354,1,215.999993408203,12|0,0:0|3:0,0:0:0:0:
213,201,58289,1,0,3:0:0:0:
357,88,58447,2,0,L|464:97,1,107.999996704102,8|0,0:0|0:0,0:0:0:0:
305,276,58762,2,0,L|197:285,1,107.999996704102,0|0,3:0|0:0,0:0:0:0:
132,213,58999,1,0,3:0:0:0:
115,191,59078,1,8,0:0:0:0:
87,373,59236,1,0,3:0:0:0:
7,182,59394,6,0,L|115:191,1,107.999996704102,4|0,3:2|0:0,0:0:0:0:
260,355,59710,1,8,0:0:0:0:
340,164,59868,2,0,L|232:173,1,107.999996704102,0|0,0:0|3:0,0:0:0:0:
85,293,60183,1,0,3:0:0:0:
70,81,60341,6,0,P|174:87|233:174,1,215.999993408203,12|0,0:0|3:0,0:0:0:0:
350,285,60815,1,0,3:0:0:0:
413,127,60973,2,0,P|421:73|446:26,1,107.999996704102,8|0,0:0|0:0,0:0:0:0:
467,225,61289,1,0,3:0:0:0:
233,173,61447,1,0,3:0:0:0:
413,127,61604,1,8,0:0:0:0:
154,196,61762,1,0,0:0:0:0:
330,20,61920,5,4,3:2:0:0:
371,260,62078,1,0,3:0:0:0:
256,142,62236,1,8,0:0:0:0:
457,244,62394,1,0,3:0:0:0:
217,285,62552,1,0,3:0:0:0:
335,170,62710,1,0,3:0:0:0:
55,244,62868,5,12,0:0:0:0:
302,285,63026,1,0,3:0:0:0:
213,148,63183,1,0,3:0:0:0:
182,379,63341,1,0,3:0:0:0:
200,125,63499,1,8,0:0:0:0:
286,264,63657,1,0,3:0:0:0:
4,222,63815,6,0,L|57:212,1,53.9999983520508,0|0,3:0|0:0,0:0:0:0:
200,125,63973,2,0,L|146:115,1,53.9999983520508,0|0,3:0|0:0,0:0:0:0:
127,283,64131,1,8,0:0:0:0:
163,243,64210,1,8,0:0:0:0:
211,221,64289,1,8,0:0:0:0:
265,221,64368,1,8,0:0:0:0:
314,243,64447,6,0,L|332:123,1,107.999996704102,4|0,3:2|0:0,0:0:0:0:
212,37,64762,1,8,0:0:0:0:
34,137,64920,2,0,P|86:124|140:125,1,107.999996704102,0|0,0:0|3:0,0:0:0:0:
332,262,65236,1,0,3:0:0:0:
491,69,65394,6,0,P|396:50|330:152,1,215.999993408203,12|0,0:0|3:0,0:0:0:0:
466,298,65868,2,0,P|462:244|448:193,1,107.999996704102,0|8,0:0|0:0,0:0:0:0:
256,47,66183,1,0,0:0:0:0:
172,257,66341,1,0,3:0:0:0:
313,266,66499,1,0,3:0:0:0:
137,120,66657,1,8,0:0:0:0:
364,136,66815,1,0,3:0:0:0:
93,290,66973,6,0,P|145:279|199:278,1,107.999996704102,4|0,3:2|0:0,0:0:0:0:
361,347,67289,1,8,0:0:0:0:
497,130,67447,2,0,P|444:119|390:118,1,107.999996704102,0|0,0:0|3:0,0:0:0:0:
199,278,67762,1,0,3:0:0:0:
87,59,67920,6,0,P|190:57|249:143,1,215.999993408203,12|0,0:0|3:0,0:0:0:0:
84,259,68394,1,0,3:0:0:0:
253,352,68552,2,0,L|360:346,1,107.999996704102,8|0,0:0|0:0,0:0:0:0:
474,166,68868,2,0,L|366:171,1,107.999996704102,0|0,3:0|0:0,0:0:0:0:
322,254,69104,1,0,3:0:0:0:
311,278,69183,1,8,0:0:0:0:
249,143,69341,1,0,3:0:0:0:
126,330,69499,6,0,L|120:222,1,107.999996704102,4|0,3:2|0:0,0:0:0:0:
204,73,69815,1,8,0:0:0:0:
322,254,69973,2,0,L|327:146,1,107.999996704102,0|0,0:0|3:0,0:0:0:0:
159,3,70289,1,0,3:0:0:0:
15,247,70447,6,0,P|120:222|227:213,1,215.999993408203,12|0,0:0|3:0,0:0:0:0:
355,345,70920,1,0,3:0:0:0:
510,219,71078,2,0,P|457:230|403:235,1,107.999996704102,8|0,0:0|0:0,0:0:0:0:
214,317,71394,1,0,3:0:0:0:
240,109,71552,1,0,3:0:0:0:
403,235,71710,1,8,0:0:0:0:
377,27,71868,1,0,3:0:0:0:
153,162,72026,5,4,3:2:0:0:
388,121,72183,1,0,3:0:0:0:
253,74,72341,1,8,0:0:0:0:
226,342,72499,5,0,3:0:0:0:
140,135,72657,1,0,3:0:0:0:
290,217,72815,1,0,3:0:0:0:
37,295,72973,5,12,0:0:0:0:
305,348,73131,1,0,3:0:0:0:
159,384,73289,1,0,3:0:0:0:
372,213,73447,5,0,3:0:0:0:
488,360,73604,2,0,L|380:353,1,107.999996704102,8|0,0:0|3:0,0:0:0:0:
239,140,73920,5,0,3:0:0:0:
239,140,74078,1,0,3:0:0:0:
123,287,74236,2,0,L|231:280,1,107.999996704102,8|0,0:0|3:0,0:0:0:0:
363,72,74552,5,0,3:0:0:0:
363,72,74710,1,0,3:0:0:0:
479,219,74868,2,0,L|371:212,1,107.999996704102,8|0,0:0|3:0,0:0:0:0:
114,74,75183,5,0,3:0:0:0:
215,310,75341,1,0,3:0:0:0:
312,148,75499,1,8,0:0:0:0:
285,149,75578,1,8,0:0:0:0:
258,151,75657,1,8,0:0:0:0:
446,59,75815,5,0,0:0:0:0:
446,59,78657,5,4,3:2:0:0:
346,293,78814,1,0,3:0:0:0:
190,139,78972,1,8,0:0:0:0:
392,184,79130,1,0,0:0:0:0:
218,369,79288,1,0,3:0:0:0:
257,219,79446,1,0,3:0:0:0:
218,369,79604,1,8,0:0:0:0:
32,105,79762,6,0,P|83:88|136:82,1,107.999996704102,4|0,3:2|0:0,0:0:0:0:
330,136,80078,1,0,3:0:0:0:
153,234,80235,1,8,0:0:0:0:
227,34,80393,1,0,3:0:0:0:
417,188,80551,1,0,3:0:0:0:
237,158,80709,1,0,3:0:0:0:
417,188,80867,1,8,0:0:0:0:
159,356,81025,6,0,P|171:290|165:207,1,107.999996704102,4|0,3:2|0:0,0:0:0:0:
95,141,81341,1,0,3:0:0:0:
298,296,81499,2,0,P|364:284|447:290,1,107.999996704102,8|0,0:0|3:0,0:0:0:0:
418,300,81735,1,0,0:0:0:0:
432,316,81814,1,0,3:0:0:0:
328,173,81972,1,0,3:0:0:0:
492,77,82130,1,8,0:0:0:0:
298,188,82288,6,0,L|191:169,1,107.999996704102,4|0,3:2|0:0,0:0:0:0:
406,267,82604,1,0,3:0:0:0:
507,59,82762,2,0,P|459:35|406:35,1,107.999996704102,8|0,0:0|3:0,0:0:0:0:
392,52,82999,1,0,3:0:0:0:
379,69,83078,1,0,3:0:0:0:
498,230,83235,1,0,3:0:0:0:
282,42,83393,1,8,0:0:0:0:
149,321,83551,1,0,0:0:0:0:
137,342,83867,6,0,L|43:325,1,90
237,244,84183,1,0,0:0:0:0:
295,369,84341,2,0,L|390:385,1,90
437,127,84657,5,0,3:0:0:0:
105,243,84814,1,4,3:2:0:0:
256,192,84893,12,0,86551,0:0:0:0:
