osu file format v14

[General]
AudioFilename: audio.mp3
AudioLeadIn: 0
PreviewTime: 53631
Countdown: 0
SampleSet: Soft
StackLeniency: 0.7
Mode: 0
LetterboxInBreaks: 0
WidescreenStoryboard: 1

[Editor]
Bookmarks: 1289,3815,13920,18815,24026,28920,34131,44236,49289,54341,64447
DistanceSpacing: 1.1
BeatDivisor: 4
GridSize: 16
TimelineZoom: 2.1

[Metadata]
Title:ROUGH DIAMONDS
TitleUnicode:「ROUGH DIAMONDS」
Artist:SCREEN mode
ArtistUnicode:SCREEN mode
Creator:Ohwow
Version:Hard
Source:食戟のソーマ 弍ノ皿
Tags:Shokugeki no Soma: Ni no Sara food wars tv size opening 3 season 2 太田 雅友 Oota Masatomo 松井 洋平 Matsui Youhei Akitoshi Corinn Kyle Y Shiratoi Neoskylove
BeatmapID:1032269
BeatmapSetID:478294

[Difficulty]
HPDrainRate:5.5
CircleSize:3.7
OverallDifficulty:7
ApproachRate:8
SliderMultiplier:1.4
SliderTickRate:1

[Events]
//Background and Video events
0,0,"background.png",0,0
Video,-360,"video.avi"
//Break Periods
//Storyboard Layer 0 (Background)
//Storyboard Layer 1 (Fail)
//Storyboard Layer 2 (Pass)
//Storyboard Layer 3 (Foreground)
//Storyboard Sound Samples

[TimingPoints]
26,315.789473684211,4,2,1,70,1,0
26,-83.3333333333333,4,2,1,70,0,0
3815,-83.3333333333333,4,2,1,70,0,0
54341,-83.3333333333333,4,2,1,70,0,1
75815,-83.3333333333333,4,2,1,30,0,0
78657,315.789473684211,4,2,1,70,1,0
78657,-83.3333333333333,4,2,1,70,0,0
86551,-83.3333333333333,4,2,1,5,0,0

[Colours]
Combo1 : 255,130,4
Combo2 : 255,70,70
Combo3 : 255,223,0
Combo4 : 157,0,4

[HitObjects]
468,294,973,6,0,L|469:251,3,41.9999987182618,8|8|4|4,0:0|0:3|0:3|0:3,0:0:0:0:
469,205,1289,6,0,P|433:183|407:151,1,83.9999974365235,4|0,1:2|0:0,0:0:0:0:
285,11,1762,2,0,P|284:52|269:91,1,83.9999974365235,4|0,1:2|0:0,0:0:0:0:
209,268,2236,2,0,P|245:247|286:241,1,83.9999974365235,4|0,1:2|0:0,0:0:0:0:
471,220,2710,5,0,1:0:0:0:
466,303,2868,1,0,1:0:0:0:
391,340,3026,1,0,1:0:0:0:
317,300,3183,2,0,L|323:265,3,35,4|0|0|0,1:2|0:0|0:0|0:0,0:0:0:0:
243,326,3499,2,0,L|236:360,3,35,0|0|0|0,1:0|0:0|0:0|0:0,0:0:0:0:
202,254,3815,6,0,P|162:241|120:240,1,83.9999974365235,4|0,3:2|0:0,0:0:0:0:
32,272,4131,2,0,P|44:232|45:190,1,83.9999974365235,8|0,0:0|0:0,0:0:0:0:
24,100,4447,2,0,P|57:27|145:19,1,167.999994873047,0|8,3:0|0:0,0:0:0:0:
208,74,4920,2,0,P|247:86|289:87,1,83.9999974365235,0|0,0:0|3:0,0:0:0:0:
378,61,5236,5,0,0:0:0:0:
369,153,5394,2,0,L|360:236,1,83.9999974365235,8|0,0:0|0:0,0:0:0:0:
281,287,5710,2,0,L|269:203,1,83.9999974365235,0|0,3:0|0:0,0:0:0:0:
191,254,6026,1,8,0:0:0:0:
178,344,6183,1,0,0:0:0:0:
77,367,6341,6,0,P|36:356|5:328,1,83.9999974365235,4|0,3:2|0:0,0:0:0:0:
83,276,6657,2,0,B|106:226|106:226|86:113,1,167.999994873047,8|0,0:0|3:0,0:0:0:0:
26,43,7131,1,0,0:0:0:0:
117,26,7289,1,8,0:0:0:0:
177,97,7447,2,0,B|290:77,1,83.9999974365235,0|0,0:0|3:0,0:0:0:0:
342,40,7762,5,0,0:0:0:0:
422,85,7920,2,0,P|435:124|426:164,1,83.9999974365235,8|0,0:0|0:0,0:0:0:0:
346,211,8236,2,0,B|263:196,1,83.9999974365235,0|0,3:0|3:0,0:0:0:0:
173,173,8552,2,0,B|187:255,1,83.9999974365235,8|0,0:0|3:0,0:0:0:0:
232,356,8868,6,0,B|149:341,1,83.9999974365235,4|0,3:2|0:0,0:0:0:0:
57,353,9183,2,0,B|71:270,1,83.9999974365235,8|0,0:0|0:0,0:0:0:0:
7,202,9499,2,0,B|172:172,1,167.999994873047,0|8,3:0|0:0,0:0:0:0:
263,191,9973,2,0,P|263:149|243:113,1,83.9999974365235,0|0,0:0|3:0,0:0:0:0:
153,92,10289,1,0,0:0:0:0:
86,157,10447,6,0,P|86:198|106:235,1,83.9999974365235,8|0,0:0|0:0,0:0:0:0:
177,293,10762,2,0,L|260:285,1,83.9999974365235,0|0,3:0|0:0,0:0:0:0:
339,236,11078,1,8,0:0:0:0:
421,277,11236,1,0,0:0:0:0:
488,190,11394,6,0,P|487:148|466:112,1,83.9999974365235,4|0,3:2|0:0,0:0:0:0:
382,73,11710,2,0,B|337:103|337:103|223:93,1,167.999994873047,8|0,0:0|3:0,0:0:0:0:
150,36,12183,1,0,0:0:0:0:
74,88,12341,1,8,0:0:0:0:
99,176,12499,2,0,B|182:168,1,83.9999974365235,0|0,0:0|3:0,0:0:0:0:
292,161,12815,5,0,0:0:0:0:
361,221,12973,1,8,0:0:0:0:
318,303,13131,2,0,P|256:291|193:293,1,125.999996154785,8|0,0:0|0:0,0:0:0:0:
150,312,13447,2,0,L|144:373,5,41.9999987182618,8|8|8|8|4|4,0:3|0:3|0:3|0:3|0:3|0:3,0:0:0:0:
97,225,13920,6,0,L|82:99,1,125.999996154785,4|0,3:2|0:0,0:0:0:0:
65,54,14236,2,0,P|107:61|148:57,1,83.9999974365235,0|0,3:0|0:0,0:0:0:0:
232,15,14552,2,0,P|273:10|314:17,2,83.9999974365235,0|0|0,3:0|0:0|3:0,0:0:0:0:
219,107,15026,6,0,L|209:190,1,83.9999974365235,0|0,0:0|3:0,0:0:0:0:
294,153,15341,2,0,L|284:236,1,83.9999974365235,0|0,0:0|3:0,0:0:0:0:
369,199,15657,2,0,L|350:365,1,167.999994873047,0|0,0:0|0:0,0:0:0:0:
271,315,16131,2,0,P|231:301|189:300,1,83.9999974365235,0|0,3:0|0:0,0:0:0:0:
86,338,16447,6,0,P|113:281|111:219,1,125.999996154785,4|0,3:2|0:0,0:0:0:0:
83,183,16762,2,0,L|166:175,1,83.9999974365235,0|0,3:0|0:0,0:0:0:0:
239,116,17078,2,0,L|231:32,2,83.9999974365235,0|0|0,3:0|0:0|3:0,0:0:0:0:
237,208,17552,6,0,P|277:200|310:174,1,83.9999974365235,0|0,0:0|3:0,0:0:0:0:
355,256,17868,2,0,P|386:228|401:189,1,83.9999974365235,0|0,0:0|3:0,0:0:0:0:
481,238,18183,2,0,P|494:198|487:157,1,83.9999974365235,0|0,0:0|3:0,0:0:0:0:
479,137,18420,1,0,3:0:0:0:
465,120,18499,1,0,3:0:0:0:
405,49,18657,1,4,0:3:0:0:
324,122,18815,6,0,L|156:106,1,167.999994873047,4|0,3:2|3:0,0:0:0:0:
90,40,19289,2,0,P|67:74|64:115,1,83.9999974365235,8|0,0:0|0:0,0:0:0:0:
122,188,19604,1,0,3:0:0:0:
122,188,19762,1,0,3:0:0:0:
37,224,19920,1,8,0:0:0:0:
82,323,20078,6,0,P|172:294|271:313,1,167.999994873047,4|0,3:2|3:0,0:0:0:0:
336,312,20552,2,0,P|331:267|348:215,1,83.9999974365235,8|0,0:0|0:0,0:0:0:0:
384,147,20868,1,0,3:0:0:0:
384,147,21026,1,0,3:0:0:0:
307,95,21183,1,8,0:0:0:0:
270,198,21341,6,0,B|314:232|314:232|426:225,1,167.999994873047,4|0,3:2|3:0,0:0:0:0:
489,157,21815,2,0,P|487:115|468:78,1,83.9999974365235,8|0,0:0|0:0,0:0:0:0:
385,36,22131,1,0,3:0:0:0:
385,36,22289,1,0,3:0:0:0:
313,94,22447,1,8,0:0:0:0:
236,17,22604,6,0,B|207:67|207:67|222:176,1,167.999994873047,4|0,3:2|3:0,0:0:0:0:
130,182,23078,2,0,B|117:98,1,83.9999974365235,8|0,0:0|0:0,0:0:0:0:
25,104,23394,2,0,B|38:188,1,83.9999974365235,0|0,3:0|3:0,0:0:0:0:
12,277,23710,1,8,0:0:0:0:
92,323,23868,1,4,0:3:0:0:
110,332,23947,1,8,0:0:0:0:
127,341,24026,6,0,P|173:300|233:284,1,125.999996154785,4|0,3:2|0:0,0:0:0:0:
279,292,24341,2,0,L|288:208,1,83.9999974365235,0|0,3:0|0:0,0:0:0:0:
337,129,24657,2,0,P|298:116|257:120,2,83.9999974365235,0|0|0,3:0|0:0|3:0,0:0:0:0:
399,197,25131,6,0,L|390:281,1,83.9999974365235,0|0,0:0|3:0,0:0:0:0:
312,229,25447,2,0,L|303:313,1,83.9999974365235,0|0,0:0|3:0,0:0:0:0:
225,261,25762,2,0,B|213:377|213:377|193:329,1,167.999994873047,0|0,0:0|0:0,0:0:0:0:
133,256,26236,2,0,P|97:237|55:232,1,83.9999974365235,0|0,3:0|0:0,0:0:0:0:
2,136,26552,6,0,L|155:119,1,125.999996154785,4|0,3:2|0:0,0:0:0:0:
173,117,26868,2,0,L|188:34,1,83.9999974365235,0|0,3:0|0:0,0:0:0:0:
275,5,27183,1,0,3:0:0:0:
345,61,27341,2,0,P|311:86|270:93,1,83.9999974365235,0|0,0:0|3:0,0:0:0:0:
237,180,27657,6,0,P|277:187|311:212,1,83.9999974365235,0|0,0:0|3:0,0:0:0:0:
284,302,27973,2,0,P|323:288|364:293,1,83.9999974365235,0|0,0:0|3:0,0:0:0:0:
385,384,28289,2,0,P|412:352|450:336,1,83.9999974365235,0|0,0:0|3:0,0:0:0:0:
490,253,28604,2,0,L|486:189,3,41.9999987182618,8|8|8|8,0:0|0:0|0:0|0:0,0:0:0:0:
480,156,28920,6,0,L|312:138,1,167.999994873047,4|0,3:2|3:0,0:0:0:0:
250,207,29394,2,0,P|211:231|158:233,1,83.9999974365235,8|0,0:0|0:0,0:0:0:0:
93,199,29710,1,0,3:0:0:0:
93,199,29868,1,0,3:0:0:0:
65,287,30026,1,8,0:0:0:0:
0,198,30183,6,0,P|35:125|115:107,1,167.999994873047,4|0,3:2|3:0,0:0:0:0:
201,138,30657,2,0,L|301:119,1,83.9999974365235,8|0,0:0|0:0,0:0:0:0:
347,54,30973,1,0,3:0:0:0:
347,54,31131,1,0,3:0:0:0:
408,123,31289,1,8,0:0:0:0:
343,211,31447,6,0,B|390:248|390:248|498:234,1,167.999994873047,4|0,3:2|3:0,0:0:0:0:
503,326,31920,2,0,B|419:336,1,83.9999974365235,8|0,0:0|0:0,0:0:0:0:
329,314,32236,1,0,3:0:0:0:
329,314,32394,1,0,3:0:0:0:
255,370,32552,1,8,0:0:0:0:
188,283,32710,6,0,B|107:250|107:315|26:283,1,167.999994873047,4|0,3:2|3:0,0:0:0:0:
20,190,33183,2,0,L|26:148,3,41.9999987182618,8|0|0|0,0:0|0:0|0:0|0:0,0:0:0:0:
69,131,33499,2,0,L|53:91,3,41.9999987182618,0|0|0|0,3:0|0:0|3:0|0:0,0:0:0:0:
81,55,33815,2,0,L|48:28,2,41.9999987182618,8|8|8,0:0|0:0|0:0,0:0:0:0:
171,97,34131,6,0,P|209:72|263:73,1,83.9999974365235,4|0,3:2|3:0,0:0:0:0:
322,123,34447,2,0,L|415:117,2,83.9999974365235,8|8|0,0:0|0:0|3:0,0:0:0:0:
238,161,34920,2,0,L|235:261,1,83.9999974365235,0|8,3:0|0:0,0:0:0:0:
214,335,35236,6,0,P|253:322|294:330,1,83.9999974365235,0|0,3:0|0:0,0:0:0:0:
376,373,35552,2,0,P|417:380|456:368,1,83.9999974365235,0|8,3:0|0:0,0:0:0:0:
507,289,35868,2,0,P|471:217|392:200,1,167.999994873047,8|0,0:0|3:0,0:0:0:0:
306,237,36341,2,0,L|312:75,1,125.999996154785,8|0,0:0|0:0,0:0:0:0:
320,56,36657,6,0,L|236:60,1,83.9999974365235,0|0,3:0|3:0,0:0:0:0:
178,132,36973,2,0,L|94:128,1,83.9999974365235,8|8,0:0|0:0,0:0:0:0:
21,186,37289,1,0,3:0:0:0:
93,241,37447,2,0,P|106:281|104:323,1,83.9999974365235,0|8,3:0|0:0,0:0:0:0:
195,335,37762,6,0,P|203:294|225:258,1,83.9999974365235,0|0,3:0|0:0,0:0:0:0:
300,202,38078,2,0,P|291:161|269:125,1,83.9999974365235,0|8,3:0|0:0,0:0:0:0:
176,117,38394,2,0,P|215:46|295:34,1,167.999994873047,8|0,0:0|3:0,0:0:0:0:
362,97,38868,2,0,P|404:104|444:95,1,83.9999974365235,8|8,0:0|0:0,0:0:0:0:
502,187,39183,6,0,P|461:177|420:184,1,83.9999974365235,4|0,3:2|3:0,0:0:0:0:
362,256,39499,2,0,L|254:247,1,83.9999974365235,8|8,0:0|0:0,0:0:0:0:
203,194,39815,1,0,3:0:0:0:
203,194,39973,2,0,L|175:293,1,83.9999974365235,0|8,3:0|0:0,0:0:0:0:
89,293,40289,6,0,L|66:212,1,83.9999974365235,0|0,3:0|0:0,0:0:0:0:
129,145,40604,2,0,L|106:64,1,83.9999974365235,0|8,3:0|0:0,0:0:0:0:
191,27,40920,2,0,B|226:62|226:62|340:29,1,167.999994873047,8|0,0:0|3:0,0:0:0:0:
421,74,41394,1,8,0:0:0:0:
487,282,41710,6,0,P|448:265|407:263,1,83.9999974365235,0|0,3:0|3:0,0:0:0:0:
332,319,42026,2,0,L|315:236,1,83.9999974365235,8|8,0:0|0:0,0:0:0:0:
343,148,42341,1,0,3:0:0:0:
252,168,42499,2,0,L|169:184,1,83.9999974365235,0|8,3:0|0:0,0:0:0:0:
102,247,42815,6,0,P|80:211|77:169,1,83.9999974365235,0|0,3:0|0:0,0:0:0:0:
140,100,43131,2,0,P|181:97|217:75,1,83.9999974365235,0|8,3:0|0:0,0:0:0:0:
274,2,43447,2,0,P|327:55|430:13,1,167.999994873047,0|0,0:0|3:0,0:0:0:0:
470,108,43920,2,0,L|511:110,2,41.9999987182618,8|8|0,0:0|0:0|3:0,0:0:0:0:
383,142,44236,6,0,L|402:248,1,83.9999974365235,12|0,0:0|3:0,0:0:0:0:
457,296,44552,1,0,3:0:0:0:
377,342,44710,2,0,P|292:318|193:336,1,167.999994873047,8|0,0:0|3:0,0:0:0:0:
124,352,45183,6,0,L|138:269,1,83.9999974365235,8|0,0:0|3:0,0:0:0:0:
207,206,45499,1,0,3:0:0:0:
297,222,45657,2,0,L|267:56,1,167.999994873047,8|0,0:0|3:0,0:0:0:0:
179,90,46131,2,0,P|139:99|98:93,1,83.9999974365235,8|0,0:0|3:0,0:0:0:0:
36,162,46447,2,0,P|45:202|39:243,1,83.9999974365235,8|0,0:0|3:0,0:0:0:0:
4,347,46762,6,0,L|87:337,1,83.9999974365235,12|0,0:0|3:0,0:0:0:0:
140,260,47078,1,0,3:0:0:0:
191,337,47236,2,0,L|357:356,1,167.999994873047,8|0,0:0|3:0,0:0:0:0:
332,267,47710,6,0,L|248:257,1,83.9999974365235,8|0,0:0|3:0,0:0:0:0:
193,183,48026,1,0,3:0:0:0:
252,113,48183,2,0,P|337:124|373:198,1,167.999994873047,8|0,0:0|3:0,0:0:0:0:
449,243,48657,2,0,L|456:159,1,83.9999974365235,8|0,0:0|3:0,0:0:0:0:
504,79,48973,2,0,L|420:71,1,83.9999974365235,8|0,0:0|3:0,0:0:0:0:
324,16,49289,6,0,L|317:100,1,83.9999974365235,12|0,0:0|3:0,0:0:0:0:
235,55,49604,2,0,L|228:139,1,83.9999974365235,8|0,0:0|3:0,0:0:0:0:
155,197,49920,2,0,L|162:280,1,83.9999974365235,8|0,0:0|3:0,0:0:0:0:
74,251,50236,2,0,L|81:334,1,83.9999974365235,8|0,0:0|3:0,0:0:0:0:
183,377,50552,6,0,P|221:361|263:356,1,83.9999974365235,8|0,0:0|3:0,0:0:0:0:
326,288,50868,2,0,P|287:271|246:265,1,83.9999974365235,8|0,0:0|3:0,0:0:0:0:
190,191,51183,1,8,0:0:0:0:
266,138,51341,1,0,3:0:0:0:
266,138,51499,1,8,0:0:0:0:
183,66,51657,5,4,3:2:0:0:
256,192,51736,12,0,53394,0:0:0:0:
195,117,54341,6,0,L|190:205,1,83.9999974365235,4|0,3:2|0:0,0:0:0:0:
133,278,54657,1,8,0:0:0:0:
181,356,54815,2,0,P|264:363|313:300,1,167.999994873047,0|0,0:0|3:0,0:0:0:0:
292,193,55289,6,0,L|380:188,1,83.9999974365235,12|0,0:0|0:0,0:0:0:0:
468,181,55604,1,0,3:0:0:0:
512,100,55762,2,0,L|336:90,1,167.999994873047,0|0,0:0|0:0,0:0:0:0:
264,42,56236,2,0,L|259:130,1,83.9999974365235,0|0,3:0|3:0,0:0:0:0:
181,177,56552,2,0,L|176:93,1,83.9999974365235,8|0,0:0|0:0,0:0:0:0:
94,19,56868,6,0,P|52:19|14:37,1,83.9999974365235,4|0,3:2|0:0,0:0:0:0:
1,128,57183,1,8,0:0:0:0:
87,160,57341,2,0,P|129:160|167:178,1,83.9999974365235,0|0,0:0|3:0,0:0:0:0:
180,269,57657,1,0,3:0:0:0:
268,198,57815,6,0,B|302:176|337:188|337:188|376:219|427:212,1,167.999994873047,12|0,0:0|3:0,0:0:0:0:
493,147,58289,1,0,3:0:0:0:
462,58,58447,2,0,P|427:80|406:116,1,83.9999974365235,8|0,0:0|0:0,0:0:0:0:
314,100,58762,2,0,P|305:40|255:4,1,125.999996154785,0|0,3:0|3:0,0:0:0:0:
214,27,59078,2,0,L|116:33,1,83.9999974365235,8|0,0:0|3:0,0:0:0:0:
57,114,59394,6,0,B|83:165|83:165|66:301,1,167.999994873047,4|8,3:2|0:0,0:0:0:0:
2,340,59868,2,0,P|36:363|78:368,1,83.9999974365235,0|0,0:0|3:0,0:0:0:0:
156,319,60183,1,0,3:0:0:0:
252,370,60341,6,0,L|238:202,1,167.999994873047,12|0,0:0|3:0,0:0:0:0:
183,126,60815,1,0,3:0:0:0:
274,116,60973,2,0,L|358:109,1,83.9999974365235,8|0,0:0|0:0,0:0:0:0:
447,130,61289,2,0,P|425:165|418:206,1,83.9999974365235,0|0,3:0|3:0,0:0:0:0:
326,214,61604,2,0,P|348:249|355:290,1,83.9999974365235,8|0,0:0|0:0,0:0:0:0:
414,383,61920,6,0,P|348:333|266:336,1,167.999994873047,4|8,3:2|0:0,0:0:0:0:
183,377,62394,2,0,L|99:369,1,83.9999974365235,0|0,3:0|3:0,0:0:0:0:
48,291,62710,1,0,3:0:0:0:
154,265,62868,6,0,P|199:208|155:119,1,167.999994873047,12|0,0:0|3:0,0:0:0:0:
79,50,63341,2,0,L|198:34,1,83.9999974365235,0|8,3:0|0:0,0:0:0:0:
254,27,63657,1,0,3:0:0:0:
309,101,63815,2,0,L|350:106,3,41.9999987182618,0|0|0|0,3:0|0:0|3:0|0:0,0:0:0:0:
373,147,64131,2,0,L|414:141,3,41.9999987182618,8|8|8|8,0:0|0:0|0:0|0:0,0:0:0:0:
464,116,64447,6,0,L|476:199,1,83.9999974365235,4|0,3:2|0:0,0:0:0:0:
492,290,64762,1,8,0:0:0:0:
403,264,64920,2,0,B|350:285|350:285|241:260,1,167.999994873047,0|0,0:0|3:0,0:0:0:0:
254,150,65394,6,0,P|180:167|160:187,1,83.9999974365235,12|0,0:0|0:0,0:0:0:0:
135,254,65710,1,0,3:0:0:0:
41,252,65868,2,0,P|-8:190|22:116,1,167.999994873047,0|0,0:0|0:0,0:0:0:0:
113,98,66341,2,0,L|222:70,1,83.9999974365235,0|0,3:0|3:0,0:0:0:0:
254,150,66657,2,0,L|363:122,1,83.9999974365235,8|0,0:0|3:0,0:0:0:0:
419,58,66973,6,0,P|461:58|499:76,1,83.9999974365235,4|0,3:2|0:0,0:0:0:0:
512,167,67289,1,8,0:0:0:0:
426,199,67447,2,0,P|384:199|346:217,1,83.9999974365235,0|0,0:0|3:0,0:0:0:0:
333,308,67762,1,0,3:0:0:0:
241,358,67920,6,0,B|190:361|162:317|162:317|134:293|92:303,1,167.999994873047,12|0,0:0|3:0,0:0:0:0:
9,345,68394,1,0,3:0:0:0:
13,252,68552,2,0,P|43:222|83:210,1,83.9999974365235,8|0,0:0|0:0,0:0:0:0:
175,223,68868,2,0,P|214:210|248:111,1,125.999996154785,0|0,3:0|3:0,0:0:0:0:
251,94,69183,2,0,L|167:86,1,83.9999974365235,8|0,0:0|3:0,0:0:0:0:
67,42,69499,6,0,B|82:209,1,167.999994873047,4|8,3:2|0:0,0:0:0:0:
122,291,69973,2,0,P|160:310|204:303,1,83.9999974365235,0|0,0:0|3:0,0:0:0:0:
272,245,70289,1,0,3:0:0:0:
316,344,70447,6,0,L|483:327,1,167.999994873047,12|0,0:0|3:0,0:0:0:0:
512,250,70920,1,0,3:0:0:0:
434,217,71078,2,0,P|411:182|408:140,1,83.9999974365235,8|0,0:0|0:0,0:0:0:0:
460,63,71394,2,0,L|376:53,1,83.9999974365235,0|0,3:0|3:0,0:0:0:0:
319,127,71710,2,0,L|235:136,1,83.9999974365235,8|0,0:0|3:0,0:0:0:0:
197,33,72026,6,0,P|206:108|134:170,1,167.999994873047,4|8,3:2|0:0,0:0:0:0:
56,135,72499,2,0,L|64:224,1,83.9999974365235,0|0,3:0|3:0,0:0:0:0:
10,295,72815,1,0,3:0:0:0:
77,357,72973,6,0,P|142:308|224:314,1,167.999994873047,12|0,0:0|3:0,0:0:0:0:
307,355,73447,1,0,3:0:0:0:
373,291,73604,2,0,L|483:274,1,83.9999974365235,8|0,0:0|3:0,0:0:0:0:
488,190,73920,1,0,3:0:0:0:
488,190,74078,1,0,3:0:0:0:
488,190,74236,2,0,L|404:177,1,83.9999974365235,8|0,0:0|3:0,0:0:0:0:
330,121,74552,1,0,3:0:0:0:
330,121,74710,1,0,3:0:0:0:
330,121,74868,2,0,L|317:204,1,83.9999974365235,8|0,0:0|3:0,0:0:0:0:
259,276,75183,5,0,3:0:0:0:
190,213,75341,1,0,3:0:0:0:
150,296,75499,2,0,L|86:310,3,41.9999987182618,8|8|8|0,0:0|0:0|0:0|0:0,0:0:0:0:
63,315,75815,5,0,0:0:0:0:
63,315,78657,6,0,P|76:275|74:233,1,83.9999974365235,4|0,3:2|3:0,0:0:0:0:
32,151,78972,2,0,P|73:152|113:139,1,83.9999974365235,8|0,0:0|0:0,0:0:0:0:
191,88,79288,2,0,L|184:4,2,83.9999974365235,0|0|8,3:0|3:0|0:0,0:0:0:0:
188,197,79762,6,0,B|244:169|244:169|348:184,1,167.999994873047,4|0,3:2|3:0,0:0:0:0:
345,276,80235,2,0,B|261:264,1,83.9999974365235,8|0,0:0|3:0,0:0:0:0:
187,319,80551,2,0,B|103:330,2,83.9999974365235,0|0|8,3:0|3:0|0:0,0:0:0:0:
289,358,81025,6,0,P|356:312|439:317,1,167.999994873047,4|0,3:2|3:0,0:0:0:0:
480,233,81499,2,0,P|444:211|422:169,1,83.9999974365235,8|0,0:0|3:0,0:0:0:0:
380,93,81814,2,0,L|387:9,2,83.9999974365235,0|0|8,3:0|3:0|0:0,0:0:0:0:
313,180,82288,6,0,P|257:120|175:116,1,167.999994873047,4|0,3:2|3:0,0:0:0:0:
96,166,82762,2,0,P|110:205|112:247,1,83.9999974365235,8|0,0:0|3:0,0:0:0:0:
74,332,83078,1,0,3:0:0:0:
152,379,83235,1,0,3:0:0:0:
199,301,83393,1,8,0:0:0:0:
277,348,83551,1,0,0:0:0:0:
398,209,83867,6,0,L|493:194,2,83.9999974365235,0|0|0,0:0|0:0|0:0,0:0:0:0:
334,141,84341,2,0,L|239:126,1,83.9999974365235,0|0,0:0|0:0,0:0:0:0:
180,188,84657,1,0,3:0:0:0:
130,110,84814,1,4,3:2:0:0:
256,192,84893,12,0,86551,0:0:0:0:
