osu file format v14

[General]
AudioFilename: Naked Dive.mp3
AudioLeadIn: 0
PreviewTime: 62233
Countdown: 0
SampleSet: Soft
StackLeniency: 0.7
Mode: 0
LetterboxInBreaks: 0
WidescreenStoryboard: 0

[Editor]
DistanceSpacing: 1.4
BeatDivisor: 4
GridSize: 4
TimelineZoom: 1.9

[Metadata]
Title:Naked Dive (TV Ver.)
TitleUnicode:Naked Dive (TV Ver.)
Artist:SCREEN mode
ArtistUnicode:SCREEN mode
Creator:Hazu-
Version:Insane
Source:無彩限のファントム・ワールド
Tags:myriad colors musaigen no phantom world opening size shad0w1and
BeatmapID:928472
BeatmapSetID:401790

[Difficulty]
HPDrainRate:6
CircleSize:4
OverallDifficulty:7
ApproachRate:8.5
SliderMultiplier:1.8
SliderTickRate:1

[Events]
//Background and Video events
Video,0,"Naked Dive.avi"
0,0,"BG.png",0,0
//Break Periods
//Storyboard Layer 0 (Background)
//Storyboard Layer 1 (Fail)
//Storyboard Layer 2 (Pass)
//Storyboard Layer 3 (Foreground)
//Storyboard Sound Samples

[TimingPoints]
7930,379.746835443038,4,2,1,50,1,0
14005,-100,4,2,1,70,0,0
24638,-100,4,2,2,65,0,0
26157,-125,4,2,2,60,0,0
30999,-125,4,2,3,60,0,0
31189,-125,4,2,2,60,0,0
36790,-125,4,2,2,65,0,0
38309,-125,4,2,2,60,0,0
43151,-125,4,2,3,60,0,0
43341,-125,4,2,2,60,0,0
48942,-125,4,2,2,65,0,0
50461,-125,4,2,1,60,0,0
52265,-125,4,2,3,60,0,0
52455,-125,4,2,1,60,0,0
58341,-125,4,2,3,60,0,0
58531,-125,4,2,1,60,0,0
61854,-125,4,2,2,50,0,0
62233,-125,4,2,2,60,0,0
62613,-100,4,2,1,85,0,1
65936,-100,4,2,3,85,0,1
66126,-100,4,2,1,85,0,1
72012,-100,4,2,3,85,0,1
72202,-100,4,2,1,85,0,1
75050,-100,4,2,3,85,0,1
75240,-100,4,2,1,85,0,1
78088,-100,4,2,3,85,0,1
78278,-100,4,2,1,85,0,1
81126,-100,4,2,3,85,0,1
81316,-100,4,2,1,85,0,1
84164,-100,4,2,3,85,0,1
84354,-100,4,2,1,85,0,1
85398,-100,4,2,2,85,0,1
86347,-100,4,2,2,50,0,1
86537,-100,4,2,2,70,0,0

[Colours]
Combo1 : 114,179,26
Combo2 : 248,235,148
Combo3 : 181,169,166
Combo4 : 255,128,192

[HitObjects]
100,224,7929,6,0,L|248:212,1,135,6|2,0:0|0:0,0:0:0:0:
276,212,8309,1,0,0:0:0:0:
348,112,8499,1,0,0:0:0:0:
348,112,8594,1,0,0:0:0:0:
348,112,8689,2,0,L|208:92,1,135,2|2,0:0|0:0,0:0:0:0:
176,84,9070,1,0,0:0:0:0:
276,212,9260,1,2,0:0:0:0:
408,164,9448,6,0,P|428:120|420:76,1,90,0|2,0:0|0:0,0:0:0:0:
404,44,9733,1,2,0:0:0:0:
276,32,9923,2,0,L|212:40,1,45,2|2,0:0|0:0,0:0:0:0:
140,176,10208,2,0,L|284:164,1,135,2|2,0:0|0:0,0:0:0:0:
316,164,10588,1,0,0:0:0:0:
176,92,10778,1,2,0:0:0:0:
156,256,10967,6,0,L|176:304,3,45
216,296,11347,2,0,L|264:315,3,45
288,284,11727,2,0,L|336:264,3,45
340,228,12107,2,0,L|359:179,3,45
336,152,12486,5,4,0:3:0:0:
224,168,13246,1,2,0:0:0:0:
216,180,13341,1,2,0:0:0:0:
208,192,13436,2,0,P|140:176|112:184,1,90,2|2,0:0|0:0,0:0:0:0:
48,236,13816,1,2,0:0:0:0:
280,284,14005,6,0,P|356:260|360:168,1,180,6|10,0:0|0:0,0:0:0:0:
272,64,14575,1,0,0:0:0:0:
132,120,14765,2,0,L|144:216,1,90,2|0,0:0|0:0,0:0:0:0:
176,284,15050,1,0,0:0:0:0:
190,293,15145,2,0,L|298:281,1,90,10|0,0:0|0:0,0:0:0:0:
428,336,15524,6,0,B|421:272|421:272|439:214|439:214|431:142,1,180,2|10,0:0|0:0,0:0:0:0:
320,60,16094,1,0,0:0:0:0:
248,156,16284,2,0,P|188:152|136:156,1,90,2|0,0:0|0:0,0:0:0:0:
116,160,16569,1,0,0:0:0:0:
116,160,16664,1,10,0:0:0:0:
208,268,16854,1,2,0:0:0:0:
332,184,17043,6,0,L|344:136,3,45,2|2|2|2,0:0|0:0|0:0|0:0,0:0:0:0:
342,140,17423,2,0,L|350:264,1,90,10|0,0:0|0:0,0:0:0:0:
223,313,17803,2,0,L|211:361,3,45,2|2|2|2,0:0|0:0|0:0|0:0,0:0:0:0:
212,356,18183,2,0,L|204:232,1,90,10|2,0:0|0:0,0:0:0:0:
208,176,18467,1,2,0:0:0:0:
204,188,18562,6,0,L|128:200,1,45,2|2,0:0|0:0,0:0:0:0:
64,292,18752,2,0,L|140:304,1,45,2|2,0:0|0:0,0:0:0:0:
228,364,18942,2,0,L|388:352,1,135,10|2,0:0|0:0,0:0:0:0:
408,364,19322,2,0,L|424:256,1,90
456,120,19701,1,10,0:0:0:0:
456,120,19796,1,2,0:0:0:0:
456,120,19891,1,2,0:0:0:0:
308,180,20081,6,0,P|244:168|300:100,1,180,6|10,0:0|0:0,0:0:0:0:
388,216,20651,1,0,0:0:0:0:
384,224,20746,1,0,0:0:0:0:
380,232,20841,2,0,P|324:268|292:272,1,90,2|0,0:0|0:0,0:0:0:0:
290,97,21221,2,0,P|346:61|378:57,1,90,10|0,0:0|0:0,0:0:0:0:
468,208,21600,6,0,B|456:336|456:336|440:284,1,180,2|10,0:0|0:0,0:0:0:0:
392,148,22170,1,0,0:0:0:0:
292,240,22360,2,0,L|176:212,1,90,2|0,0:0|0:0,0:0:0:0:
116,172,22645,1,0,0:0:0:0:
112,156,22740,2,0,P|124:108|160:68,1,90,10|2,0:0|0:0,0:0:0:0:
288,44,23119,6,0,P|308:56|332:80,3,45,4|0|0|0,0:0|0:0|0:0|0:0,0:0:0:0:
412,108,23499,2,0,P|417:134|417:168,3,45,8|0|0|0,0:0|0:0|0:0|0:0,0:0:0:0:
424,248,23879,1,0,0:0:0:0:
401,246,23973,1,0,0:0:0:0:
379,245,24068,1,0,0:0:0:0:
356,243,24163,1,0,0:0:0:0:
332,240,24259,2,0,L|280:232,1,45,8|0,0:0|0:0,0:0:0:0:
168,224,24448,2,0,L|200:182,1,45
272,104,24638,6,0,B|319:109|319:109|357:133|357:133|409:138,2,135,4|4|4,0:0|0:0|0:0,0:0:0:0:
104,84,25588,2,0,L|96:44,2,30,2|2|2,0:0|0:0|0:0,0:0:0:0:
104,116,25778,2,0,L|96:280,1,135,2|0,0:0|0:0,0:0:0:0:
96,288,26157,6,0,P|144:280|184:288,1,72,6|0,0:0|0:0,0:0:0:0:
288,336,26537,2,0,L|280:248,1,72,8|0,0:0|0:0,0:0:0:0:
204,160,26917,1,2,0:0:0:0:
166,282,27107,1,0,0:0:0:0:
276,176,27297,2,0,P|268:124|244:96,1,72,8|0,0:0|0:0,0:0:0:0:
96,60,27676,6,0,L|88:180,1,108,2|0,0:0|0:0,0:0:0:0:
88,204,28057,1,8,0:0:0:0:
224,292,28246,1,0,0:0:0:0:
228,280,28341,1,0,0:0:0:0:
232,268,28436,1,2,0:0:0:0:
168,172,28626,1,0,0:0:0:0:
96,296,28816,2,0,L|92:344,3,36,8|0|0|0,0:0|0:0|0:0|0:0,0:0:0:0:
92,368,29195,6,0,P|148:360|188:364,1,72,2|0,0:0|0:0,0:0:0:0:
328,368,29575,2,0,P|360:332|368:292,1,72,8|0,0:0|0:0,0:0:0:0:
336,192,29955,1,2,0:0:0:0:
280,292,30145,1,0,0:0:0:0:
440,360,30335,2,0,P|452:308|452:280,1,72,8|0,0:0|0:0,0:0:0:0:
424,192,30619,1,0,0:0:0:0:
408,200,30714,6,0,L|284:196,1,108,2|0,0:0|0:0,0:0:0:0:
264,196,31095,1,8,0:0:0:0:
208,295,31284,1,0,0:0:0:0:
208,295,31379,1,0,0:0:0:0:
208,295,31474,2,0,L|296:291,1,72,2|0,0:0|0:0,0:0:0:0:
160,164,31854,2,0,L|108:168,3,36,8|0|0|0,0:0|0:0|0:0|0:0,0:0:0:0:
88,160,32233,6,0,P|92:212|92:248,1,72,6|0,0:0|0:0,0:0:0:0:
176,316,32614,2,0,P|172:264|172:228,1,72,8|0,0:0|0:0,0:0:0:0:
64,136,32993,2,0,L|56:264,1,108,2|0,0:0|0:0,0:0:0:0:
56,280,33373,1,8,0:0:0:0:
184,216,33563,1,0,0:0:0:0:
148,48,33752,6,0,P|88:36|32:64,1,108,2|0,0:0|0:0,0:0:0:0:
16,76,34132,2,0,L|8:160,1,72,8|0,0:0|0:0,0:0:0:0:
108,244,34512,2,0,L|100:160,1,72,2|0,0:0|0:0,0:0:0:0:
16,276,34892,2,0,L|8:360,1,72,8|0,0:0|0:0,0:0:0:0:
128,332,35271,6,0,P|200:320|224:320,1,72,2|0,0:0|0:0,0:0:0:0:
320,272,35651,2,0,P|360:284|404:296,2,72,8|0|2,0:0|0:0|0:0,0:0:0:0:
172,224,36221,1,0,0:0:0:0:
280,348,36411,1,8,0:0:0:0:
280,348,36505,1,0,0:0:0:0:
280,348,36600,1,0,0:0:0:0:
236,144,36790,6,0,L|252:28,2,108,4|4|4,0:0|0:0|0:0,0:0:0:0:
200,280,37550,2,0,L|300:272,1,72,0|2,0:0|0:0,0:0:0:0:
296,276,37803,2,0,L|330:282,2,24,2|2|2,0:0|0:0|0:0,0:0:0:0:
412,200,38309,6,0,L|416:112,1,72,6|0,0:0|0:0,0:0:0:0:
288,56,38689,2,0,L|292:144,1,72,8|0,0:0|0:0,0:0:0:0:
440,224,39069,2,0,L|448:76,1,144,2|8,0:0|0:0,0:0:0:0:
368,24,39638,1,0,0:0:0:0:
291,127,39828,6,0,P|279:183|280:216,1,72,2|0,0:0|0:0,0:0:0:0:
312,288,40113,1,0,0:0:0:0:
320,300,40208,2,0,L|248:296,1,72,8|0,0:0|0:0,0:0:0:0:
112,220,40588,2,0,L|184:216,1,72,2|0,0:0|0:0,0:0:0:0:
112,328,40967,2,0,L|68:332,3,36,8|0|0|0,0:0|0:0|0:0|0:0,0:0:0:0:
48,360,41347,6,0,L|40:232,1,108,2|0,0:0|0:0,0:0:0:0:
36,216,41727,1,8,0:0:0:0:
164,124,41918,1,0,0:0:0:0:
164,124,42012,1,0,0:0:0:0:
164,124,42108,2,0,L|156:224,1,72,2|0,0:0|0:0,0:0:0:0:
148,292,42486,2,0,P|204:280|236:284,1,72,8|0,0:0|0:0,0:0:0:0:
352,336,42866,6,0,P|396:336|436:284,1,108,2|0,0:0|0:0,0:0:0:0:
440,252,43246,1,8,0:0:0:0:
332,168,43435,1,0,0:0:0:0:
332,168,43531,1,0,0:0:0:0:
332,168,43626,2,0,L|344:256,1,72,2|0,0:0|0:0,0:0:0:0:
424,144,44005,2,0,L|428:96,3,36,8|0|0|0,0:0|0:0|0:0|0:0,0:0:0:0:
432,72,44385,6,0,L|336:64,1,72,6|0,0:0|0:0,0:0:0:0:
272,48,44670,1,0,0:0:0:0:
256,44,44765,2,0,L|160:52,1,72,8|0,0:0|0:0,0:0:0:0:
112,160,45145,2,0,P|212:156|252:160,1,108,2|0,0:0|0:0,0:0:0:0:
256,164,45524,1,8,0:0:0:0:
184,49,45715,1,0,0:0:0:0:
40,128,45904,6,0,P|36:184|48:208,1,72,2|0,0:0|0:0,0:0:0:0:
185,118,46284,2,0,P|189:62|177:38,1,72,8|0,0:0|0:0,0:0:0:0:
20,144,46664,2,0,L|24:276,1,108,2|0,0:0|0:0,0:0:0:0:
24,288,47043,2,0,P|88:276|124:280,1,72,8|0,0:0|0:0,0:0:0:0:
216,324,47423,6,0,L|316:332,1,72,2|0,0:0|0:0,0:0:0:0:
384,168,47803,2,0,L|284:160,1,72,8|0,0:0|0:0,0:0:0:0:
184,240,48183,2,0,L|354:256,1,144,2|8,0:0|0:0,0:0:0:0:
364,260,48657,1,0,0:0:0:0:
364,260,48752,1,0,0:0:0:0:
220,148,48942,6,0,L|108:160,2,108,4|4|4,0:0|0:0|0:0,0:0:0:0:
376,64,49892,2,0,L|412:68,2,24,2|2|2,0:0|0:0|0:0,0:0:0:0:
356,48,50081,2,0,L|244:60,1,108,2|0,0:0|0:0,0:0:0:0:
212,60,50461,6,0,P|244:136|208:200,1,144,6|10,0:0|0:0,0:0:0:0:
44,252,51221,2,0,L|60:136,1,108,2|2,0:0|0:0,0:0:0:0:
68,104,51600,1,8,0:0:0:0:
152,236,51790,1,0,0:0:0:0:
160,244,51885,1,0,0:0:0:0:
168,252,51980,6,0,P|224:244|264:248,1,72
312,328,52360,1,8,0:0:0:0:
128,348,52550,2,0,P|80:320|76:220,1,144,2|0,0:0|0:0,0:0:0:0:
204,144,53119,1,8,0:0:0:0:
148,264,53309,1,0,0:0:0:0:
76,140,53499,6,0,P|40:148|0:156,2,72,2|0|8,0:0|0:0|0:0,0:0:0:0:
188,72,54069,1,0,0:0:0:0:
168,200,54259,1,2,0:0:0:0:
68,72,54448,1,0,0:0:0:0:
236,168,54638,1,8,0:0:0:0:
88,212,54828,1,0,0:0:0:0:
272,100,55018,6,0,B|311:97|311:97|344:110|344:110|392:107,1,108,2|0,0:0|0:0,0:0:0:0:
412,104,55398,2,0,P|404:148|404:180,1,72,8|0,0:0|0:0,0:0:0:0:
508,248,55778,1,0,0:0:0:0:
508,248,55873,1,0,0:0:0:0:
508,248,55968,1,0,0:0:0:0:
484,80,56157,2,0,P|457:46|409:30,1,72,10|0,0:0|0:0,0:0:0:0:
232,56,56537,6,0,B|248:108|248:108|240:212,1,144,6|10,0:0|0:0,0:0:0:0:
64,260,57297,2,0,L|72:124,1,108,2|2,0:0|0:0,0:0:0:0:
72,104,57676,1,8,0:0:0:0:
192,24,57866,1,0,0:0:0:0:
192,24,57961,1,0,0:0:0:0:
192,24,58056,6,0,L|188:108,1,72,2|0,0:0|0:0,0:0:0:0:
240,228,58436,1,8,0:0:0:0:
376,160,58626,2,0,P|412:196|392:292,1,144,2|0,0:0|0:0,0:0:0:0:
244,312,59195,1,10,0:0:0:0:
340,232,59385,1,0,0:0:0:0:
352,352,59575,6,0,L|296:356,3,36,2|2|2|2,0:0|0:0|0:0|0:0,0:0:0:0:
244,312,59955,2,0,L|188:316,3,36,2|2|2|2,0:0|0:0|0:0|0:0,0:0:0:0:
132,272,60335,1,2,0:0:0:0:
134,250,60429,1,2,0:0:0:0:
137,229,60524,1,2,0:0:0:0:
140,207,60619,1,2,0:0:0:0:
143,186,60714,1,2,0:0:0:0:
146,164,60809,1,2,0:0:0:0:
149,143,60904,1,2,0:0:0:0:
151,122,60999,1,2,0:0:0:0:
152,100,61094,6,0,L|248:108,1,72,4|0,0:0|0:0,0:0:0:0:
320,68,61379,2,0,L|308:168,1,72,4|0,0:0|0:0,0:0:0:0:
296,240,61665,1,4,0:0:0:0:
200,372,61854,2,0,L|236:364,5,24,2|2|2|2|2|2,0:0|0:0|0:0|0:0|0:0|0:0,0:0:0:0:
256,360,62233,2,0,L|346:369,1,72,8|0,0:0|0:0,0:0:0:0:
484,348,62613,6,0,L|472:232,1,90,6|0,0:0|0:0,0:0:0:0:
388,232,62898,1,0,0:0:0:0:
384,220,62993,2,0,L|396:104,1,90,8|0,0:0|0:0,0:0:0:0:
474,258,63373,2,0,P|426:314|326:298,1,180,2|8,0:0|0:0,0:0:0:0:
248,216,63942,1,2,0:0:0:0:
340,40,64132,6,0,L|356:176,1,135,2|0,0:0|0:0,0:0:0:0:
364,220,64512,1,8,0:0:0:0:
168,280,64702,1,0,0:0:0:0:
240,96,64892,1,2,0:0:0:0:
248,216,65081,1,2,0:0:0:0:
100,152,65271,1,10,0:0:0:0:
256,76,65461,1,2,0:0:0:0:
164,200,65651,6,0,P|114:228|73:224,1,90,2|0,0:0|0:0,0:0:0:0:
16,168,65936,1,0,0:0:0:0:
12,152,66031,2,0,L|32:40,1,90,8|0,0:0|0:0,0:0:0:0:
164,200,66411,1,2,0:0:0:0:
166,231,66505,1,2,0:0:0:0:
168,262,66600,1,2,0:0:0:0:
171,294,66695,1,2,0:0:0:0:
173,325,66790,2,0,P|216:292|268:252,1,90,10|0,0:0|0:0,0:0:0:0:
320,140,67170,6,0,P|420:168|504:188,2,180,2|8|0,0:0|0:0|0:0,0:0:0:0:
148,60,68119,2,0,L|96:68,1,45,2|2,0:0|0:0,0:0:0:0:
8,68,68309,2,0,L|40:109,1,45,10|2,0:0|0:0,0:0:0:0:
96,176,68499,1,2,0:0:0:0:
252,124,68689,6,0,L|264:20,1,90,6|0,0:0|0:0,0:0:0:0:
344,72,68975,1,0,0:0:0:0:
352,84,69070,2,0,L|364:188,1,90,8|0,0:0|0:0,0:0:0:0:
248,212,69448,2,0,P|196:188|196:60,1,180,2|8,0:0|0:0,0:0:0:0:
268,20,70019,1,0,0:0:0:0:
336,168,70208,6,0,B|328:312,1,135,2|0,0:0|0:0,0:0:0:0:
324,348,70588,1,8,0:0:0:0:
220,264,70778,1,0,0:0:0:0:
320,148,70967,2,0,L|416:132,1,90,2|0,0:0|0:0,0:0:0:0:
488,112,71347,1,10,0:0:0:0:
415,266,71537,1,0,0:0:0:0:
407,270,71632,1,0,0:0:0:0:
399,274,71727,6,0,L|244:264,1,135,2|0,0:0|0:0,0:0:0:0:
220,264,72107,2,0,P|236:212|232:172,1,90,8|0,0:0|0:0,0:0:0:0:
124,104,72486,2,0,P|108:156|112:196,1,90,0|2,0:0|0:0,0:0:0:0:
220,264,72866,1,10,0:0:0:0:
304,168,73056,1,2,0:0:0:0:
140,88,73246,6,0,L|44:96,1,90,4|0,0:0|0:0,0:0:0:0:
0,168,73532,2,0,L|96:176,1,90
172,196,73816,1,4,0:0:0:0:
296,280,74005,1,0,0:0:0:0:
356,184,74195,1,0,0:0:0:0:
364,176,74290,1,0,0:0:0:0:
372,168,74385,2,0,L|368:120,1,45
280,76,74575,2,0,L|284:124,1,45
452,188,74765,6,0,L|436:24,1,135,6|2,0:0|0:0,0:0:0:0:
432,8,75145,1,8,0:0:0:0:
280,76,75335,2,0,P|264:128|280:172,1,90,2|0,0:0|0:0,0:0:0:0:
400,248,75714,1,2,0:0:0:0:
344,124,75904,1,8,0:0:0:0:
216,256,76094,1,0,0:0:0:0:
208,264,76189,1,0,0:0:0:0:
200,272,76284,6,0,L|88:252,1,90,2|0,0:0|0:0,0:0:0:0:
28,304,76664,1,8,0:0:0:0:
116,144,76854,2,0,L|296:128,1,180,2|2,0:0|0:0,0:0:0:0:
372,240,77423,2,0,L|260:220,1,90,8|0,0:0|0:0,0:0:0:0:
161,108,77803,6,0,L|321:132,1,135,2|2,0:0|0:0,0:0:0:0:
340,140,78183,1,8,0:0:0:0:
436,296,78373,2,0,P|392:320|336:316,1,90,2|0,0:0|0:0,0:0:0:0:
216,244,78752,1,2,0:0:0:0:
340,140,78942,2,0,L|332:244,1,90,8|0,0:0|0:0,0:0:0:0:
188,344,79322,6,0,L|176:160,1,180,2|8,0:0|0:0,0:0:0:0:
300,72,79892,2,0,P|360:64|412:104,1,90,2|0,0:0|0:0,0:0:0:0:
436,196,80271,2,0,L|432:252,1,45,2|2,0:0|0:0,0:0:0:0:
328,292,80461,2,0,L|324:236,1,45,10|2,0:0|0:0,0:0:0:0:
344,140,80651,1,2,0:0:0:0:
404,324,80841,6,0,B|240:340,1,135,6|2,0:0|0:0,0:0:0:0:
224,340,81221,1,8,0:0:0:0:
136,184,81411,2,0,L|232:196,1,90,2|0,0:0|0:0,0:0:0:0:
324,247,81790,1,2,0:0:0:0:
224,340,81980,1,8,0:0:0:0:
72,240,82170,1,0,0:0:0:0:
72,240,82265,1,0,0:0:0:0:
72,240,82360,6,0,P|52:180|64:132,1,90,2|0,0:0|0:0,0:0:0:0:
156,56,82740,1,8,0:0:0:0:
234,160,82930,2,0,L|222:356,1,180,2|0,0:0|0:0,0:0:0:0:
132,288,83499,2,0,L|128:184,1,90,8|0,0:0|0:0,0:0:0:0:
332,96,83879,6,0,L|320:236,1,135,6|2,0:0|0:0,0:0:0:0:
316,280,84259,1,8,0:0:0:0:
240,156,84448,1,0,0:0:0:0:
240,156,84543,1,0,0:0:0:0:
240,156,84638,1,6,0:0:0:0:
416,68,84828,2,0,L|408:168,1,90,0|10,0:0|0:0,0:0:0:0:
256,228,85208,1,0,0:0:0:0:
252,236,85303,1,0,0:0:0:0:
248,244,85398,6,0,L|224:388,2,135,4|4|4,0:0|0:0|0:0,0:0:0:0:
216,68,86347,2,0,L|208:23,3,30,2|2|2|6,0:0|0:0|0:0|0:0,0:0:0:0:
