osu file format v14

[General]
AudioFilename: Naked Dive.mp3
AudioLeadIn: 0
PreviewTime: 62233
Countdown: 0
SampleSet: Soft
StackLeniency: 0.7
Mode: 0
LetterboxInBreaks: 0
WidescreenStoryboard: 0

[Editor]
DistanceSpacing: 1.2
BeatDivisor: 4
GridSize: 4
TimelineZoom: 1.5

[Metadata]
Title:Naked Dive (TV Ver.)
TitleUnicode:Naked Dive (TV Ver.)
Artist:SCREEN mode
ArtistUnicode:SCREEN mode
Creator:Hazu-
Version:Hard
Source:無彩限のファントム・ワールド
Tags:myriad colors musaigen no phantom world opening size shad0w1and
BeatmapID:928662
BeatmapSetID:401790

[Difficulty]
HPDrainRate:5
CircleSize:4
OverallDifficulty:5
ApproachRate:7
SliderMultiplier:1.5
SliderTickRate:1

[Events]
//Background and Video events
Video,0,"Naked Dive.avi"
0,0,"BG.png",0,0
//Break Periods
//Storyboard Layer 0 (Background)
//Storyboard Layer 1 (Fail)
//Storyboard Layer 2 (Pass)
//Storyboard Layer 3 (Foreground)
//Storyboard Sound Samples

[TimingPoints]
7930,379.746835443038,4,2,1,50,1,0
14005,-100,4,2,1,70,0,0
24638,-100,4,2,2,65,0,0
26157,-100,4,2,2,60,0,0
30999,-100,4,2,3,60,0,0
31189,-100,4,2,2,60,0,0
36790,-100,4,2,2,65,0,0
38309,-100,4,2,2,60,0,0
43151,-100,4,2,3,60,0,0
43341,-100,4,2,2,60,0,0
48942,-100,4,2,2,65,0,0
50461,-100,4,2,1,60,0,0
52265,-100,4,2,3,60,0,0
52455,-100,4,2,1,60,0,0
58341,-100,4,2,3,60,0,0
58531,-100,4,2,1,60,0,0
61854,-100,4,2,2,50,0,0
62233,-100,4,2,2,60,0,0
62613,-100,4,2,1,85,0,1
65936,-100,4,2,3,85,0,1
66126,-100,4,2,1,85,0,1
72012,-100,4,2,3,85,0,1
72202,-100,4,2,1,85,0,1
75050,-100,4,2,3,85,0,1
75240,-100,4,2,1,85,0,1
78088,-100,4,2,3,85,0,1
78278,-100,4,2,1,85,0,1
81126,-100,4,2,3,85,0,1
81316,-100,4,2,1,85,0,1
84164,-100,4,2,3,85,0,1
84354,-100,4,2,1,85,0,1
85398,-100,4,2,2,85,0,1
86347,-100,4,2,2,50,0,1
86537,-100,4,2,2,70,0,0

[Colours]
Combo1 : 114,179,26
Combo2 : 248,235,148
Combo3 : 181,169,166
Combo4 : 255,128,192

[HitObjects]
128,304,7929,6,0,L|136:164,1,112.5,2|2,0:0|0:0,0:0:0:0:
128,148,8309,2,0,L|216:164,1,75,0|0,0:0|0:0,0:0:0:0:
280,208,8689,2,0,L|424:196,2,112.5,2|2|2,0:0|0:0|0:0,0:0:0:0:
220,276,9448,6,0,P|172:264|124:268,1,75,0|2,0:0|0:0,0:0:0:0:
100,272,9734,1,2,0:0:0:0:
20,308,9923,2,0,L|16:252,1,37.5,2|2,0:0|0:0,0:0:0:0:
60,192,10208,2,0,L|52:68,2,112.5,2|2|2,0:0|0:0|0:0,0:0:0:0:
100,272,10967,6,0,L|140:280,3,37.5,0|0|0|0,0:0|0:0|0:0|0:0,0:0:0:0:
184,272,11348,2,0,L|224:280,3,37.5,0|0|0|0,0:0|0:0|0:0|0:0,0:0:0:0:
264,272,11727,2,0,L|304:280,3,37.5,0|0|0|0,0:0|0:0|0:0|0:0,0:0:0:0:
344,272,12108,2,0,L|384:280,3,37.5,0|0|0|0,0:0|0:0|0:0|0:0,0:0:0:0:
424,276,12486,5,4,0:3:0:0:
424,276,13246,2,0,L|436:320,2,37.5,2|2|2,0:0|0:0|0:0,0:0:0:0:
396,192,13626,2,0,L|400:112,1,75,2|2,0:0|0:0,0:0:0:0:
436,36,14005,6,0,B|344:52|344:52|280:36,1,150,6|10,0:0|0:0,0:0:0:0:
204,8,14575,1,0,0:0:0:0:
148,80,14765,2,0,P|128:136|132:176,1,75,2|0,0:0|0:0,0:0:0:0:
184,220,15145,2,0,L|276:216,1,75,10|0,0:0|0:0,0:0:0:0:
328,156,15524,6,0,B|344:252|344:252|328:312,1,150,2|10,0:0|0:0,0:0:0:0:
280,376,16094,1,0,0:0:0:0:
204,332,16284,2,0,L|124:324,1,75,2|0,0:0|0:0,0:0:0:0:
40,328,16664,2,0,P|24:280|24:248,1,75,10|2,0:0|0:0,0:0:0:0:
56,172,17043,6,0,L|104:164,3,37.5,2|2|2|2,0:0|0:0|0:0|0:0,0:0:0:0:
136,148,17423,2,0,L|216:164,1,75,10|0,0:0|0:0,0:0:0:0:
280,220,17803,2,0,L|328:212,3,37.5,2|2|2|2,0:0|0:0|0:0|0:0,0:0:0:0:
360,204,18183,1,8,0:0:0:0:
320,124,18373,1,2,0:0:0:0:
312,116,18467,1,2,0:0:0:0:
304,108,18562,6,0,L|264:100,3,37.5,2|2|2|2,0:0|0:0|0:0|0:0,0:0:0:0:
228,120,18942,2,0,L|224:4,2,112.5,10|2|0,0:0|0:0|0:0,0:0:0:0:
232,212,19702,2,0,L|184:220,2,37.5,10|2|2,0:0|0:0|0:0,0:0:0:0:
312,172,20081,6,0,L|304:344,1,150,6|10,0:0|0:0,0:0:0:0:
232,376,20651,1,0,0:0:0:0:
164,316,20841,2,0,P|104:304|76:308,1,75,2|0,0:0|0:0,0:0:0:0:
4,324,21221,2,0,L|12:220,1,75,10|0,0:0|0:0,0:0:0:0:
32,160,21600,6,0,B|84:172|84:172|196:160,1,150,2|10,0:0|0:0,0:0:0:0:
268,140,22169,1,0,0:0:0:0:
316,216,22360,2,0,P|328:264|320:308,1,75,2|0,0:0|0:0,0:0:0:0:
264,356,22740,2,0,L|176:344,1,75,10|2,0:0|0:0,0:0:0:0:
100,344,23119,6,0,L|92:288,3,37.5,4|0|0|0,0:0|0:0|0:0|0:0,0:0:0:0:
76,268,23499,2,0,L|109:222,3,37.5,8|0|0|0,0:0|0:0|0:0|0:0,0:0:0:0:
112,196,23879,2,0,L|168:188,3,37.5,0|0|0|0,0:0|0:0|0:0|0:0,0:0:0:0:
188,168,24259,2,0,L|233:201,3,37.5,8|0|0|0,0:0|0:0|0:0|0:0,0:0:0:0:
260,200,24638,6,0,L|388:192,2,112.5,4|4|4,0:0|0:0|0:0,0:0:0:0:
80,232,25588,1,2,0:0:0:0:
80,232,25778,2,0,L|84:116,1,112.5,2|0,0:0|0:0,0:0:0:0:
84,76,26157,6,0,L|172:88,1,75,6|0,0:0|0:0,0:0:0:0:
224,148,26537,2,0,L|312:136,1,75,8|0,0:0|0:0,0:0:0:0:
384,108,26917,2,0,B|372:204|372:204|388:268,1,150,2|8,0:0|0:0,0:0:0:0:
432,332,27486,1,0,0:0:0:0:
352,372,27676,6,0,L|220:356,1,112.5,2|0,0:0|0:0,0:0:0:0:
196,352,28056,2,0,P|208:312|208:260,1,75,8|0,0:0|0:0,0:0:0:0:
172,196,28436,1,2,0:0:0:0:
172,196,28626,1,0,0:0:0:0:
92,240,28816,2,0,L|52:244,3,37.5,8|0|0|0,0:0|0:0|0:0|0:0,0:0:0:0:
8,248,29195,6,0,P|16:184|16:144,1,75,2|0,0:0|0:0,0:0:0:0:
32,84,29575,2,0,L|120:92,1,75,8|0,0:0|0:0,0:0:0:0:
196,112,29955,2,0,B|268:140|268:92|352:124,1,150,2|8,0:0|0:0,0:0:0:0:
424,176,30524,1,0,0:0:0:0:
424,176,30619,1,0,0:0:0:0:
424,176,30714,6,0,P|440:220|444:260,1,75,2|0,0:0|0:0,0:0:0:0:
428,336,31094,1,8,0:0:0:0:
428,336,31285,2,0,P|372:320|336:316,1,75,0|2,0:0|0:0,0:0:0:0:
268,304,31664,1,0,0:0:0:0:
192,352,31854,2,0,L|148:356,3,37.5,8|0|0|0,0:0|0:0|0:0|0:0,0:0:0:0:
108,356,32233,6,0,P|112:300|108:256,1,75,6|0,0:0|0:0,0:0:0:0:
84,196,32613,2,0,L|176:204,1,75,8|0,0:0|0:0,0:0:0:0:
240,240,32993,1,2,0:0:0:0:
312,184,33183,1,0,0:0:0:0:
388,228,33373,2,0,P|400:184|392:144,1,75,8|0,0:0|0:0,0:0:0:0:
352,76,33752,6,0,L|224:64,1,112.5,2|0,0:0|0:0,0:0:0:0:
196,52,34132,2,0,P|204:116|204:152,1,75,8|0,0:0|0:0,0:0:0:0:
196,216,34512,1,2,0:0:0:0:
196,216,34702,1,0,0:0:0:0:
116,180,34892,2,0,P|68:184|24:196,1,75,8|0,0:0|0:0,0:0:0:0:
4,272,35271,6,0,L|12:360,1,75,2|0,0:0|0:0,0:0:0:0:
96,372,35651,2,0,L|184:364,1,75,8|0,0:0|0:0,0:0:0:0:
260,364,36031,2,0,P|252:308|260:268,1,75,2|0,0:0|0:0,0:0:0:0:
276,204,36411,1,8,0:0:0:0:
276,204,36505,1,0,0:0:0:0:
276,204,36600,1,0,0:0:0:0:
364,220,36790,6,0,L|480:204,2,112.5,4|4|4,0:0|0:0|0:0,0:0:0:0:
192,276,37740,2,0,L|160:264,3,25,2|2|2|2,0:0|0:0|0:0|0:0,0:0:0:0:
320,364,38309,6,0,L|332:272,1,75,6|0,0:0|0:0,0:0:0:0:
376,212,38689,2,0,L|366:137,1,75,8|0,0:0|0:0,0:0:0:0:
360,48,39069,2,0,B|308:51|308:51|261:70|261:70|209:74,1,150,2|8,0:0|0:0,0:0:0:0:
128,52,39638,1,0,0:0:0:0:
80,128,39828,6,0,P|64:184|72:220,1,75,2|0,0:0|0:0,0:0:0:0:
84,240,40113,1,0,0:0:0:0:
84,240,40208,2,0,P|100:296|92:332,1,75,8|0,0:0|0:0,0:0:0:0:
28,372,40588,2,0,P|104:352|184:356,1,150,2|8,0:0|0:0,0:0:0:0:
264,376,41157,1,0,0:0:0:0:
312,300,41347,6,0,P|324:248|304:176,1,112.5,2|0,0:0|0:0,0:0:0:0:
284,156,41727,2,0,L|209:149,1,75,8|0,0:0|0:0,0:0:0:0:
120,156,42107,2,0,P|132:96|128:68,1,75,2|0,0:0|0:0,0:0:0:0:
44,108,42486,2,0,P|32:168|36:196,1,75,8|0,0:0|0:0,0:0:0:0:
68,264,42866,6,0,B|120:252|120:252|228:264,1,150,2|8,0:0|0:0,0:0:0:0:
296,304,43436,1,0,0:0:0:0:
356,236,43626,2,0,P|368:188|364:160,1,75,2|0,0:0|0:0,0:0:0:0:
316,88,44005,2,0,L|264:92,3,37.5,8|0|0|0,0:0|0:0|0:0|0:0,0:0:0:0:
236,108,44385,6,0,L|152:100,1,75,6|0,0:0|0:0,0:0:0:0:
72,88,44765,2,0,P|80:136|80:176,1,75,8|0,0:0|0:0,0:0:0:0:
112,248,45145,2,0,P|68:240|20:248,2,75,2|0|8,0:0|0:0|0:0,0:0:0:0:
188,292,45713,1,0,0:0:0:0:
272,328,45905,6,0,P|316:336|364:328,1,75,2|0,0:0|0:0,0:0:0:0:
428,296,46285,2,0,L|420:204,1,75,8|0,0:0|0:0,0:0:0:0:
424,132,46664,2,0,B|368:152|368:152|256:140,1,150,2|8,0:0|0:0,0:0:0:0:
192,120,47233,1,0,0:0:0:0:
132,188,47423,6,0,L|124:280,1,75,2|0,0:0|0:0,0:0:0:0:
40,296,47803,2,0,L|32:204,1,75,8|0,0:0|0:0,0:0:0:0:
20,132,48183,2,0,P|60:64|144:56,1,150,2|8,0:0|0:0,0:0:0:0:
168,68,48657,1,0,0:0:0:0:
168,68,48752,1,0,0:0:0:0:
240,124,48942,6,0,P|256:76|236:8,2,112.5,4|4|4,0:0|0:0|0:0,0:0:0:0:
120,260,49892,1,2,0:0:0:0:
120,260,50081,2,0,L|248:288,1,112.5,2|0,0:0|0:0,0:0:0:0:
272,304,50461,6,0,B|281:252|281:252|313:214|313:214|323:167,1,150,6|10,0:0|0:0,0:0:0:0:
484,84,51221,2,0,L|464:204,1,112.5,2|2,0:0|0:0,0:0:0:0:
460,240,51600,2,0,P|408:228|372:228,1,75,8|0,0:0|0:0,0:0:0:0:
304,264,51980,6,0,L|220:252,1,75,0|0,0:0|0:0,0:0:0:0:
144,280,52360,1,8,0:0:0:0:
96,204,52550,2,0,P|80:144|144:64,1,150,2|0,0:0|0:0,0:0:0:0:
212,48,53119,2,0,L|300:60,1,75,8|0,0:0|0:0,0:0:0:0:
376,76,53499,6,0,B|392:148|332:160|368:236,1,150,2|8,0:0|0:0,0:0:0:0:
404,300,54069,1,0,0:0:0:0:
328,348,54259,2,0,P|272:360|240:352,1,75,2|0,0:0|0:0,0:0:0:0:
184,304,54638,2,0,P|128:292|96:300,1,75,8|0,0:0|0:0,0:0:0:0:
60,368,55018,6,0,B|72:260|72:260|60:208,1,150,2|8,0:0|0:0,0:0:0:0:
32,136,55588,2,0,L|120:144,1,75,0|0,0:0|0:0,0:0:0:0:
148,164,55873,1,0,0:0:0:0:
148,164,55967,2,0,L|236:156,1,75,0|10,0:0|0:0,0:0:0:0:
304,200,56348,1,0,0:0:0:0:
368,136,56537,6,0,P|384:96|328:8,1,150,6|10,0:0|0:0,0:0:0:0:
164,72,57297,2,0,L|32:64,1,112.5,2|2,0:0|0:0,0:0:0:0:
8,60,57676,2,0,P|20:108|24:160,1,75,8|0,0:0|0:0,0:0:0:0:
32,224,58056,6,0,P|104:192|188:224,1,150,2|8,0:0|0:0,0:0:0:0:
204,296,58626,2,0,L|224:136,1,150,2|0,0:0|0:0,0:0:0:0:
300,100,59195,2,0,L|312:208,1,75,10|0,0:0|0:0,0:0:0:0:
344,260,59575,6,0,L|328:304,3,37.5,2|2|2|2,0:0|0:0|0:0|0:0,0:0:0:0:
320,340,59955,2,0,L|277:359,3,37.5,2|2|2|2,0:0|0:0|0:0|0:0,0:0:0:0:
244,372,60335,2,0,L|199:356,3,37.5,2|2|2|2,0:0|0:0|0:0|0:0,0:0:0:0:
164,364,60714,2,0,L|144:321,3,37.5,2|2|2|2,0:0|0:0|0:0|0:0,0:0:0:0:
104,316,61094,6,0,L|120:184,2,112.5,4|4|4,0:0|0:0|0:0,0:0:0:0:
24,276,61854,2,0,L|44:116,1,150,2|8,0:0|0:0,0:0:0:0:
108,64,62423,1,0,0:0:0:0:
172,124,62613,6,0,B|212:136|212:136|288:124,1,112.5,6|0,0:0|0:0,0:0:0:0:
324,112,62993,2,0,P|324:160|336:208,1,75,8|0,0:0|0:0,0:0:0:0:
412,156,63372,2,0,P|412:108|400:60,1,75,2|0,0:0|0:0,0:0:0:0:
332,32,63752,2,0,L|248:28,1,75,8|2,0:0|0:0,0:0:0:0:
165,15,64132,6,0,P|181:75|157:151,1,112.5,2|0,0:0|0:0,0:0:0:0:
152,164,64512,1,8,0:0:0:0:
108,244,64702,2,0,P|92:304|104:344,1,75,0|2,0:0|0:0,0:0:0:0:
172,360,65081,1,2,0:0:0:0:
172,360,65271,2,0,L|256:352,1,75,10|2,0:0|0:0,0:0:0:0:
336,364,65651,6,0,P|324:312|336:276,1,75,2|0,0:0|0:0,0:0:0:0:
356,256,65936,1,0,0:0:0:0:
356,256,66031,2,0,P|376:220|380:176,1,75,8|0,0:0|0:0,0:0:0:0:
396,96,66411,2,0,L|348:80,3,37.5,2|2|2|2,0:0|0:0|0:0|0:0,0:0:0:0:
320,64,66790,2,0,L|236:76,1,75,10|0,0:0|0:0,0:0:0:0:
164,112,67170,6,0,P|112:76|4:100,2,150,2|8|0,0:0|0:0|0:0,0:0:0:0:
216,188,68119,2,0,L|208:248,3,37.5,2|2|10|2,0:0|0:0|0:0|0:0,0:0:0:0:
204,272,68499,1,2,0:0:0:0:
128,316,68689,6,0,L|116:184,1,112.5,6|0,0:0|0:0,0:0:0:0:
112,160,69069,2,0,P|68:168|36:160,1,75,8|0,0:0|0:0,0:0:0:0:
76,80,69448,2,0,P|120:72|152:80,1,75,2|0,0:0|0:0,0:0:0:0:
232,120,69828,2,0,P|276:128|308:120,1,75,8|0,0:0|0:0,0:0:0:0:
388,84,70208,6,0,L|380:212,1,112.5,2|0,0:0|0:0,0:0:0:0:
376,240,70588,1,8,0:0:0:0:
372,324,70778,1,0,0:0:0:0:
372,324,70967,2,0,P|300:296|228:308,1,150,2|10,0:0|0:0,0:0:0:0:
148,348,71537,1,0,0:0:0:0:
148,348,71632,1,0,0:0:0:0:
148,348,71727,6,0,L|144:248,1,75,2|0,0:0|0:0,0:0:0:0:
132,184,72108,1,8,0:0:0:0:
132,184,72297,2,0,B|180:196|180:196|292:184,1,150,0|2,0:0|0:0,0:0:0:0:
368,208,72866,2,0,L|372:128,1,75,10|2,0:0|0:0,0:0:0:0:
388,44,73246,6,0,L|272:52,1,112.5,4|0,0:0|0:0,0:0:0:0:
232,60,73627,1,0,0:0:0:0:
164,116,73816,2,0,P|160:180|172:204,1,75,4|0,0:0|0:0,0:0:0:0:
224,256,74195,1,0,0:0:0:0:
224,256,74290,1,0,0:0:0:0:
224,256,74385,2,0,L|288:264,3,37.5
304,280,74765,6,0,P|312:204|376:144,1,150,6|8,0:0|0:0,0:0:0:0:
448,136,75335,2,0,L|296:92,1,150,2|2,0:0|0:0,0:0:0:0:
224,52,75904,1,8,0:0:0:0:
160,116,76094,1,0,0:0:0:0:
160,116,76189,1,0,0:0:0:0:
160,116,76284,6,0,P|148:168|156:192,1,75,2|0,0:0|0:0,0:0:0:0:
212,256,76664,1,8,0:0:0:0:
284,204,76854,2,0,P|300:272|236:344,1,150,2|2,0:0|0:0,0:0:0:0:
168,340,77423,2,0,L|88:348,1,75,8|0,0:0|0:0,0:0:0:0:
8,376,77803,6,0,B|24:280|24:280|16:220,1,150,2|8,0:0|0:0,0:0:0:0:
4,136,78373,2,0,P|84:152|180:156,1,150,2|2,0:0|0:0,0:0:0:0:
236,124,78942,2,0,L|244:208,1,75,8|0,0:0|0:0,0:0:0:0:
272,284,79322,6,0,P|224:272|136:332,1,150,2|8,0:0|0:0,0:0:0:0:
64,364,79892,2,0,L|76:192,1,150,2|2,0:0|0:0,0:0:0:0:
120,136,80461,2,0,L|116:88,2,37.5,10|2|2,0:0|0:0|0:0,0:0:0:0:
176,208,80841,6,0,B|256:232|256:184|336:216,1,150,6|8,0:0|0:0,0:0:0:0:
400,260,81411,2,0,P|364:208|392:116,1,150,2|2,0:0|0:0,0:0:0:0:
456,76,81980,1,8,0:0:0:0:
376,32,82170,1,0,0:0:0:0:
376,32,82265,1,0,0:0:0:0:
376,32,82360,6,0,P|316:24|276:24,1,75,2|0,0:0|0:0,0:0:0:0:
220,64,82740,1,8,0:0:0:0:
244,152,82930,2,0,B|249:199|249:199|230:249|230:249|235:297,1,150,2|0,0:0|0:0,0:0:0:0:
300,360,83499,2,0,P|352:344|396:340,1,75,8|0,0:0|0:0,0:0:0:0:
460,360,83879,6,0,B|440:268|440:268|448:200,1,150,6|8,0:0|0:0,0:0:0:0:
464,124,84448,1,0,0:0:0:0:
376,136,84638,2,0,P|304:132|224:112,1,150,6|10,0:0|0:0,0:0:0:0:
144,80,85209,1,0,0:0:0:0:
80,144,85398,6,0,P|52:208|68:272,2,112.5,4|4|4,0:0|0:0|0:0,0:0:0:0:
224,36,86347,2,0,L|264:28,3,25,2|2|2|6,0:0|0:0|0:0|0:0,0:0:0:0:
