osu file format v14

[General]
AudioFilename: Naked Dive.mp3
AudioLeadIn: 0
PreviewTime: 62233
Countdown: 0
SampleSet: Soft
StackLeniency: 0.7
Mode: 0
LetterboxInBreaks: 0
WidescreenStoryboard: 0

[Editor]
DistanceSpacing: 1
BeatDivisor: 4
GridSize: 4
TimelineZoom: 1.5

[Metadata]
Title:Naked Dive (TV Ver.)
TitleUnicode:Naked Dive (TV Ver.)
Artist:SCREEN mode
ArtistUnicode:SCREEN mode
Creator:Hazu-
Version:Easy
Source:無彩限のファントム・ワールド
Tags:myriad colors musaigen no phantom world opening size shad0w1and
BeatmapID:877778
BeatmapSetID:401790

[Difficulty]
HPDrainRate:2
CircleSize:3
OverallDifficulty:2
ApproachRate:3
SliderMultiplier:0.9
SliderTickRate:1

[Events]
//Background and Video events
Video,0,"Naked Dive.avi"
0,0,"BG.png",0,0
//Break Periods
//Storyboard Layer 0 (Background)
//Storyboard Layer 1 (Fail)
//Storyboard Layer 2 (Pass)
//Storyboard Layer 3 (Foreground)
//Storyboard Sound Samples

[TimingPoints]
7930,379.746835443038,4,2,1,50,1,0
14005,-100,4,2,1,70,0,0
24638,-100,4,2,2,65,0,0
26157,-100,4,2,2,60,0,0
30999,-100,4,2,3,60,0,0
31189,-100,4,2,2,60,0,0
36790,-100,4,2,2,65,0,0
38309,-100,4,2,2,60,0,0
43151,-100,4,2,3,60,0,0
43341,-100,4,2,2,60,0,0
48942,-100,4,2,2,65,0,0
50461,-100,4,2,1,60,0,0
52265,-100,4,2,3,60,0,0
52455,-100,4,2,1,60,0,0
58341,-100,4,2,3,60,0,0
58531,-100,4,2,1,60,0,0
61854,-100,4,2,2,50,0,0
62233,-100,4,2,2,60,0,0
62613,-100,4,2,1,85,0,1
65936,-100,4,2,3,85,0,1
66126,-100,4,2,1,85,0,1
72012,-100,4,2,3,85,0,1
72202,-100,4,2,1,85,0,1
75050,-100,4,2,3,85,0,1
75240,-100,4,2,1,85,0,1
78088,-100,4,2,3,85,0,1
78278,-100,4,2,1,85,0,1
81126,-100,4,2,3,85,0,1
81316,-100,4,2,1,85,0,1
84164,-100,4,2,3,85,0,1
84354,-100,4,2,1,85,0,1
85398,-100,4,2,2,85,0,1
86347,-100,4,2,2,50,0,1
86537,-100,4,2,2,70,0,0

[Colours]
Combo1 : 114,179,26
Combo2 : 248,235,148
Combo3 : 181,169,166
Combo4 : 255,128,192

[HitObjects]
156,112,7929,6,0,L|164:220,1,90,2|2,0:0|0:0,0:0:0:0:
172,292,8689,2,0,P|252:280|316:296,2,135,2|2|0,0:0|0:0|0:0,0:0:0:0:
84,316,10209,2,0,L|72:208,1,90,2|0,0:0|0:0,0:0:0:0:
80,136,10967,6,0,B|148:108|212:152|212:152|276:192|344:152,1,270,0|0,0:0|0:0,0:0:0:0:
412,108,12486,1,4,0:3:0:0:
496,268,13246,2,0,P|508:312|492:360,1,90,2|2,0:0|0:0,0:0:0:0:
408,372,14005,6,0,L|308:368,1,90,6|10,0:0|0:0,0:0:0:0:
232,348,14765,2,0,P|224:308|232:248,1,90,2|10,0:0|0:0,0:0:0:0:
268,180,15524,1,2,0:0:0:0:
352,212,15904,2,0,P|428:208|440:204,2,90,10|2|10,0:0|0:0|0:0,0:0:0:0:
268,180,17043,6,0,P|192:184|180:188,1,90,2|10,0:0|0:0,0:0:0:0:
116,252,17803,2,0,L|108:356,1,90,2|10,0:0|0:0,0:0:0:0:
20,360,18562,2,0,L|8:180,1,180,2|0,0:0|0:0,0:0:0:0:
52,100,19702,1,10,0:0:0:0:
132,140,20081,6,0,P|180:148|236:140,1,90,6|10,0:0|0:0,0:0:0:0:
304,108,20841,2,0,P|316:156|312:212,1,90,2|10,0:0|0:0,0:0:0:0:
300,284,21600,1,2,0:0:0:0:
384,256,21980,2,0,P|448:244|484:252,2,90,10|2|10,0:0|0:0|0:0,0:0:0:0:
300,284,23119,6,0,P|192:216|276:156,1,270,4|8,0:0|0:0,0:0:0:0:
360,176,24638,2,0,L|348:28,2,135,4|4|2,0:0|0:0|0:0,0:0:0:0:
364,264,26157,6,0,P|316:268|268:292,1,90,6|8,0:0|0:0,0:0:0:0:
200,332,26917,2,0,P|152:328|104:304,1,90,2|8,0:0|0:0,0:0:0:0:
40,260,27676,2,0,L|20:352,2,90,2|8|2,0:0|0:0|0:0,0:0:0:0:
72,176,28815,1,8,0:0:0:0:
156,212,29195,6,0,P|200:216|256:200,1,90,2|8,0:0|0:0,0:0:0:0:
312,144,29955,2,0,P|336:196|332:236,1,90,2|8,0:0|0:0,0:0:0:0:
300,312,30714,2,0,P|368:312|420:256,2,135,2|0|8,0:0|0:0|0:0,0:0:0:0:
212,304,32233,6,0,P|224:248|220:216,1,90,6|8,0:0|0:0,0:0:0:0:
176,136,32993,2,0,L|80:128,1,90,2|8,0:0|0:0,0:0:0:0:
4,164,33752,2,0,P|4:124|0:68,2,90,2|8|2,0:0|0:0|0:0,0:0:0:0:
12,252,34892,1,8,0:0:0:0:
100,232,35271,6,0,P|136:224|192:231,1,90,2|8,0:0|0:0,0:0:0:0:
272,268,36031,2,0,L|276:172,1,90,2|8,0:0|0:0,0:0:0:0:
268,88,36790,2,0,P|328:104|364:164,2,135,4|4|2,0:0|0:0|0:0,0:0:0:0:
180,112,38309,6,0,L|76:104,1,90,6|8,0:0|0:0,0:0:0:0:
56,188,39069,2,0,L|160:196,1,90,2|8,0:0|0:0,0:0:0:0:
232,224,39828,2,0,P|268:208|328:208,2,90,2|8|2,0:0|0:0|0:0,0:0:0:0:
164,284,40967,1,8,0:0:0:0:
108,212,41347,6,0,P|100:164|108:116,1,90,2|8,0:0|0:0,0:0:0:0:
164,56,42107,2,0,L|256:64,1,90,2|8,0:0|0:0,0:0:0:0:
340,40,42866,2,0,B|349:99|349:99|327:163|327:163|336:222,1,180,2|2,0:0|0:0,0:0:0:0:
376,296,44005,1,8,0:0:0:0:
300,344,44385,6,0,P|256:356|208:344,1,90,6|8,0:0|0:0,0:0:0:0:
144,288,45144,2,0,L|152:192,1,90,2|8,0:0|0:0,0:0:0:0:
220,140,45904,2,0,L|212:44,2,90,2|8|2,0:0|0:0|0:0,0:0:0:0:
268,216,47043,1,8,0:0:0:0:
344,168,47423,6,0,P|396:156|440:164,1,90,2|8,0:0|0:0,0:0:0:0:
436,252,48183,2,0,P|384:264|340:256,1,90,2|8,0:0|0:0,0:0:0:0:
268,216,48942,2,0,P|256:260|308:340,2,135,4|4|0,0:0|0:0|0:0,0:0:0:0:
312,140,50461,5,6,0:0:0:0:
248,80,50841,2,0,B|196:56|196:56|68:68,1,180,10|8,0:0|0:0,0:0:0:0:
20,140,51980,2,0,P|0:180|0:272,2,135,0|2|8,0:0|0:0|0:0,0:0:0:0:
76,68,53499,6,0,P|128:80|180:68,1,90,2|8,0:0|0:0,0:0:0:0:
248,40,54259,2,0,P|300:28|352:40,1,90,2|8,0:0|0:0,0:0:0:0:
412,80,55018,2,0,L|428:176,1,90,2|8,0:0|0:0,0:0:0:0:
452,256,55778,2,0,P|408:252|352:260,1,90,0|10,0:0|0:0,0:0:0:0:
280,296,56537,5,6,0:0:0:0:
220,228,56917,2,0,B|207:165|207:165|230:111|230:111|217:45,1,180,10|8,0:0|0:0,0:0:0:0:
140,100,58056,2,0,L|0:84,2,135,2|2|10,0:0|0:0|0:0,0:0:0:0:
220,144,59575,6,0,P|320:88|420:188,1,270,6|2,0:0|0:0,0:0:0:0:
380,264,61094,2,0,B|320:248|320:248|200:252,1,180,4|2,0:0|0:0,0:0:0:0:
124,296,62233,1,8,0:0:0:0:
72,224,62613,6,0,P|64:188|84:120,1,90,6|8,0:0|0:0,0:0:0:0:
144,76,63373,2,0,L|236:88,1,90,2|8,0:0|0:0,0:0:0:0:
312,132,64132,2,0,L|328:40,2,90,2|8|2,0:0|0:0|0:0,0:0:0:0:
288,220,65271,1,10,0:0:0:0:
200,204,65651,6,0,B|108:196|108:196|64:216,2,135,2|0|10,0:0|0:0|0:0,0:0:0:0:
288,220,67170,2,0,P|300:288|304:320,2,90,2|8|0,0:0|0:0|0:0,0:0:0:0:
260,136,68309,1,10,0:0:0:0:
179,176,68689,6,0,P|135:180|90:178,1,90,6|8,0:0|0:0,0:0:0:0:
8,144,69448,2,0,L|16:244,1,90,2|8,0:0|0:0,0:0:0:0:
92,280,70208,2,0,L|84:369,2,90,2|8|2,0:0|0:0|0:0,0:0:0:0:
148,212,71347,1,10,0:0:0:0:
228,256,71727,6,0,P|300:264|364:240,2,135,2|0|10,0:0|0:0|0:0,0:0:0:0:
148,212,73246,2,0,P|105:270|93:337,2,135,4|4|0,0:0|0:0|0:0,0:0:0:0:
224,164,74765,6,0,P|194:97|142:54,2,135,6|2|8,0:0|0:0|0:0,0:0:0:0:
228,256,76284,2,0,L|324:240,1,90,2|8,0:0|0:0,0:0:0:0:
396,196,77043,2,0,P|408:228|392:292,1,90,0|8,0:0|0:0,0:0:0:0:
364,364,77803,6,0,L|512:376,2,135,2|2|8,0:0|0:0|0:0,0:0:0:0:
288,316,79322,2,0,L|192:324,1,90,2|8,0:0|0:0,0:0:0:0:
108,340,80081,2,0,P|120:292|116:244,1,90,0|10,0:0|0:0,0:0:0:0:
68,176,80841,6,0,P|52:112|80:36,2,135,6|2|8,0:0|0:0|0:0,0:0:0:0:
117,251,82360,2,0,P|149:239|217:243,1,90,2|8,0:0|0:0,0:0:0:0:
288,268,83119,2,0,L|284:160,1,90,0|8,0:0|0:0,0:0:0:0:
292,88,83879,6,0,B|204:124|204:68|108:100,1,180,6|6,0:0|0:0,0:0:0:0:
44,152,85019,1,10,0:0:0:0:
104,220,85398,2,0,P|132:272|124:360,2,135,4|4|6,0:0|0:0|0:0,0:0:0:0:
