osu file format v14

[General]
AudioFilename: SCREEN mode - Naked Drive.mp3
AudioLeadIn: 0
PreviewTime: 62034
Countdown: 0
SampleSet: Soft
StackLeniency: 0.5
Mode: 0
LetterboxInBreaks: 1
WidescreenStoryboard: 0

[Editor]
Bookmarks: 10803
DistanceSpacing: 1
BeatDivisor: 4
GridSize: 32
TimelineZoom: 2.3

[Metadata]
Title:Naked Dive (TV Size)
TitleUnicode:Naked Dive (TV Size)
Artist:SCREEN mode
ArtistUnicode:SCREEN mode
Creator:Kuro Fuyusaki
Version:Phantom
Source:無彩限のファントム・ワールド
Tags:musaigen no phantom world fattypikachu CyberX kjounouchi mai kawakami reina izumi koito minase kurumi kumamakura ruru
BeatmapID:1363224
BeatmapSetID:406350

[Difficulty]
HPDrainRate:7
CircleSize:4
OverallDifficulty:8
ApproachRate:9.3
SliderMultiplier:2.2
SliderTickRate:1

[Events]
//Background and Video events
0,0,"BG.jpg",0,0
Video,-172,"OP.avi"
//Break Periods
//Storyboard Layer 0 (Background)
//Storyboard Layer 1 (Fail)
//Storyboard Layer 2 (Pass)
//Storyboard Layer 3 (Foreground)
//Storyboard Sound Samples

[TimingPoints]
235,545.454545454546,4,2,5,10,1,0
2416,500,4,2,5,10,1,0
3416,461.538461538462,4,2,5,10,1,0
4339,428.571428571429,4,2,5,12,1,0
5196,413.793103448276,4,2,5,16,1,0
6023,379.746835443038,4,2,5,20,1,0
7541,379.746835443038,4,2,5,34,1,0
10578,-100,4,2,5,24,0,0
10958,-100,4,2,5,34,0,0
11338,-100,4,2,5,44,0,0
11718,-100,4,2,5,54,0,0
12097,-147.058823529412,4,2,5,30,0,0
12287,-147.058823529412,4,2,0,5,0,0
12857,-100,4,2,0,30,0,0
13616,-89.2857142857143,4,2,4,70,0,0
18838,-100,4,2,4,70,0,0
19692,-89.2857142857143,4,2,4,70,0,0
22730,-100,4,2,4,30,0,0
23110,-100,4,2,4,36,0,0
23490,-100,4,2,4,42,0,0
23870,-100,4,2,4,52,0,0
24249,-66.6666666666667,4,2,4,70,0,0
24439,-100,4,2,0,5,0,0
24534,-66.6666666666667,4,2,4,70,0,0
24724,-100,4,2,0,5,0,0
24819,-100,4,2,4,70,0,0
25199,-80,4,2,4,70,0,0
25768,-147.058823529412,4,2,3,50,0,0
27952,-113.636363636364,4,2,3,50,0,0
28806,-147.058823529412,4,2,3,50,0,0
30990,-113.636363636364,4,2,3,50,0,0
32414,-147.058823529412,4,2,3,50,0,0
34028,-113.636363636364,4,2,3,50,0,0
34882,-147.058823529412,4,2,3,50,0,0
36401,-81.9672131147541,4,2,4,70,0,0
36591,-100,4,2,0,5,0,0
36686,-81.9672131147541,4,2,4,70,0,0
36876,-100,4,2,0,5,0,0
36971,-113.636363636364,4,2,4,70,0,0
37541,-100,4,2,4,50,0,0
37920,-100,4,2,3,50,0,0
48553,-81.9672131147541,4,2,4,70,0,0
48743,-100,4,2,0,5,0,0
48838,-81.9672131147541,4,2,4,70,0,0
49028,-100,4,2,0,5,0,0
49123,-113.636363636364,4,2,4,70,0,0
49503,-81.9672131147541,4,2,4,70,0,0
50072,-100,4,2,4,55,0,0
59186,-100,4,2,4,30,0,0
59566,-100,4,2,4,36,0,0
59946,-100,4,2,4,46,0,0
60325,-100,4,2,4,56,0,0
60705,-66.6666666666667,4,2,4,70,0,0
62034,-66.6666666666667,4,2,0,5,0,0
62224,-75.7575757575758,4,2,4,72,0,1
72857,-66.6666666666667,4,2,4,72,0,1
73616,-50,4,2,4,72,0,1
74376,-75.7575757575758,4,2,4,72,0,1
85009,-50,4,2,4,72,0,1
85578,-66.6666666666667,4,2,4,72,0,1
86528,-100,4,2,0,5,0,0

[Colours]
Combo1 : 0,255,255
Combo2 : 235,237,250
Combo3 : 131,131,131
Combo4 : 255,102,204
Combo5 : 250,196,31
Combo6 : 29,152,226

[HitObjects]
124,133,235,6,0,L|124:78,2,55
214,220,644,2,0,L|213:274,2,55
311,143,1053,2,0,L|311:88,1,55
423,61,1325,6,0,L|423:171,1,110,8|0,0:0|0:0,0:0:0:0:
313,334,1735,2,0,L|313:224,1,110
425,258,2144,2,0,L|425:313,1,55
197,331,2416,70,0,P|180:310|171:285,2,55
339,286,2791,2,0,P|329:312|312:334,2,55
256,163,3166,2,0,L|256:218,1,55
67,203,3416,6,0,L|176:203,1,110,8|0,0:0|0:0,0:0:0:0:
340,286,3762,2,0,L|230:286,1,110
229,109,4108,2,0,P|256:104|284:106,1,55
469,208,4339,70,0,L|465:262,2,55
328,246,4660,2,0,L|324:300,2,55
189,283,4981,2,0,L|184:337,1,55
39,359,5196,6,0,L|45:305,1,55,8|0,0:0|0:0,0:0:0:0:
161,174,5402,2,0,L|163:228,1,55
326,245,5609,2,0,L|329:299,1,55
183,363,5816,2,0,L|187:308,1,55
256,192,6023,12,0,7162,0:0:0:0:
320,343,7541,6,0,P|346:297|340:243,1,110,2|0,0:0|0:0,0:0:0:0:
440,186,7825,2,0,P|379:132|298:136,1,165,2|2,0:0|0:0,0:0:0:0:
209,208,8205,1,2,0:0:0:0:
180,222,8300,6,0,L|70:227,1,110,2|0,0:0|0:0,0:0:0:0:
156,134,8585,2,0,L|265:127,1,110,2|0,0:0|0:0,0:0:0:0:
298,136,8870,1,2,0:0:0:0:
230,330,9059,1,0,0:0:0:0:
156,134,9249,5,2,0:0:0:0:
161,121,9344,1,2,0:0:0:0:
370,87,9534,1,2,0:0:0:0:
383,97,9629,1,2,0:0:0:0:
412,300,9819,6,0,P|358:297|320:259,1,110,2|0,0:0|0:0,0:0:0:0:
256,107,10104,2,0,L|235:215,1,110,2|0,0:0|0:0,0:0:0:0:
146,269,10389,2,0,L|154:323,1,55,2|0,0:0|0:0,0:0:0:0:
412,301,10578,37,2,0:0:0:0:
448,287,10673,1,0,0:0:0:0:
469,255,10768,1,0,0:0:0:0:
470,216,10863,1,2,0:0:0:0:
447,178,10958,5,0,0:0:0:0:
404,167,11053,1,0,0:0:0:0:
359,184,11148,1,2,0:0:0:0:
341,224,11243,1,2,0:0:0:0:
342,267,11338,5,2,0:0:0:0:
324,308,11433,1,0,0:0:0:0:
289,335,11528,1,0,0:0:0:0:
246,344,11623,1,2,0:0:0:0:
192,329,11718,5,0,0:0:0:0:
157,285,11813,1,0,0:0:0:0:
150,230,11908,1,2,0:0:0:0:
171,179,12003,1,0,0:0:0:0:
212,146,12097,6,0,B|168:145|141:119|141:119|114:146|75:144,1,149.600000913086
261,52,12857,5,2,0:0:0:0:
267,56,12952,1,2,0:0:0:0:
274,62,13047,1,2,0:0:0:0:
141,120,13237,1,0,0:0:0:0:
283,233,13427,1,0,0:0:0:0:
88,236,13616,22,0,B|53:238|35:275|35:275|79:322|86:377,1,184.800002255859,6|0,0:0|0:0,0:0:0:0:
192,287,13996,2,0,P|204:236|176:158,1,123.200001503906,8|0,0:0|0:0,0:0:0:0:
106,114,14281,1,0,0:0:0:0:
98,156,14376,1,2,0:0:0:0:
283,233,14566,2,0,L|274:171,1,61.6000007519531
333,87,14756,1,8,0:0:0:0:
178,286,14946,1,0,0:0:0:0:
445,267,15135,6,0,B|476:156|476:156|438:97,1,184.800002255859,2|0,0:0|0:0,0:0:0:0:
333,87,15515,2,0,P|332:148|373:192,1,123.200001503906,8|0,0:0|0:0,0:0:0:0:
444,266,15800,2,0,P|430:325|377:353,1,123.200001503906
276,323,16085,2,0,L|276:261,1,61.6000007519531
365,210,16275,2,0,L|365:271,1,61.6000007519531,8|0,0:0|0:0,0:0:0:0:
192,301,16465,1,0,0:0:0:0:
84,121,16654,54,0,L|107:178,1,61.6000007519531,2|0,0:0|0:0,0:0:0:0:
253,129,16844,2,0,L|191:127,1,61.6000007519531
58,267,17034,2,0,L|181:267,1,123.200001503906,8|0,0:0|0:0,0:0:0:0:
332,311,17319,1,0,0:0:0:0:
332,311,17414,6,0,L|319:250,1,61.6000007519531,2|0,0:0|0:0,0:0:0:0:
253,129,17604,2,0,L|312:145,1,61.6000007519531
458,261,17794,2,0,L|488:141,1,123.200001503906,8|0,0:0|0:0,0:0:0:0:
330,60,18078,1,0,0:0:0:0:
330,60,18173,6,0,L|271:78,1,61.6000007519531,2|0,0:0|0:0,0:0:0:0:
381,227,18363,2,0,L|364:167,1,61.6000007519531
169,78,18553,2,0,P|150:135|178:189,1,123.200001503906,8|0,0:0|0:0,0:0:0:0:
315,211,18838,6,0,L|205:214,1,110
96,204,19123,1,0,0:0:0:0:
253,324,19313,5,8,0:0:0:0:
256,316,19408,1,0,0:0:0:0:
258,310,19503,1,0,0:0:0:0:
170,79,19692,22,0,P|239:133|222:219,1,184.800002255859,6|0,0:0|0:0,0:0:0:0:
127,282,20072,2,0,B|161:264|161:264|245:274,1,123.200001503906,8|0,0:0|0:0,0:0:0:0:
329,340,20357,1,0,0:0:0:0:
368,348,20452,2,0,P|426:334|447:278,1,123.200001503906,2|0,0:0|0:0,0:0:0:0:
397,138,20737,1,0,0:0:0:0:
365,116,20832,2,0,L|241:119,1,123.200001503906,8|0,0:0|0:0,0:0:0:0:
111,255,21211,38,0,B|246:249|246:249|212:212,1,184.800002255859,2|0,0:0|0:0,0:0:0:0:
125,135,21591,2,0,L|1:139,1,123.200001503906,8|0,0:0|0:0,0:0:0:0:
111,255,21876,1,0,0:0:0:0:
141,286,21971,2,0,L|141:347,2,61.6000007519531,2|0|0,0:0|0:0|0:0,0:0:0:0:
213,213,22256,1,0,0:0:0:0:
233,183,22351,1,8,0:0:0:0:
22,115,22541,1,0,0:0:0:0:
340,140,22730,37,2,0:0:0:0:
316,183,22825,1,2,0:0:0:0:
289,226,22920,1,2,0:0:0:0:
264,267,23015,1,2,0:0:0:0:
217,320,23110,5,2,0:0:0:0:
191,271,23205,1,2,0:0:0:0:
164,222,23300,1,2,0:0:0:0:
140,172,23395,1,2,0:0:0:0:
101,108,23490,5,10,0:0:0:0:
161,101,23585,1,2,0:0:0:0:
221,94,23680,1,2,0:0:0:0:
281,91,23775,1,2,0:0:0:0:
368,89,23870,5,10,0:0:0:0:
337,147,23965,1,2,0:0:0:0:
306,204,24059,1,2,0:0:0:0:
273,261,24154,1,2,0:0:0:0:
222,327,24249,70,0,B|90:318|90:318|62:335,1,165.000006294251,4|0,0:0|0:0,0:0:0:0:
0,182,24534,2,0,B|38:205|38:205|159:194,1,165.000006294251,4|0,0:0|0:0,0:0:0:0:
272,260,24819,38,0,P|318:190|278:116,1,165,4|0,0:0|0:0,0:0:0:0:
182,110,25199,6,2,L|189:59,2,45.8333333333333,2|2|2,2:3|0:0|0:0,0:0:0:0:
232,185,25389,2,0,B|380:208|380:208|429:172,1,206.25,2|0,0:0|0:0,0:0:0:0:
425,174,25768,6,0,L|418:248,1,74.800000456543,6|0,0:0|0:0,0:0:0:0:
500,244,26053,2,0,L|496:283,1,37.4000002282715,2|8,0:0|0:0,0:0:0:0:
352,322,26338,1,0,0:0:0:0:
302,139,26718,5,2,0:0:0:0:
168,185,26908,1,8,0:0:0:0:
282,269,27097,1,0,0:0:0:0:
87,86,27287,6,0,L|78:197,1,112.200000684814,2|2,0:0|0:0,0:0:0:0:
78,197,27667,1,8,0:0:0:0:
243,153,27857,1,0,0:0:0:0:
243,153,27952,2,0,L|231:297,1,145.200004431152,8|0,0:0|0:0,0:0:0:0:
360,209,28427,1,8,0:0:0:0:
227,331,28616,1,0,0:0:0:0:
128,137,28806,38,0,L|202:136,1,74.800000456543,2|0,0:0|0:0,0:0:0:0:
275,106,29091,2,0,L|312:110,1,37.4000002282715,2|8,0:0|0:0,0:0:0:0:
137,45,29376,1,0,0:0:0:0:
168,210,29566,2,0,P|133:222|97:214,1,74.800000456543,0|2,0:0|0:0,0:0:0:0:
14,122,29946,1,8,0:0:0:0:
312,110,30135,1,0,0:0:0:0:
290,127,30230,1,0,0:0:0:0:
264,144,30325,22,0,L|151:143,1,112.200000684814,2|2,0:0|0:0,0:0:0:0:
151,143,30705,1,8,0:0:0:0:
324,322,30895,1,0,0:0:0:0:
324,322,30990,2,0,L|420:318,1,96.8000029541017,8|0,0:0|0:0,0:0:0:0:
442,231,31275,2,0,L|342:235,1,96.8000029541017,2|2,0:0|0:0,0:0:0:0:
242,193,31559,1,8,0:0:0:0:
218,229,31654,1,2,0:0:0:0:
216,272,31749,1,0,0:0:0:0:
227,311,31844,54,0,L|323:321,1,96.8000029541017,4|0,0:0|0:0,0:0:0:0:
405,357,32129,1,8,0:0:0:0:
426,321,32224,2,0,B|432:280|396:239|396:239|411:214|413:187,1,145.200004431152,8|0,0:0|0:0,0:0:0:0:
479,134,32604,2,0,P|452:108|416:99,1,74.800000456543,0|2,0:0|0:0,0:0:0:0:
326,130,32889,2,0,L|213:124,1,112.200000684814
99,278,33363,6,0,B|122:292|122:292|175:273|205:286,1,112.200000684814,2|2,0:0|0:0,0:0:0:0:
205,286,33743,1,8,0:0:0:0:
428,269,33933,1,0,0:0:0:0:
428,269,34028,2,0,B|434:341|434:341|417:359,1,96.8000029541017,8|0,0:0|0:0,0:0:0:0:
323,289,34313,2,0,B|313:215|313:215|329:200,1,96.8000029541017,2|8,0:0|0:0,0:0:0:0:
494,193,34692,1,2,0:0:0:0:
323,289,34882,6,0,L|248:287,1,74.800000456543,2|0,0:0|0:0,0:0:0:0:
171,256,35167,2,0,L|133:260,2,37.4000002282715,2|8|0,0:0|0:0|0:0,0:0:0:0:
233,194,35452,1,2,0:0:0:0:
384,316,35642,2,0,L|422:321,3,37.4000002282715,0|0|2|0,0:0|0:0|0:0|0:0,0:0:0:0:
294,255,36022,5,8,0:0:0:0:
322,220,36116,1,0,0:0:0:0:
366,213,36211,1,0,0:0:0:0:
408,228,36306,1,0,0:0:0:0:
436,254,36401,38,0,B|408:204|408:204|404:170|404:170|382:133,1,134.199994471131,6|0,0:0|0:0,0:0:0:0:
190,215,36686,6,0,B|240:210|240:210|278:224|278:224|321:219,1,134.199994471131,6|0,0:0|0:0,0:0:0:0:
116,104,36971,6,0,L|101:248,1,145.200004431152,6|0,0:0|0:0,0:0:0:0:
154,330,37351,6,0,L|194:318,2,32.2666676513672
69,329,37541,2,0,P|16:269|38:194,1,165,6|0,0:0|0:0,0:0:0:0:
116,104,37920,38,0,L|119:213,1,110,6|0,0:0|0:0,0:0:0:0:
193,281,38205,5,2,0:0:0:0:
216,315,38300,2,0,L|213:369,1,55,8|0,0:0|0:0,0:0:0:0:
292,231,38490,1,0,0:0:0:0:
318,204,38585,1,0,0:0:0:0:
344,175,38680,2,0,L|341:120,1,55
202,149,38870,2,0,L|204:203,1,55,2|0,0:0|0:0,0:0:0:0:
292,308,39059,2,0,P|320:310|346:301,1,55,8|0,0:0|0:0,0:0:0:0:
488,227,39249,1,0,0:0:0:0:
472,193,39344,1,0,0:0:0:0:
443,175,39439,6,0,P|389:170|347:204,1,110,2|0,0:0|0:0,0:0:0:0:
292,308,39724,1,2,0:0:0:0:
258,335,39819,2,0,L|148:326,1,110,8|0,0:0|0:0,0:0:0:0:
116,200,40104,2,0,L|225:211,1,110,8|0,0:0|0:0,0:0:0:0:
270,218,40389,1,2,0:0:0:0:
306,230,40484,1,0,0:0:0:0:
337,245,40578,2,0,P|361:268|370:291,1,55,8|0,0:0|0:0,0:0:0:0:
435,142,40768,2,0,P|451:112|456:85,1,55
254,97,40958,6,0,L|371:89,1,110,2|0,0:0|0:0,0:0:0:0:
472,215,41243,1,2,0:0:0:0:
442,232,41338,2,0,L|387:228,1,55,8|0,0:0|0:0,0:0:0:0:
261,177,41528,2,0,L|265:240,1,55
385,355,41718,2,0,P|406:299|394:247,1,110,0|2,0:0|0:0,0:0:0:0:
315,294,42003,1,0,0:0:0:0:
286,318,42097,2,0,L|233:304,1,55,8|0,0:0|0:0,0:0:0:0:
146,358,42287,2,0,L|93:344,1,55
10,235,42477,38,0,P|86:216|145:228,1,110,2|0,0:0|0:0,0:0:0:0:
243,150,42762,1,2,0:0:0:0:
215,121,42857,2,0,L|134:109,1,55,8|0,0:0|0:0,0:0:0:0:
34,147,43047,1,0,0:0:0:0:
10,180,43142,6,0,L|10:235,1,55,8|0,0:0|0:0,0:0:0:0:
158,258,43332,2,0,L|158:313,2,55,8|0|0,0:0|0:0|0:0,0:0:0:0:
301,203,43616,1,8,0:0:0:0:
348,188,43711,1,0,0:0:0:0:
397,193,43806,1,2,0:0:0:0:
440,216,43901,1,0,0:0:0:0:
468,256,43996,6,0,L|468:311,1,55,6|0,0:0|0:0,0:0:0:0:
365,369,44186,2,0,L|364:314,1,55,0|2,0:0|0:0,0:0:0:0:
261,231,44376,2,0,L|262:302,1,55,8|0,0:0|0:0,0:0:0:0:
157,353,44566,1,0,0:0:0:0:
133,336,44661,1,0,0:0:0:0:
111,314,44756,2,0,P|103:287|105:257,1,55
4,206,44946,2,0,P|44:168|97:161,1,110,0|8,0:0|0:0,0:0:0:0:
459,249,45325,6,0,P|429:249|404:239,1,55,2|0,0:0|0:0,0:0:0:0:
270,230,45515,2,0,P|253:248|223:260,1,55,2|0,0:0|0:0,0:0:0:0:
364,339,45705,1,0,0:0:0:0:
364,339,45800,1,2,0:0:0:0:
364,339,45895,2,0,P|384:290|367:224,1,110,8|0,0:0|0:0,0:0:0:0:
270,230,46180,2,0,P|326:249|393:217,1,110,8|0,0:0|0:0,0:0:0:0:
299,93,46465,2,0,P|302:121|314:145,1,55,2|0,0:0|0:0,0:0:0:0:
478,149,46654,2,0,L|313:144,1,165,8|0,0:0|0:0,0:0:0:0:
212,273,47034,38,0,L|209:218,1,55,2|0,0:0|0:0,0:0:0:0:
317,198,47224,2,0,L|313:143,1,55,0|2,0:0|0:0,0:0:0:0:
114,127,47414,2,0,L|119:181,1,55,8|0,0:0|0:0,0:0:0:0:
17,184,47604,2,0,L|24:238,1,55
212,273,47794,2,0,P|252:204|213:135,1,165
165,119,48173,37,8,0:0:0:0:
114,127,48268,1,0,0:0:0:0:
84,169,48363,1,2,0:0:0:0:
90,222,48458,1,0,0:0:0:0:
120,261,48553,38,0,P|176:290|233:260,1,134.199994471131,6|0,0:0|0:0,0:0:0:0:
330,146,48838,2,0,P|273:112|213:135,1,134.199994471131,6|0,0:0|0:0,0:0:0:0:
433,241,49123,6,0,P|438:146|415:88,1,145.200004431152,6|0,0:0|0:0,0:0:0:0:
296,49,49503,6,0,P|294:23|299:-5,2,44.7333314903769
330,146,49692,2,0,P|293:230|236:172,1,201.299991706696
198,80,50072,5,2,0:0:0:0:
70,105,50262,1,0,0:0:0:0:
294,268,50452,1,8,0:0:0:0:
18,320,50642,1,0,0:0:0:0:
203,215,50832,2,0,L|193:325,1,110,2|0,0:0|0:0,0:0:0:0:
85,258,51211,1,8,0:0:0:0:
294,268,51401,1,0,0:0:0:0:
333,265,51496,1,0,0:0:0:0:
368,263,51591,69,2,0:0:0:0:
472,162,51781,1,0,0:0:0:0:
290,360,51971,1,8,0:0:0:0:
85,258,52161,2,0,L|96:148,1,110,0|2,0:0|0:0,0:0:0:0:
98,110,52446,1,0,0:0:0:0:
102,71,52541,1,0,0:0:0:0:
381,204,52730,1,8,0:0:0:0:
177,173,52920,2,0,L|188:226,1,55
212,317,53110,5,2,0:0:0:0:
468,103,53300,2,0,L|359:119,2,110,0|8|0,0:0|0:0|0:0,0:0:0:0:
213,48,53870,1,2,0:0:0:0:
324,246,54059,1,0,0:0:0:0:
67,162,54249,2,0,L|176:172,1,110,8|0,0:0|0:0,0:0:0:0:
348,328,54629,38,0,P|266:318|188:341,2,165
405,129,55389,1,8,0:0:0:0:
422,152,55484,1,0,0:0:0:0:
438,174,55578,2,0,L|430:228,1,55
465,332,55768,1,8,0:0:0:0:
318,144,55958,1,0,0:0:0:0:
148,302,56148,38,0,L|257:291,1,110,6|0,0:0|0:0,0:0:0:0:
449,182,56528,2,0,P|372:201|318:144,1,165,8|0,0:0|0:0,0:0:0:0:
340,58,56908,2,0,P|388:32|440:46,1,110
397,119,57192,2,0,L|233:98,1,165
166,62,57572,1,0,0:0:0:0:
132,69,57667,53,2,0:0:0:0:
292,284,57857,1,0,0:0:0:0:
75,196,58047,2,0,L|184:181,1,110,8|0,0:0|0:0,0:0:0:0:
213,184,58332,1,0,0:0:0:0:
245,185,58427,1,2,0:0:0:0:
275,186,58522,1,8,0:0:0:0:
306,187,58616,1,8,0:0:0:0:
166,62,58806,1,8,0:0:0:0:
75,196,58996,1,0,0:0:0:0:
248,346,59186,5,4,0:0:0:0:
267,324,59281,1,0,0:0:0:0:
279,292,59376,1,0,0:0:0:0:
276,253,59471,1,0,0:0:0:0:
259,212,59566,5,2,0:0:0:0:
252,163,59661,1,0,0:0:0:0:
266,111,59756,1,0,0:0:0:0:
308,71,59851,1,0,0:0:0:0:
370,72,59946,37,0,0:0:0:0:
424,112,60041,1,0,0:0:0:0:
431,183,60135,1,0,0:0:0:0:
383,243,60230,1,0,0:0:0:0:
304,241,60325,5,2,0:0:0:0:
244,175,60420,1,0,0:0:0:0:
162,141,60515,1,0,0:0:0:0:
75,158,60610,1,0,0:0:0:0:
0,211,60705,6,0,P|-16:131|13:55,1,165.000006294251,4|0,0:0|0:0,0:0:0:0:
244,175,60990,2,0,P|261:254|232:330,1,165.000006294251,4|0,0:0|0:0,0:0:0:0:
11,334,61275,2,0,L|5:251,1,82.5000031471254,4|0,0:0|0:0,0:0:0:0:
300,76,61465,6,2,P|308:103|308:130,5,55.0000020980836
319,66,61844,2,0,P|381:156|281:199,1,247.500009441376,4|0,0:0|0:0,0:0:0:0:
139,150,62224,38,0,B|129:245|129:245|169:216,1,145.199999556885,2|0,0:0|0:0,0:0:0:0:
164,58,62509,2,0,P|94:65|53:122,1,145.199999556885
170,216,62794,2,0,L|242:211,1,72.5999997784424
418,93,62984,2,0,L|273:76,1,145.199999556885,2|0,0:0|0:0,0:0:0:0:
165,59,63268,1,0,0:0:0:0:
66,93,63363,2,0,P|45:161|75:226,1,145.199999556885,8|0,0:0|0:0,0:0:0:0:
377,217,63743,6,0,P|399:151|363:91,1,145.199999556885,2|0,0:0|0:0,0:0:0:0:
263,47,64028,2,0,L|247:191,1,145.199999556885
171,259,64313,2,0,L|161:188,1,72.5999997784424
334,57,64503,1,2,0:0:0:0:
378,47,64597,1,0,0:0:0:0:
425,38,64692,2,0,L|417:110,1,72.5999997784424
488,199,64882,2,0,P|488:269|439:321,1,145.199999556885,8|0,0:0|0:0,0:0:0:0:
60,105,65262,6,0,L|130:123,1,72.5999997784424,2|0,0:0|0:0,0:0:0:0:
342,153,65452,2,0,L|271:169,1,72.5999997784424
64,250,65642,2,0,L|59:104,1,145.199999556885,8|0,0:0|0:0,0:0:0:0:
248,54,65927,1,0,0:0:0:0:
282,97,66022,6,0,L|270:168,1,72.5999997784424,2|0,0:0|0:0,0:0:0:0:
174,250,66211,2,0,L|182:322,1,72.5999997784424
362,310,66401,2,0,P|397:251|362:191,1,145.199999556885,8|0,0:0|0:0,0:0:0:0:
168,65,66686,1,0,0:0:0:0:
127,102,66781,38,0,L|122:174,1,72.5999997784424,2|0,0:0|0:0,0:0:0:0:
380,118,66971,2,0,L|331:64,1,72.5999997784424
215,237,67161,2,0,B|375:238|375:238|336:194,1,217.799999335327,8|0,0:0|0:0,0:0:0:0:
289,139,67540,5,2,0:0:0:0:
215,115,67635,1,0,0:0:0:0:
148,157,67730,1,0,0:0:0:0:
134,234,67825,1,0,0:0:0:0:
170,303,67920,5,8,0:0:0:0:
215,237,68015,1,0,0:0:0:0:
296,222,68110,1,0,0:0:0:0:
370,244,68205,1,0,0:0:0:0:
435,292,68300,6,0,B|466:322|466:322|478:220,1,145.199999556885,6|0,0:0|0:0,0:0:0:0:
326,53,68585,2,0,P|306:119|352:172,1,145.199999556885
459,100,68870,2,0,L|386:103,1,72.5999997784424
162,52,69059,1,2,0:0:0:0:
126,64,69154,1,0,0:0:0:0:
92,76,69249,2,0,L|82:147,1,72.5999997784424
215,237,69439,2,0,L|225:165,1,72.5999997784424,8|0,0:0|0:0,0:0:0:0:
328,57,69629,2,0,L|332:129,1,72.5999997784424
184,321,69819,38,0,B|93:324|93:324|43:303,1,145.199999556885,2|0,0:0|0:0,0:0:0:0:
10,160,70104,2,0,P|80:151|140:190,1,145.199999556885
268,168,70389,2,0,L|272:240,1,72.5999997784424
411,333,70578,1,2,0:0:0:0:
422,289,70673,1,0,0:0:0:0:
434,248,70768,1,0,0:0:0:0:
339,91,70958,1,8,0:0:0:0:
155,290,71148,2,0,L|154:217,1,72.5999997784424
295,281,71338,6,0,B|208:304|208:304|154:289,1,145.199999556885,2|0,0:0|0:0,0:0:0:0:
45,308,71623,2,0,B|45:255|45:255|55:217|55:217|55:164,1,145.199999556885
137,56,71908,2,0,P|208:59|259:109,1,145.199999556885,0|2,0:0|0:0,0:0:0:0:
321,157,72192,1,0,0:0:0:0:
330,230,72287,1,0,0:0:0:0:
145,197,72477,1,8,0:0:0:0:
304,53,72667,1,0,0:0:0:0:
412,171,72857,6,0,B|288:181|288:181|320:156,1,165.000006294251,6|0,0:0|0:0,0:0:0:0:
64,99,73142,2,0,B|181:88|181:88|150:124,1,165.000006294251,6|0,0:0|0:0,0:0:0:0:
66,243,73427,2,0,P|63:283|79:321,1,82.5000031471254,2|0,0:0|0:0,0:0:0:0:
374,245,73616,6,0,B|298:228|298:228|316:254,1,110,6|0,0:0|0:0,0:0:0:0:
211,94,73806,2,0,B|222:175|222:175|234:149,1,110,2|0,0:0|0:0,0:0:0:0:
165,326,73996,2,0,B|223:260|223:260|200:260,1,110,2|0,0:0|0:0,0:0:0:0:
368,88,74186,2,0,B|316:152|316:152|343:148,1,110,2|0,0:0|0:0,0:0:0:0:
456,273,74376,37,4,0:0:0:0:
259,85,74566,1,0,0:0:0:0:
63,222,74756,1,8,0:0:0:0:
294,246,74946,2,0,L|307:174,1,72.5999997784424
259,85,75135,1,2,0:0:0:0:
105,325,75325,1,0,0:0:0:0:
367,191,75515,1,8,0:0:0:0:
117,109,75705,1,0,0:0:0:0:
121,148,75800,1,0,0:0:0:0:
126,182,75895,6,0,L|105:325,1,145.199999556885,2|0,0:0|0:0,0:0:0:0:
22,211,76180,2,0,L|18:138,1,72.5999997784424,0|8,0:0|0:0,0:0:0:0:
267,43,76465,1,0,0:0:0:0:
314,207,76654,1,0,0:0:0:0:
262,194,76749,1,0,0:0:0:0:
215,185,76844,6,0,L|210:111,1,72.5999997784424
314,207,77034,2,0,L|305:279,1,72.5999997784424,8|0,0:0|0:0,0:0:0:0:
418,285,77224,2,0,L|408:356,1,72.5999997784424
207,293,77414,6,0,B|96:293|96:293|119:318,1,145.199999556885,2|0,0:0|0:0,0:0:0:0:
291,349,77699,2,0,P|306:281|285:239,2,72.5999997784424,0|8|0,0:0|0:0|0:0,0:0:0:0:
153,187,77984,2,0,P|148:222|159:257,1,72.5999997784424
412,148,78173,1,2,0:0:0:0:
240,219,78363,1,0,0:0:0:0:
70,143,78553,1,8,0:0:0:0:
368,248,78743,1,0,0:0:0:0:
60,241,78933,38,0,L|202:213,1,145.199999556885,2|0,0:0|0:0,0:0:0:0:
305,238,79218,1,0,0:0:0:0:
340,243,79313,1,8,0:0:0:0:
107,131,79503,2,0,L|249:101,1,145.199999556885,0|10,0:0|0:0,0:0:0:0:
378,242,79882,5,0,0:0:0:0:
421,226,79977,1,0,0:0:0:0:
464,211,80072,2,0,L|455:283,1,72.5999997784424,8|0,0:0|0:0,0:0:0:0:
368,373,80262,1,0,0:0:0:0:
334,357,80357,1,0,0:0:0:0:
297,341,80452,6,0,L|151:342,1,145.199999556885,2|0,0:0|0:0,0:0:0:0:
29,255,80832,1,8,0:0:0:0:
237,100,81022,1,0,0:0:0:0:
272,304,81211,2,0,L|276:231,1,72.5999997784424,2|0,0:0|0:0,0:0:0:0:
145,64,81401,1,0,0:0:0:0:
70,247,81591,1,8,0:0:0:0:
145,64,81781,1,0,0:0:0:0:
156,116,81876,1,0,0:0:0:0:
167,167,81971,5,2,0:0:0:0:
59,323,82161,2,0,L|80:179,1,145.199999556885,0|8,0:0|0:0,0:0:0:0:
384,244,82541,2,0,P|323:278|254:261,1,145.199999556885,0|2,0:0|0:0,0:0:0:0:
157,323,82825,1,0,0:0:0:0:
114,294,82920,2,0,L|118:221,1,72.5999997784424
80,101,83110,1,8,0:0:0:0:
385,244,83300,1,0,0:0:0:0:
59,323,83490,5,2,0:0:0:0:
82,304,83585,1,0,0:0:0:0:
114,294,83680,1,0,0:0:0:0:
153,291,83775,1,0,0:0:0:0:
194,301,83870,1,8,0:0:0:0:
228,311,83965,1,0,0:0:0:0:
264,301,84059,1,0,0:0:0:0:
291,266,84154,1,0,0:0:0:0:
302,223,84249,5,2,0:0:0:0:
291,173,84344,1,0,0:0:0:0:
239,145,84439,1,0,0:0:0:0:
184,165,84534,1,0,0:0:0:0:
131,194,84629,5,8,0:0:0:0:
137,124,84724,1,0,0:0:0:0:
179,71,84819,1,0,0:0:0:0:
249,54,84914,1,0,0:0:0:0:
321,68,85009,6,0,P|370:163|326:260,1,220,6|0,0:0|0:0,0:0:0:0:
173,262,85294,6,0,P|128:165|178:70,1,220
326,260,85578,6,0,B|250:281|250:281|173:262|173:262|128:291|88:284,1,247.500009441376,6|0,0:0|0:0,0:0:0:0:
9,244,85958,38,0,P|3:272|3:307,2,55.0000020980836
105,138,86148,1,0,0:0:0:0:
