osu file format v14

[General]
AudioFilename: SCREEN mode - Naked Drive.mp3
AudioLeadIn: 0
PreviewTime: 62034
Countdown: 0
SampleSet: Soft
StackLeniency: 0.7
Mode: 0
LetterboxInBreaks: 1
WidescreenStoryboard: 1

[Editor]
Bookmarks: 10803
DistanceSpacing: 1
BeatDivisor: 4
GridSize: 32
TimelineZoom: 2.3

[Metadata]
Title:Naked Dive (TV Size)
TitleUnicode:Naked Dive (TV Size)
Artist:SCREEN mode
ArtistUnicode:SCREEN mode
Creator:Kuro Fuyusaki
Version:Hard
Source:無彩限のファントム・ワールド
Tags:musaigen no phantom world fattypikachu CyberX kjounouchi mai kawakami reina izumi koito minase kurumi kumamakura ruru
BeatmapID:888303
BeatmapSetID:406350

[Difficulty]
HPDrainRate:5
CircleSize:4
OverallDifficulty:5.2
ApproachRate:7.5
SliderMultiplier:1.5
SliderTickRate:1

[Events]
//Background and Video events
0,0,"BG.jpg",0,0
Video,-172,"OP.avi"
//Break Periods
//Storyboard Layer 0 (Background)
//Storyboard Layer 1 (Fail)
//Storyboard Layer 2 (Pass)
//Storyboard Layer 3 (Foreground)
//Storyboard Sound Samples

[TimingPoints]
235,545.454545454546,4,2,5,10,1,0
2416,500,4,2,5,10,1,0
3416,461.538461538462,4,2,5,10,1,0
4339,428.571428571429,4,2,5,12,1,0
5196,413.793103448276,4,2,5,16,1,0
6023,379.746835443038,4,2,5,24,1,0
7541,379.746835443038,4,2,5,34,1,0
12097,-121.951219512195,4,2,5,30,0,0
13616,-100,4,2,4,60,0,0
25768,-121.951219512195,4,2,3,40,0,0
28427,-100,4,2,3,40,0,0
28806,-121.951219512195,4,2,3,40,0,0
30895,-113.636363636364,4,2,3,40,0,0
31844,-121.951219512195,4,2,3,40,0,0
33743,-113.636363636364,4,2,3,40,0,0
34882,-121.951219512195,4,2,3,40,0,0
36401,-100,4,2,4,60,0,0
36971,-113.636363636364,4,2,4,60,0,0
37920,-121.951219512195,4,2,3,40,0,0
48553,-113.636363636364,4,2,4,60,0,0
49123,-113.636363636364,4,2,4,60,0,0
50072,-107.52688172043,4,2,4,55,0,0
62224,-100,4,2,4,72,0,1
86528,-147.058823529412,4,2,0,5,0,0

[Colours]
Combo1 : 0,255,255
Combo2 : 235,237,250
Combo3 : 131,131,131
Combo4 : 255,102,204
Combo5 : 250,196,31
Combo6 : 29,152,226

[HitObjects]
106,177,235,6,0,P|146:116|276:155,1,225
362,177,1325,2,0,P|318:240|188:180,1,225,8|0,0:0|0:0,0:0:0:0:
158,111,2416,6,0,L|150:349,1,225
254,306,3416,70,0,L|260:70,1,225,8|0,0:0|0:0,0:0:0:0:
352,88,4339,6,0,P|330:146|178:113,1,225
102,134,5196,70,0,P|65:180|139:324,1,225,8|0,0:0|0:0,0:0:0:0:
209,277,6023,6,0,P|308:242|419:283,1,225
507,315,6782,70,0,P|493:223|428:185,1,150,8|0,0:0|0:0,0:0:0:0:
207,167,7541,22,2,P|147:173|108:208,2,112.5
224,183,8205,1,2,0:0:0:0:
241,198,8300,2,0,L|381:199,1,112.5,2|2,0:0|0:0,0:0:0:0:
377,209,8680,2,0,P|423:205|452:169,1,75,2|0,0:0|0:0,0:0:0:0:
455,96,9059,1,0,0:0:0:0:
321,51,9249,2,2,L|323:100,1,37.5
196,87,9534,2,2,L|198:141,1,37.5
280,225,9819,2,2,B|297:264|297:264|281:361,2,112.5
256,192,10578,12,4,12097,0:0:0:0:
245,142,12857,70,2,L|244:106,2,30.7500004692078
299,215,13237,2,0,P|329:234|348:251,1,61.5000009384155
256,305,13616,6,0,L|142:321,1,112.5,6|0,0:0|0:0,0:0:0:0:
108,313,13996,2,0,P|84:265|105:195,1,112.5,8|0,0:0|0:0,0:0:0:0:
120,187,14376,2,0,L|119:98,1,75,2|0,0:0|0:0,0:0:0:0:
36,89,14756,2,0,L|35:185,1,75,8|0,0:0|0:0,0:0:0:0:
27,251,15135,2,0,P|64:282|145:268,1,112.5,2|0,0:0|0:0,0:0:0:0:
153,267,15515,2,0,B|246:264|246:264|278:270,1,112.5,8|0,0:0|0:0,0:0:0:0:
288,289,15895,2,0,L|288:372,2,75,2|0|8,0:0|0:0|0:0,0:0:0:0:
332,206,16465,1,0,0:0:0:0:
401,262,16654,6,0,P|425:214|417:184,1,75,2|0,0:0|0:0,0:0:0:0:
363,123,17034,2,0,L|227:114,1,112.5,8|0,0:0|0:0,0:0:0:0:
223,119,17414,2,0,P|174:126|128:110,1,75,2|0,0:0|0:0,0:0:0:0:
98,53,17794,2,0,P|113:95|89:164,1,112.5,8|0,0:0|0:0,0:0:0:0:
73,180,18173,2,0,P|63:228|73:260,1,75,2|0,0:0|0:0,0:0:0:0:
159,214,18553,2,0,P|221:195|281:232,1,112.5,8|0,0:0|0:0,0:0:0:0:
295,213,18933,2,0,L|381:217,1,75,2|0,0:0|0:0,0:0:0:0:
314,316,19313,2,0,L|219:310,1,75,2|0,0:0|0:0,0:0:0:0:
176,203,19692,70,0,P|170:144|214:84,1,112.5,6|0,0:0|0:0,0:0:0:0:
217,82,20072,2,0,L|348:93,1,112.5,8|0,0:0|0:0,0:0:0:0:
357,81,20452,2,0,P|410:85|432:100,1,75,2|0,0:0|0:0,0:0:0:0:
507,70,20832,2,0,P|510:124|492:154,1,75,8|0,0:0|0:0,0:0:0:0:
413,192,21211,2,0,P|414:272|444:318,1,112.5,2|0,0:0|0:0,0:0:0:0:
458,322,21591,2,0,L|321:319,1,112.5,8|0,0:0|0:0,0:0:0:0:
313,336,21971,2,0,P|273:340|234:320,1,75,2|0,0:0|0:0,0:0:0:0:
172,257,22351,1,8,0:0:0:0:
244,192,22541,1,0,0:0:0:0:
339,231,22730,6,0,L|503:219,2,150,0|8|0,0:0|0:0|0:0,0:0:0:0:
244,192,23680,1,0,0:0:0:0:
329,132,23870,2,0,L|339:57,1,75
242,81,24249,6,0,B|231:137|231:137|244:195,2,112.5,4|0|4,0:0|0:0|0:0,0:0:0:0:
2,121,25199,1,0,0:0:0:0:
27,40,25389,2,0,P|55:33|104:39,1,75,4|0,0:0|0:0,0:0:0:0:
148,116,25768,70,0,L|153:216,1,92.2500014076233,2|0,0:0|0:0,0:0:0:0:
170,228,26148,2,0,L|167:304,1,61.5000009384155,8|0,0:0|0:0,0:0:0:0:
355,159,26718,2,0,L|354:237,1,61.5000009384155,2|8,0:0|0:0,0:0:0:0:
119,291,27287,2,0,P|89:249|105:194,1,92.2500014076233,2|0,0:0|0:0,0:0:0:0:
91,189,27667,2,0,B|21:183|21:183|-1:192,2,92.2500014076233,8|8|2,0:0|0:0|0:0,0:0:0:0:
170,227,28427,2,0,P|179:185|167:152,1,75,8|0,0:0|0:0,0:0:0:0:
150,70,28806,6,0,L|249:65,1,92.2500014076233,2|0,0:0|0:0,0:0:0:0:
267,66,29186,2,0,L|260:140,1,61.5000009384155,8|0,0:0|0:0,0:0:0:0:
437,74,29756,2,2,L|430:136,1,61.5000009384155,2|8,0:0|0:0,0:0:0:0:
354,200,30135,1,0,0:0:0:0:
354,200,30230,1,0,0:0:0:0:
354,200,30325,6,0,P|394:236|474:220,1,123.000001876831,2|8,0:0|0:0,0:0:0:0:
430,135,30895,2,0,L|428:93,1,33.0000010070801,0|8,0:0|0:0,0:0:0:0:
336,38,31180,2,0,L|335:71,1,33.0000010070801,0|2,0:0|0:0,0:0:0:0:
250,128,31465,2,0,L|248:161,2,33.0000010070801,8|0|2,0:0|0:0|0:0,0:0:0:0:
157,86,31844,38,0,L|157:185,1,92.2500014076233,6|0,0:0|0:0,0:0:0:0:
137,204,32224,2,0,P|169:216|193:234,1,61.5000009384155,8|0,0:0|0:0,0:0:0:0:
295,289,32604,2,0,P|271:326|187:335,1,123.000001876831,0|8,0:0|0:0,0:0:0:0:
189,133,33363,2,0,L|305:137,1,92.2500014076233,2|0,0:0|0:0,0:0:0:0:
302,126,33743,2,0,P|345:132|387:180,2,99.0000030212403,8|8|2,0:0|0:0|0:0,0:0:0:0:
241,204,34503,1,8,0:0:0:0:
110,75,34882,38,0,L|107:173,1,92.2500014076233,2|0,0:0|0:0,0:0:0:0:
85,186,35262,2,0,P|74:230|90:286,1,92.2500014076233,8|0,0:0|0:0,0:0:0:0:
100,294,35642,2,0,L|100:326,2,30.7500004692078,0|0|2,0:0|0:0|0:0,0:0:0:0:
213,199,36022,2,0,L|214:158,2,30.7500004692078,8|0|2,0:0|0:0|0:0,0:0:0:0:
309,308,36401,54,4,B|395:302|395:302|435:311,2,112.5
257,100,37351,2,0,L|256:51,2,33.0000010070801,0|0|4,0:0|0:0|0:0,0:0:0:0:
34,90,37920,5,2,0:0:0:0:
37,164,38110,2,0,L|38:202,2,30.7500004692078,0|0|8,0:0|0:0|0:0,0:0:0:0:
240,121,38680,1,0,0:0:0:0:
240,121,38870,2,0,L|241:184,1,61.5000009384155,2|8,0:0|0:0,0:0:0:0:
432,92,39439,2,0,L|434:185,1,92.2500014076233,2|0,0:0|0:0,0:0:0:0:
454,205,39819,2,0,P|454:248|446:269,1,61.5000009384155,8|0,0:0|0:0,0:0:0:0:
369,226,40199,2,0,P|306:213|240:247,1,123.000001876831,2|8,0:0|0:0,0:0:0:0:
179,275,40768,1,0,0:0:0:0:
102,242,40958,5,2,0:0:0:0:
162,185,41148,2,0,L|166:137,2,30.7500004692078,0|0|8,0:0|0:0|0:0,0:0:0:0:
333,146,41718,2,0,L|339:61,2,61.5000009384155,0|2|8,0:0|0:0|0:0,0:0:0:0:
182,280,42477,2,0,L|285:283,1,92.2500014076233,2|0,0:0|0:0,0:0:0:0:
298,296,42857,2,0,P|345:306|396:282,1,92.2500014076233,8|0,0:0|0:0,0:0:0:0:
411,285,43237,2,0,L|457:288,2,30.7500004692078,8|0|2,0:0|0:0|0:0,0:0:0:0:
346,208,43616,2,0,L|346:175,2,30.7500004692078,8|0|0,0:0|0:0|0:0,0:0:0:0:
274,282,43996,38,0,P|236:300|187:289,1,92.2500014076233,6|0,0:0|0:0,0:0:0:0:
160,288,44376,2,0,L|92:299,1,61.5000009384155,8|0,0:0|0:0,0:0:0:0:
109,207,44756,2,0,L|41:215,2,61.5000009384155,0|2|8,0:0|0:0|0:0,0:0:0:0:
257,67,45515,2,0,L|160:75,1,92.2500014076233,2|0,0:0|0:0,0:0:0:0:
138,70,45895,2,0,P|109:100|113:148,1,92.2500014076233,8|8,0:0|0:0,0:0:0:0:
97,169,46275,2,0,P|121:212|144:223,1,61.5000009384155,0|2,0:0|0:0,0:0:0:0:
213,205,46654,1,8,0:0:0:0:
390,157,47034,6,0,L|396:242,2,61.5000009384155,2|0|8,0:0|0:0|0:0,0:0:0:0:
316,111,47604,1,0,0:0:0:0:
247,164,47794,2,0,P|187:175|152:150,1,92.2500014076233
134,143,48173,2,0,L|101:146,2,30.7500004692078,8|0|2,0:0|0:0|0:0,0:0:0:0:
335,125,48553,6,4,B|343:178|343:178|324:233,2,99.0000030212403
39,114,49503,2,0,L|37:149,2,33.0000010070801,0|0|4,0:0|0:0|0:0,0:0:0:0:
174,287,50072,6,0,L|319:293,1,139.500004363632,2|8,0:0|0:0,0:0:0:0:
450,139,50832,2,0,P|356:135|317:194,1,139.500004363632,2|8,0:0|0:0,0:0:0:0:
246,197,51401,1,0,0:0:0:0:
161,226,51591,2,0,L|80:220,1,69.7500021818162,2|0,0:0|0:0,0:0:0:0:
32,136,51971,2,0,L|118:128,1,69.7500021818162,8|0,0:0|0:0,0:0:0:0:
176,65,52351,2,0,L|175:22,2,34.8750010909081,2|0|0,0:0|0:0|0:0,0:0:0:0:
246,132,52730,2,0,L|336:143,1,69.7500021818162,8|0,0:0|0:0,0:0:0:0:
405,117,53110,38,0,P|406:168|340:228,1,139.500004363632,2|8,0:0|0:0,0:0:0:0:
249,223,53680,1,0,0:0:0:0:
276,303,53870,2,0,P|321:328|363:320,1,69.7500021818162,2|0,0:0|0:0,0:0:0:0:
413,380,54249,2,0,P|430:331|420:295,1,69.7500021818162,8|0,0:0|0:0,0:0:0:0:
364,237,54629,2,0,B|348:201|348:201|357:117,2,104.625003272724,2|0|0,0:0|0:0|0:0,0:0:0:0:
450,284,55389,2,0,L|450:332,2,34.8750010909081,2|0|0,0:0|0:0|0:0,0:0:0:0:
371,357,55768,1,8,0:0:0:0:
291,306,55958,1,0,0:0:0:0:
205,269,56148,6,0,P|138:267|67:315,1,139.500004363632,6|8,0:0|0:0,0:0:0:0:
186,125,56908,2,0,L|335:133,1,139.500004363632,2|8,0:0|0:0,0:0:0:0:
408,172,57477,1,0,0:0:0:0:
335,222,57667,2,0,L|337:295,1,69.7500021818162,2|0,0:0|0:0,0:0:0:0:
430,326,58047,2,0,L|434:246,1,69.7500021818162,8|0,0:0|0:0,0:0:0:0:
499,182,58427,2,0,L|502:147,2,34.8750010909081,0|0|8,0:0|0:0|0:0,0:0:0:0:
408,172,58806,1,8,0:0:0:0:
335,222,58996,1,0,0:0:0:0:
256,192,59186,12,2,61465,0:0:0:0:
432,251,62224,6,0,P|400:255|333:233,1,75,2|0,0:0|0:0,0:0:0:0:
331,224,62509,2,0,P|267:242|248:287,1,112.5
169,324,62984,2,0,P|156:281|170:242,1,75,2|0,0:0|0:0,0:0:0:0:
110,182,63363,2,0,L|116:75,1,75,8|0,0:0|0:0,0:0:0:0:
213,84,63743,2,0,L|211:194,1,75,2|0,0:0|0:0,0:0:0:0:
230,184,64028,2,0,P|292:201|333:172,1,112.5
393,93,64503,1,2,0:0:0:0:
393,93,64597,1,0,0:0:0:0:
393,93,64692,1,0,0:0:0:0:
474,130,64882,2,0,L|467:219,1,75,8|0,0:0|0:0,0:0:0:0:
388,269,65262,6,0,L|394:318,2,37.5,2|0|0,0:0|0:0|0:0,0:0:0:0:
308,222,65642,2,0,L|216:229,1,75,8|0,0:0|0:0,0:0:0:0:
153,177,66022,1,2,0:0:0:0:
153,177,66116,1,0,0:0:0:0:
153,177,66211,1,0,0:0:0:0:
65,222,66401,2,0,L|74:311,1,75,8|0,0:0|0:0,0:0:0:0:
155,342,66781,54,0,L|208:344,2,37.5,2|0|0,0:0|0:0|0:0,0:0:0:0:
206,259,67161,1,8,0:0:0:0:
206,259,67351,1,0,0:0:0:0:
153,177,67541,2,0,L|101:177,2,37.5,2|0|0,0:0|0:0|0:0,0:0:0:0:
107,90,67920,2,0,L|50:89,2,37.5
188,30,68300,70,0,L|279:36,1,75,6|0,0:0|0:0,0:0:0:0:
290,51,68585,2,0,P|298:107|276:171,1,112.5
348,213,69059,2,0,P|313:247|283:249,1,75,2|0,0:0|0:0,0:0:0:0:
206,210,69439,2,0,L|123:216,1,75,8|0,0:0|0:0,0:0:0:0:
91,304,69819,2,0,L|193:296,1,75,2|0,0:0|0:0,0:0:0:0:
192,290,70104,2,0,L|332:298,1,112.5
385,259,70578,2,0,P|445:266|476:286,1,75,2|0,0:0|0:0,0:0:0:0:
310,210,70958,2,0,P|297:165|306:130,1,75,8|0,0:0|0:0,0:0:0:0:
310,126,71243,1,0,0:0:0:0:
321,117,71338,6,0,L|200:125,2,112.5,2|0|0,0:0|0:0|0:0,0:0:0:0:
400,167,72097,2,0,P|413:218|352:304,1,150,2|8,0:0|0:0,0:0:0:0:
268,295,72667,1,0,0:0:0:0:
268,295,72857,2,2,B|231:289|231:289|141:302,2,112.5
354,257,73616,2,0,B|399:226|404:164|404:164|372:111|288:104,1,225,2|0,0:0|0:0,0:0:0:0:
219,66,74376,6,0,L|124:77,1,75,6|0,0:0|0:0,0:0:0:0:
119,71,74661,2,0,L|121:184,1,112.5
165,264,75135,2,0,P|208:213|195:131,1,150,2|8,0:0|0:0,0:0:0:0:
303,80,75705,1,0,0:0:0:0:
397,168,75895,2,0,L|484:172,2,75,2|0|8,0:0|0:0|0:0,0:0:0:0:
297,206,76465,2,2,L|253:206,2,37.5,2|0|2,0:0|0:0|0:0,0:0:0:0:
384,263,76844,2,0,P|395:298|385:334,1,75,0|10,0:0|0:0,0:0:0:0:
296,299,77224,1,0,0:0:0:0:
296,299,77414,6,0,L|207:298,1,75,2|0,0:0|0:0,0:0:0:0:
192,305,77699,2,0,L|186:158,1,112.5
146,112,78173,2,0,P|104:151|127:251,1,150,2|8,0:0|0:0,0:0:0:0:
58,317,78743,1,0,0:0:0:0:
58,317,78933,2,0,L|143:319,1,75,2|0,0:0|0:0,0:0:0:0:
236,295,79313,1,8,0:0:0:0:
236,295,79503,2,0,L|327:298,1,75,0|2,0:0|0:0,0:0:0:0:
402,264,79882,1,0,0:0:0:0:
402,264,79977,1,0,0:0:0:0:
402,264,80072,2,0,L|451:268,2,37.5,8|0|0,0:0|0:0|0:0,0:0:0:0:
309,212,80452,38,0,P|279:202|221:213,1,75,2|0,0:0|0:0,0:0:0:0:
199,228,80737,2,0,P|146:220|128:142,1,112.5
67,81,81211,2,0,L|221:82,1,150,2|8,0:0|0:0,0:0:0:0:
316,111,81781,2,0,L|351:86,2,37.5,0|0|2,0:0|0:0|0:0,0:0:0:0:
260,193,82161,2,0,P|286:244|314:259,1,75,0|8,0:0|0:0,0:0:0:0:
225,322,82541,2,0,L|123:325,1,75,0|2,0:0|0:0,0:0:0:0:
126,321,82825,1,0,0:0:0:0:
101,314,82920,2,0,L|39:314,2,37.5,0|0|8,0:0|0:0|0:0,0:0:0:0:
196,223,83300,1,0,0:0:0:0:
304,329,83490,6,0,L|437:318,2,112.5,2|0|0,0:0|0:0|0:0,0:0:0:0:
357,232,84249,2,0,L|405:229,2,37.5,2|0|0,0:0|0:0|0:0,0:0:0:0:
321,135,84629,1,8,0:0:0:0:
235,193,84819,1,0,0:0:0:0:
235,193,84914,1,0,0:0:0:0:
235,193,85009,6,6,B|143:196|143:196|120:178,2,112.5
372,70,85958,2,0,L|422:74,2,37.5,2|0|12,0:0|0:0|0:0,0:0:0:0:
