osu file format v14

[General]
AudioFilename: SCREEN mode - Naked Drive.mp3
AudioLeadIn: 0
PreviewTime: 62034
Countdown: 0
SampleSet: Soft
StackLeniency: 0.7
Mode: 0
LetterboxInBreaks: 1
WidescreenStoryboard: 1

[Editor]
Bookmarks: 10803
DistanceSpacing: 1
BeatDivisor: 4
GridSize: 32
TimelineZoom: 2.3

[Metadata]
Title:Naked Dive (TV Size)
TitleUnicode:Naked Dive (TV Size)
Artist:SCREEN mode
ArtistUnicode:SCREEN mode
Creator:Kuro Fuyusaki
Version:Easy
Source:無彩限のファントム・ワールド
Tags:musaigen no phantom world fattypikachu CyberX kjounouchi mai kawakami reina izumi koito minase kurumi kumamakura ruru
BeatmapID:883105
BeatmapSetID:406350

[Difficulty]
HPDrainRate:2
CircleSize:3
OverallDifficulty:2
ApproachRate:3
SliderMultiplier:0.999999999999999
SliderTickRate:1

[Events]
//Background and Video events
0,0,"BG.jpg",0,0
Video,-172,"OP.avi"
//Break Periods
//Storyboard Layer 0 (Background)
//Storyboard Layer 1 (Fail)
//Storyboard Layer 2 (Pass)
//Storyboard Layer 3 (Foreground)
//Storyboard Sound Samples

[TimingPoints]
235,545.454545454546,4,2,5,10,1,0
2416,500,4,2,5,10,1,0
3416,461.538461538462,4,2,5,10,1,0
4339,428.571428571429,4,2,5,12,1,0
5196,413.793103448276,4,2,5,16,1,0
6023,379.746835443038,4,2,5,24,1,0
7541,379.746835443038,4,2,5,34,1,0
13616,-100,4,2,4,60,0,0
25768,-100,4,2,3,40,0,0
36401,-100,4,2,4,60,0,0
37920,-100,4,2,3,40,0,0
48553,-100,4,2,4,60,0,0
50072,-100,4,2,4,55,0,0
60705,-100,4,2,4,60,0,0
62224,-100,4,2,4,72,0,1
86528,-100,4,2,0,31,0,0

[Colours]
Combo1 : 0,255,255
Combo2 : 235,237,250
Combo3 : 131,131,131
Combo4 : 255,102,204
Combo5 : 250,196,31
Combo6 : 29,152,226

[HitObjects]
325,119,7541,6,0,P|373:130|486:104,2,150,2|0|2,0:0|0:0|0:0,0:0:0:0:
234,77,9059,1,0,0:0:0:0:
189,166,9439,2,2,L|79:182,2,99.9999999999999
256,192,10578,12,4,12097,0:0:0:0:
135,208,13616,22,0,P|176:126|283:99,1,200,6|2,0:0|0:0,0:0:0:0:
374,100,14756,1,8,0:0:0:0:
446,168,15135,2,0,P|459:216|454:273,2,99.9999999999999,2|8|0,0:0|0:0|0:0,0:0:0:0:
348,190,16275,1,8,0:0:0:0:
252,218,16654,6,0,P|239:170|244:113,1,99.9999999999999,0|8,0:0|0:0,0:0:0:0:
263,23,17414,2,0,P|213:20|171:45,1,99.9999999999999,2|8,0:0|0:0,0:0:0:0:
106,120,18173,2,0,L|109:228,1,99.9999999999999,2|8,0:0|0:0,0:0:0:0:
140,313,18933,2,0,B|190:327|246:300|246:300|357:322,1,200,2|4,0:0|0:0,0:0:0:0:
412,254,20072,5,8,0:0:0:0:
478,178,20452,2,0,P|457:139|395:124,1,99.9999999999999,2|8,0:0|0:0,0:0:0:0:
322,177,21211,2,0,B|276:167|234:213|234:213|192:164|144:176,1,200,2|2,0:0|0:0,0:0:0:0:
109,82,22351,1,2,0:0:0:0:
14,113,22730,6,0,P|-12:184|147:314,1,300,4|0,0:0|0:0,0:0:0:0:
231,311,24249,2,6,B|317:306,2,74.9999999999999,6|2|6,0:0|0:0|0:0,0:0:0:0:
190,166,25389,1,4,0:0:0:0:
256,91,25768,54,0,P|354:59|451:91,1,200,2|2,0:0|0:0,0:0:0:0:
483,178,26908,1,8,0:0:0:0:
383,176,27287,2,0,B|353:216|353:260|353:260|392:322|354:377,2,200,2|0|0,0:0|0:0|0:0,0:0:0:0:
292,133,29186,5,0,0:0:0:0:
204,181,29566,2,0,L|196:291,1,99.9999999999999,2|8,0:0|0:0,0:0:0:0:
287,319,30325,2,0,P|361:312|424:271,2,150,2|8|0,0:0|0:0|0:0,0:0:0:0:
288,220,31844,6,0,P|342:208|375:158,1,99.9999999999999,4|8,0:0|0:0,0:0:0:0:
369,74,32604,2,0,P|330:32|284:24,1,99.9999999999999,0|8,0:0|0:0,0:0:0:0:
202,72,33363,2,0,L|202:176,1,99.9999999999999,2|8,0:0|0:0,0:0:0:0:
108,135,34123,2,0,L|107:240,1,99.9999999999999,2|8,0:0|0:0,0:0:0:0:
25,292,34882,70,0,P|97:369|198:346,1,200,2|2,0:0|0:0,0:0:0:0:
245,278,36022,1,8,0:0:0:0:
164,221,36401,2,6,B|143:176|143:176|145:59,2,150
249,168,37920,37,0,0:0:0:0:
315,356,38680,2,0,L|433:339,1,99.9999999999999,2|8,0:0|0:0,0:0:0:0:
464,252,39439,1,2,0:0:0:0:
292,148,40199,2,0,L|180:156,1,99.9999999999999,0|10,0:0|0:0,0:0:0:0:
92,160,40958,69,2,0:0:0:0:
202,329,41718,2,0,L|102:315,1,99.9999999999999,2|8,0:0|0:0,0:0:0:0:
5,337,42477,1,2,0:0:0:0:
92,160,43237,2,0,L|210:171,1,99.9999999999999,8|10,0:0|0:0,0:0:0:0:
285,134,43996,5,6,0:0:0:0:
223,333,44756,2,0,L|329:317,1,99.9999999999999,0|8,0:0|0:0,0:0:0:0:
420,334,45515,1,2,0:0:0:0:
346,147,46275,2,0,L|228:162,1,99.9999999999999,0|8,0:0|0:0,0:0:0:0:
155,119,47034,69,2,0:0:0:0:
69,300,47794,1,0,0:0:0:0:
155,250,48173,1,8,0:0:0:0:
227,319,48553,54,6,P|280:309|298:217,1,150
171,151,49692,1,4,0:0:0:0:
256,102,50072,54,0,L|362:107,2,99.9999999999999,2|8|2,0:0|0:0|0:0,0:0:0:0:
174,44,51211,1,8,0:0:0:0:
93,102,51591,2,0,P|94:147|128:189,1,99.9999999999999,2|8,0:0|0:0,0:0:0:0:
66,268,52351,2,0,P|107:294|168:282,1,99.9999999999999,2|8,0:0|0:0,0:0:0:0:
252,260,53110,5,2,0:0:0:0:
347,289,53490,1,8,0:0:0:0:
391,203,53870,2,0,L|390:84,1,99.9999999999999,2|8,0:0|0:0,0:0:0:0:
299,60,54629,2,0,P|206:92|193:189,1,200,2|2,0:0|0:0,0:0:0:0:
252,260,55768,1,0,0:0:0:0:
347,289,56148,6,0,L|452:289,1,99.9999999999999,6|8,0:0|0:0,0:0:0:0:
424,191,56908,2,0,L|321:191,1,99.9999999999999,2|8,0:0|0:0,0:0:0:0:
252,260,57667,2,0,P|211:268|180:134,1,200,2|2,0:0|0:0,0:0:0:0:
239,85,58806,1,8,0:0:0:0:
335,113,59186,6,0,L|442:106,2,99.9999999999999
258,177,60325,1,0,0:0:0:0:
182,111,60705,2,0,B|90:99|90:99|16:119,2,150
258,177,62224,38,0,L|251:291,1,99.9999999999999,2|8,0:0|0:0,0:0:0:0:
156,308,62984,2,0,L|164:201,1,99.9999999999999,2|0,0:0|0:0,0:0:0:0:
183,110,63743,2,0,P|273:78|346:140,1,200,2|0,0:0|0:0,0:0:0:0:
409,217,64882,1,8,0:0:0:0:
357,299,65262,6,0,B|319:312|319:312|251:307,2,99.9999999999999
302,214,66401,1,10,0:0:0:0:
371,142,66781,2,0,P|320:115|257:123,2,99.9999999999999
424,226,67920,1,0,0:0:0:0:
416,325,68300,6,0,L|313:340,1,99.9999999999999,4|8,0:0|0:0,0:0:0:0:
324,240,69059,2,0,L|433:224,1,99.9999999999999,2|8,0:0|0:0,0:0:0:0:
392,130,69819,2,0,P|346:99|218:158,1,200,2|0,0:0|0:0,0:0:0:0:
223,244,70958,1,8,0:0:0:0:
312,290,71338,6,0,L|421:285,2,99.9999999999999,0|0|2,0:0|0:0|0:0,0:0:0:0:
223,244,72477,1,8,0:0:0:0:
138,298,72857,2,0,B|56:304|56:304|3:255,2,150,6|6|0,0:0|0:0|0:0,0:0:0:0:
237,316,74376,38,0,P|346:342|403:269,1,200,4|2,0:0|0:0,0:0:0:0:
350,197,75515,1,8,0:0:0:0:
292,115,75895,2,0,L|179:133,1,99.9999999999999,0|2,0:0|0:0,0:0:0:0:
94,116,76654,2,0,P|28:148|9:189,1,99.9999999999999,0|8,0:0|0:0,0:0:0:0:
107,208,77414,6,0,P|200:246|291:183,1,200,0|2,0:0|0:0,0:0:0:0:
345,124,78553,1,8,0:0:0:0:
419,193,78933,2,0,L|417:306,2,99.9999999999999,2|0|0,0:0|0:0|0:0,0:0:0:0:
491,123,80072,1,8,0:0:0:0:
417,56,80452,22,0,B|362:9|280:21|246:92|246:92|194:105|140:74,1,300,4|8,0:0|0:0,0:0:0:0:
57,112,81971,2,0,P|47:162|60:226,1,99.9999999999999,2|0,0:0|0:0,0:0:0:0:
123,282,82730,2,0,P|191:295|232:275,1,99.9999999999999,0|8,0:0|0:0,0:0:0:0:
173,195,83490,38,0,P|181:120|377:63,1,300,4|0,0:0|0:0,0:0:0:0:
442,123,85009,2,6,B|457:196|457:196|428:278,2,150
