osu file format v14

[General]
AudioFilename: audio.mp3
AudioLeadIn: 0
PreviewTime: 53639
Countdown: 1
SampleSet: Normal
StackLeniency: 0.7
Mode: 0
LetterboxInBreaks: 0
WidescreenStoryboard: 1

[Editor]
DistanceSpacing: 1.1
BeatDivisor: 4
GridSize: 4
TimelineZoom: 2.2

[Metadata]
Title:Rough Diamonds
TitleUnicode:Rough Diamonds
Artist:SCREEN Mode
ArtistUnicode:SCREEN Mode
Creator:cococolaco
Version:Hard
Source:Shokugeki no Soma
Tags:shokugeki no soma rough diamonds screen mode food wars
BeatmapID:1372323
BeatmapSetID:644540

[Difficulty]
HPDrainRate:5
CircleSize:4
OverallDifficulty:7
ApproachRate:8
SliderMultiplier:1.79999990463257
SliderTickRate:1

[Events]
//Background and Video events
0,0,"shokugeki_no_soma_wallpaper_by_redeye27-d8ogz3c.jpg",0,0
//Break Periods
2,75945,77837
//Storyboard Layer 0 (Background)
//Storyboard Layer 1 (Fail)
//Storyboard Layer 2 (Pass)
//Storyboard Layer 3 (Foreground)
//Storyboard Sound Samples

[TimingPoints]
1218,315.789473684211,4,1,0,50,1,0
13845,-400,4,1,0,50,0,0
18740,-200,4,1,0,50,0,0
23950,-400,4,2,0,50,0,0
28845,-200,4,1,0,50,0,0
33270,-133.333333333333,4,1,0,50,0,0
44161,-133.333333333333,4,2,0,50,0,0
45112,-399.999999999997,4,2,0,50,0,0
45586,-133.333333333333,4,2,0,50,0,0
47639,-400,4,2,0,50,0,0
48112,-133.333333333333,4,2,0,50,0,0
49214,-133.333333333333,4,2,0,50,0,0
54270,-100,4,2,0,50,0,1
59007,-100,4,2,0,50,0,1
64375,-100,4,2,0,50,0,1
69112,-100,4,2,0,50,0,0
78582,-100,4,2,0,50,0,0
82533,-200,4,2,0,50,0,0

[HitObjects]
208,228,1218,5,0,0:0:0:0:
256,108,1692,1,0,0:0:0:0:
304,228,2166,1,0,0:0:0:0:
256,176,2561,2,0,L|256:76,2,89.9999952316285
256,208,3034,1,0,0:0:0:0:
324,260,3192,2,0,L|372:272,6,44.9999976158143
432,228,3745,6,0,L|428:128,2,89.9999952316285
344,304,4218,1,0,0:0:0:0:
344,304,4376,2,0,L|264:352,1,89.9999952316285
276,304,4692,2,0,L|196:352,1,89.9999952316285
84,180,5166,5,0,0:0:0:0:
84,180,5324,2,0,L|84:88,1,89.9999952316285
188,236,5640,2,0,L|265:189,1,89.9999952316285
188,172,5955,2,0,L|265:125,1,89.9999952316285
416,96,6429,5,0,0:0:0:0:
416,96,6587,2,0,L|416:192,1,89.9999952316285
336,148,6903,2,0,L|298:66,1,89.9999952316285
272,148,7218,2,0,L|234:66,1,89.9999952316285
128,100,7692,5,0,0:0:0:0:
128,100,7850,2,0,L|176:176,1,89.9999952316285
72,220,8166,2,0,B|96:264|96:264|140:260,1,89.9999952316285
135,260,8482,2,0,B|159:304|159:304|203:300,1,89.9999952316285
348,252,8876,5,0,0:0:0:0:
348,252,8955,2,0,L|396:160,1,89.9999952316285
389,172,9271,1,0,0:0:0:0:
400,72,9429,1,0,0:0:0:0:
400,72,9587,1,0,0:0:0:0:
288,104,9745,1,0,0:0:0:0:
288,104,9903,1,0,0:0:0:0:
88,168,10218,5,0,0:0:0:0:
88,168,10376,2,0,L|88:264,1,89.9999952316285
188,328,10692,1,0,0:0:0:0:
188,328,10850,1,0,0:0:0:0:
188,224,11008,1,0,0:0:0:0:
188,224,11166,1,0,0:0:0:0:
236,96,11482,5,0,0:0:0:0:
236,96,11640,2,0,L|328:132,1,89.9999952316285
400,232,11955,1,0,0:0:0:0:
400,232,12113,1,0,0:0:0:0:
288,224,12271,1,0,0:0:0:0:
288,224,12429,1,0,0:0:0:0:
108,248,12745,6,0,L|108:152,1,89.9999952316285
108,248,13061,1,0,0:0:0:0:
324,216,13376,6,0,L|368:192,5,44.9999976158143
384,172,13850,6,0,P|380:108|296:84,1,157.49999165535
228,176,15271,1,0,0:0:0:0:
160,88,15587,1,0,0:0:0:0:
96,184,15903,1,0,0:0:0:0:
96,184,16061,1,0,0:0:0:0:
160,276,16376,6,0,P|217:304|280:243,1,157.49999165535
312,136,17797,1,0,0:0:0:0:
436,172,18113,1,0,0:0:0:0:
396,64,18429,1,0,0:0:0:0:
396,64,18587,1,0,0:0:0:0:
396,64,18745,6,0,L|332:56,1,44.9999976158143
272,128,19061,2,0,L|208:132,2,44.9999976158143
272,52,19534,2,0,L|208:44,1,44.9999976158143
120,48,19850,1,0,0:0:0:0:
120,48,20008,2,0,L|112:96,1,44.9999976158143
100,184,20324,2,0,L|92:244,2,44.9999976158143
188,184,20797,2,0,L|192:232,1,44.9999976158143
200,308,21113,1,0,0:0:0:0:
304,332,21271,6,0,P|384:324|408:272,1,134.999992847443
416,156,22218,2,0,L|392:112,1,44.9999976158143
344,40,22534,6,0,P|264:48|240:100,1,134.999992847443
240,90,23166,1,0,0:0:0:0:
144,144,23324,2,0,L|144:80,1,44.9999976158143
84,148,23640,1,0,0:0:0:0:
88,320,23955,6,0,P|152:316|176:232,1,157.49999165535
144,132,25376,1,0,0:0:0:0:
256,91,25692,1,0,0:0:0:0:
297,203,26008,1,0,0:0:0:0:
297,203,26166,1,0,0:0:0:0:
408,212,26482,6,0,P|472:204|496:120,1,157.49999165535
424,136,27903,1,0,0:0:0:0:
424,136,28218,1,0,0:0:0:0:
320,68,28534,1,0,0:0:0:0:
320,68,28692,1,0,0:0:0:0:
304,184,28850,6,0,L|240:192,1,44.9999976158143
180,120,29166,2,0,L|116:116,2,44.9999976158143
180,196,29640,2,0,L|116:204,1,44.9999976158143
28,200,29955,1,0,0:0:0:0:
28,200,30113,2,0,L|20:152,1,44.9999976158143
8,64,30429,2,0,L|0:4,2,44.9999976158143
104,72,30903,2,0,L|152:76,1,44.9999976158143
228,84,31218,1,0,0:0:0:0:
416,64,31376,6,0,P|432:120|400:220,1,157.49999165535
272,312,32324,1,0,0:0:0:0:
272,312,32482,1,0,0:0:0:0:
272,312,32640,2,0,P|196:312|148:248,1,157.49999165535
156,212,33271,2,0,L|168:168,4,33.749999499321
132,148,33666,2,0,L|120:96,4,33.749999499321
148,80,34061,1,0,0:0:0:0:
252,188,34376,6,0,L|252:256,2,67.499998998642
328,184,34850,1,0,0:0:0:0:
472,216,35166,2,0,P|492:160|464:116,1,101.249998497963
440,112,35482,1,0,0:0:0:0:
292,132,35797,5,0,0:0:0:0:
260,276,36113,2,0,L|188:240,1,67.499998998642
52,216,36587,6,0,L|63:283,2,67.499998998642
124,88,37218,2,0,P|156:60|192:80,1,67.499998998642
344,60,37692,6,0,P|410:88|413:172,1,134.999997997284
236,220,38324,2,0,P|244:312|276:312,1,134.999997997284
336,300,38797,1,0,0:0:0:0:
336,300,38955,1,0,0:0:0:0:
392,252,39113,5,0,0:0:0:0:
340,112,39429,2,0,L|268:112,2,67.499998998642
336,188,39903,1,0,0:0:0:0:
224,284,40218,2,0,L|144:200,1,101.249998497963
144,176,40534,1,0,0:0:0:0:
240,64,40850,5,0,0:0:0:0:
388,56,41166,2,0,L|400:124,1,67.499998998642
372,268,41640,6,0,L|372:344,2,67.499998998642
368,120,42271,2,0,P|336:92|300:112,1,67.499998998642
164,88,42745,6,0,P|135:91|86:180,1,134.999997997284
152,308,43376,6,0,P|184:360|260:368,1,134.999997997284
232,300,43850,1,0,0:0:0:0:
232,300,44008,1,0,0:0:0:0:
312,304,44166,6,0,L|340:224,1,67.499998998642
384,100,44640,2,0,L|308:64,1,67.499998998642
272,212,45113,6,0,P|248:232|224:208,1,67.4999964237214
24,112,46061,1,0,0:0:0:0:
200,348,46692,6,0,L|272:332,1,67.499998998642
412,304,47166,2,0,L|432:232,1,67.499998998642
280,228,47640,6,0,P|260:212|280:180,1,67.4999964237214
444,32,48587,1,0,0:0:0:0:
152,96,49218,6,0,L|124:164,3,67.499998998642
124,232,49850,2,0,L|128:304,3,67.499998998642
196,328,50482,2,0,L|268:324,3,67.499998998642
332,292,51113,2,0,L|396:248,3,67.499998998642
400,180,51745,2,0,P|408:96|372:84,1,134.999997997284
300,92,52218,1,0,0:0:0:0:
228,100,52376,2,0,L|160:120,1,67.499998998642
100,156,52692,1,0,0:0:0:0:
100,156,52850,1,0,0:0:0:0:
108,228,53008,2,0,L|120:300,2,67.499998998642
228,316,53640,5,0,0:0:0:0:
228,316,53797,1,0,0:0:0:0:
304,312,53955,1,0,0:0:0:0:
304,312,54113,1,0,0:0:0:0:
404,304,54271,6,0,P|400:176|348:168,1,179.999990463257
276,172,54745,1,0,0:0:0:0:
224,312,55218,6,0,P|145:344|87:283,1,179.999990463257
92,183,55692,1,0,0:0:0:0:
304,56,56166,5,0,0:0:0:0:
304,56,56324,1,0,0:0:0:0:
382,117,56482,1,0,0:0:0:0:
382,117,56640,1,0,0:0:0:0:
420,208,56797,2,0,P|392:288|296:320,1,179.999990463257
208,308,57271,2,0,P|136:288|100:188,1,179.999990463257
120,100,57745,2,0,B|192:0|188:176|256:12|294:167|356:40,1,269.999985694885
356,236,59324,6,0,P|284:298|220:228,1,179.999990463257
184,168,59797,1,0,0:0:0:0:
4,252,60113,1,0,0:0:0:0:
4,252,60271,2,0,P|20:360|104:364,1,179.999990463257
416,104,61218,6,0,L|328:64,1,89.9999952316285
240,92,61534,2,0,L|152:152,1,89.9999952316285
92,212,61850,1,0,0:0:0:0:
292,360,62324,1,0,0:0:0:0:
388,28,62797,1,0,0:0:0:0:
124,164,63271,1,0,0:0:0:0:
364,340,63745,5,0,0:0:0:0:
364,340,63903,1,0,0:0:0:0:
414,283,64061,1,0,0:0:0:0:
414,283,64218,1,0,0:0:0:0:
420,184,64376,6,0,P|312:113|276:151,1,179.999990463257
344,184,64850,1,0,0:0:0:0:
244,336,65245,6,0,P|165:368|107:307,1,179.999990463257
184,284,65718,1,0,0:0:0:0:
52,48,66271,5,0,0:0:0:0:
52,48,66429,1,0,0:0:0:0:
151,35,66587,1,0,0:0:0:0:
151,35,66745,1,0,0:0:0:0:
249,54,66903,2,0,P|323:94|340:193,1,179.999990463257
364,280,67376,2,0,P|292:260|256:160,1,179.999990463257
236,72,67850,2,0,B|114:92|274:166|97:155|219:257|78:257,1,269.999985694885
104,224,69429,6,0,P|176:286|240:216,1,179.999990463257
276,156,69903,1,0,0:0:0:0:
456,240,70218,1,0,0:0:0:0:
456,240,70376,2,0,P|440:348|352:352,1,179.999990463257
324,232,71324,6,0,L|236:192,1,89.9999952316285
148,220,71640,2,0,L|60:280,1,89.9999952316285
164,316,71955,1,0,0:0:0:0:
412,316,72350,1,0,0:0:0:0:
204,36,72903,5,0,0:0:0:0:
80,308,73376,2,0,B|168:336|220:292|344:348,1,269.999985694885
256,192,74482,12,0,75745,0:0:0:0:
80,228,78587,6,0,L|84:128,2,89.9999952316285
168,304,79061,1,0,0:0:0:0:
168,304,79218,2,0,L|248:352,1,89.9999952316285
236,304,79534,2,0,L|316:352,1,89.9999952316285
428,180,80008,5,0,0:0:0:0:
428,180,80166,2,0,L|428:88,1,89.9999952316285
324,236,80482,2,0,L|247:189,1,89.9999952316285
324,172,80797,2,0,L|247:125,1,89.9999952316285
96,96,81271,5,0,0:0:0:0:
96,96,81429,2,0,L|96:192,1,89.9999952316285
176,148,81745,2,0,L|214:66,1,89.9999952316285
240,148,82061,2,0,L|278:66,1,89.9999952316285
196,124,82534,6,0,L|196:188,2,44.9999976158143
244,128,83008,2,0,L|284:180,3,44.9999976158143
248,216,83797,6,0,P|296:184|296:184,1,44.9999976158143
304,220,84113,2,0,L|360:220,1,44.9999976158143
380,220,84429,1,0,0:0:0:0:
464,192,84587,5,0,0:0:0:0:
504,104,84745,1,0,0:0:0:0:
