osu file format v14

[General]
AudioFilename: audio.mp3
AudioLeadIn: 0
PreviewTime: 60507
Countdown: 0
SampleSet: Soft
StackLeniency: 0.7
Mode: 0
LetterboxInBreaks: 0
WidescreenStoryboard: 1

[Editor]
Bookmarks: 129917
DistanceSpacing: 1.3
BeatDivisor: 4
GridSize: 32
TimelineZoom: 2.5

[Metadata]
Title:Platform Syndrome
TitleUnicode:プラットホームシンドローム
Artist:SCANDAL
ArtistUnicode:SCANDAL
Creator:Sotarks
Version:Kalibe's Hard
Source:
Tags:honey haruna ono mami sasazaki rina suzuki tomomi ogawa epic records japan sony music entertainment eguchi ryo akitoshi corinn kalibe
BeatmapID:1566694
BeatmapSetID:741975

[Difficulty]
HPDrainRate:5
CircleSize:3.9
OverallDifficulty:6
ApproachRate:8
SliderMultiplier:1.52
SliderTickRate:1

[Events]
//Background and Video events
0,0,"BG2.jpg",0,0
//Break Periods
//Storyboard Layer 0 (Background)
//Storyboard Layer 1 (Fail)
//Storyboard Layer 2 (Pass)
//Storyboard Layer 3 (Foreground)
//Storyboard Sound Samples

[TimingPoints]
1150,285.714285714286,4,2,22,32,1,0
1150,-192.307692307692,4,2,22,32,0,0
5435,-108.695652173913,4,2,22,42,0,0
9864,-121.951219512195,4,2,22,52,0,0
10292,-108.695652173913,4,2,22,52,0,0
14864,-121.951219512195,4,2,22,42,0,0
28578,-108.695652173913,4,2,22,52,0,0
56292,-108.695652173913,4,2,22,32,0,0
56578,-108.695652173913,4,2,22,42,0,0
56721,-108.695652173913,4,2,22,52,0,0
56864,-108.695652173913,4,2,22,62,0,0
58292,-108.695652173913,4,2,22,72,0,0
60578,-98.0392156862745,4,2,22,82,0,1
75864,-98.0392156862745,4,2,22,52,0,1
76578,-108.695652173913,4,2,22,52,0,0
78864,-98.0392156862745,4,2,22,52,0,0
85707,285.714285714286,4,2,22,52,1,0
85707,-98.0392156862745,4,2,22,52,0,0
88007,285.714285714286,4,2,22,82,1,1
88007,-98.0392156862745,4,2,22,82,0,1
88283,285.714285714286,4,2,22,82,1,1
88283,-98.0392156862745,4,2,22,82,0,1
92560,285.714285714286,4,2,22,82,1,1
92560,-98.0392156862745,4,2,22,82,0,1
97131,-121.951219512195,4,2,22,62,0,0
103988,-450.307692307692,4,2,22,52,0,0
106202,-450.307692307692,4,2,22,5,0,0
106274,-121.64408611088,4,2,22,52,0,0
108560,-108.451591389084,4,2,22,62,0,0
113131,-108.451591389084,4,2,22,52,0,0
117702,-555.555555555556,4,2,22,52,0,0
117774,-555.555555555556,4,2,22,12,0,0

[Colours]
Combo1 : 214,216,216
Combo2 : 251,123,187
Combo3 : 214,58,152
Combo4 : 249,79,79
SliderBorder : 255,255,255
SliderTrackOverride : 253,198,251

[HitObjects]
471,86,1150,6,0,L|478:37,1,39.5199997587891,2|2,0:0|0:0,0:0:0:0:
454,212,1721,2,0,L|461:163,1,39.5199997587891,2|2,0:0|0:0,0:0:0:0:
330,52,2292,6,0,L|323:3,1,39.5199997587891,2|2,0:0|0:0,0:0:0:0:
347,178,2864,2,0,L|339:124,1,39.5199997587891,2|2,0:0|0:0,0:0:0:0:
181,93,3435,6,0,L|188:44,1,39.5199997587891,2|2,0:0|0:0,0:0:0:0:
164,219,4007,2,0,L|171:170,1,39.5199997587891,2|2,0:0|0:0,0:0:0:0:
20,83,4578,6,0,L|105:74,1,79.0399995175781,2|2,0:0|0:0,0:0:0:0:
153,134,5007,2,0,L|237:124,1,79.0399995175781,2|0,0:0|0:0,0:0:0:0:
298,80,5435,1,8,0:0:0:0:
298,80,5721,6,0,P|286:145|278:221,1,139.839995305664,4|8,1:0|0:0,0:0:0:0:
398,356,6292,2,0,P|413:325|405:281,1,69.9199976528321,2|2,1:0|1:0,0:0:0:0:
372,206,6578,1,8,0:0:0:0:
372,206,6864,6,0,L|451:193,1,69.9199976528321,2|2,1:0|1:0,0:0:0:0:
480,101,7150,2,0,P|403:91|336:83,1,139.839995305664,8|2,0:0|1:0,0:0:0:0:
265,147,7578,1,2,1:0:0:0:
265,147,7721,2,0,P|282:176|286:217,1,69.9199976528321,8|2,0:0|0:0,0:0:0:0:
175,146,8007,6,0,P|182:109|192:56,1,69.9199976528321,2|2,1:0|1:0,0:0:0:0:
79,145,8292,2,0,P|91:216|99:309,1,139.839995305664,8|2,0:0|1:0,0:0:0:0:
153,363,8721,1,2,1:0:0:0:
153,363,8864,2,0,L|225:354,1,69.9199976528321,8|2,0:0|0:0,0:0:0:0:
323,285,9150,6,0,P|317:316|309:364,1,69.9199976528321,2|2,1:0|1:0,0:0:0:0:
414,296,9435,2,0,L|398:139,1,139.839995305664,10|8,0:0|0:0,0:0:0:0:
374,62,9864,2,0,L|445:75,1,62.3200009509277,0|2,1:0|3:0,0:0:0:0:
435,73,10292,6,0,B|358:60|371:109|291:95,1,139.839995305664,6|10,1:0|0:0,0:0:0:0:
130,30,10864,2,0,L|120:110,1,69.9199976528321,2|2,1:0|1:0,0:0:0:0:
209,74,11150,1,10,0:0:0:0:
72,193,11435,6,0,P|106:186|148:183,1,69.9199976528321,2|2,1:0|1:0,0:0:0:0:
208,244,11721,2,0,P|193:308|171:402,1,139.839995305664,10|2,0:0|1:0,0:0:0:0:
92,333,12150,1,2,1:0:0:0:
92,333,12292,2,0,P|102:297|115:252,1,69.9199976528321,8|2,0:0|0:0,0:0:0:0:
151,172,12578,6,0,P|187:168|238:158,1,69.9199976528321,2|2,1:0|1:0,0:0:0:0:
293,242,12864,2,0,P|345:237|421:286,1,139.839995305664,10|2,0:0|1:0,0:0:0:0:
467,205,13292,2,0,L|455:115,1,69.9199976528321,2|10,1:0|0:0,0:0:0:0:
381,85,13578,1,0,0:0:0:0:
484,34,13721,6,0,P|421:67|353:63,1,139.839995305664,2|8,1:0|0:0,0:0:0:0:
283,121,14150,2,0,L|291:169,2,34.9599988264161,2|0|10,1:0|0:0|0:0,0:0:0:0:
228,48,14435,1,8,0:0:0:0:
228,48,14578,2,0,L|151:61,1,69.9199976528321,8|0,3:0|0:0,0:0:0:0:
71,105,14864,6,0,P|114:146|108:212,1,124.640001901855,6|10,1:0|0:0,0:0:0:0:
6,331,15435,2,0,L|84:319,1,62.3200009509277,2|0,1:0|1:0,0:0:0:0:
130,373,15721,2,0,L|260:353,1,124.640001901855,10|2,0:0|1:0,0:0:0:0:
301,288,16150,5,0,1:0:0:0:
301,288,16292,2,0,L|378:300,1,62.3200009509277,10|0,0:0|1:0,0:0:0:0:
438,352,16578,2,0,P|467:294|445:232,1,124.640001901855,2|10,0:0|0:0,0:0:0:0:
323,138,17150,6,0,L|336:55,1,62.3200009509277,2|0,1:0|1:0,0:0:0:0:
428,132,17435,2,0,P|377:166|305:145,1,124.640001901855,8|2,0:0|1:0,0:0:0:0:
244,118,17864,1,2,1:0:0:0:
244,118,18007,2,0,P|234:176|223:250,1,124.640001901855,10|2,0:0|1:0,0:0:0:0:
101,347,18578,5,8,0:0:0:0:
101,347,18721,2,0,P|93:316|101:281,1,62.3200009509277,8|2,0:0|1:0,0:0:0:0:
140,216,19007,1,2,1:0:0:0:
89,152,19150,2,0,L|17:161,1,62.3200009509277,8|2,0:0|0:0,0:0:0:0:
71,63,19435,6,0,P|131:71|203:80,1,124.640001901855,4|10,1:0|0:0,0:0:0:0:
350,127,20007,2,0,P|352:94|366:53,1,62.3200009509277,0|2,1:0|1:0,0:0:0:0:
428,23,20292,2,0,P|459:24|489:33,1,62.3200009509277,8|2,0:0|0:0,0:0:0:0:
443,128,20578,6,0,L|306:147,1,124.640001901855,4|10,1:0|0:0,0:0:0:0:
279,216,21007,1,0,0:0:0:0:
279,216,21150,2,0,L|346:231,1,62.3200009509277,2|0,1:0|1:0,0:0:0:0:
383,297,21435,2,0,L|316:312,1,62.3200009509277,10|2,0:0|0:0,0:0:0:0:
234,367,21721,6,0,P|199:361|170:358,1,62.3200009509277,0|0,1:0|1:0,0:0:0:0:
90,313,22007,2,0,P|67:258|103:199,1,124.640001901855,8|0,0:0|1:0,0:0:0:0:
164,161,22435,1,0,1:0:0:0:
164,161,22578,2,0,L|176:227,1,62.3200009509277,8|2,0:0|0:0,0:0:0:0:
76,173,22864,6,0,L|98:97,1,62.3200009509277,0|0,1:0|1:0,0:0:0:0:
139,46,23150,1,10,0:0:0:0:
209,85,23292,2,0,P|270:79|350:72,1,124.640001901855,2|0,0:0|1:0,0:0:0:0:
401,28,23721,2,0,L|475:42,1,62.3200009509277,10|0,0:0|0:0,0:0:0:0:
512,115,24007,6,0,P|449:118|391:144,1,124.640001901855,6|8,1:0|0:0,0:0:0:0:
268,246,24578,2,0,P|264:278|255:332,1,62.3200009509277,0|0,1:0|1:0,0:0:0:0:
337,352,24864,2,0,P|346:290|356:223,1,124.640001901855,8|0,0:0|1:0,0:0:0:0:
312,159,25292,5,0,1:0:0:0:
312,159,25435,2,0,P|245:154|192:187,1,124.640001901855,8|0,0:0|1:0,0:0:0:0:
143,243,25864,1,0,1:0:0:0:
143,243,26007,2,0,L|66:233,1,62.3200009509277,10|0,0:0|0:0,0:0:0:0:
20,181,26292,6,0,P|30:146|38:101,1,62.3200009509277,2|0,1:0|1:0,0:0:0:0:
78,51,26578,2,0,P|139:59|210:67,1,124.640001901855,8|0,0:0|1:0,0:0:0:0:
273,114,27007,1,0,1:0:0:0:
273,114,27150,2,0,L|287:44,1,62.3200009509277,8|0,0:0|0:0,0:0:0:0:
355,12,27435,6,0,P|365:38|367:94,1,62.3200009509277,0|0,1:0|1:0,0:0:0:0:
440,153,27721,2,0,P|423:211|414:281,1,124.640001901855,8|2,0:0|1:0,0:0:0:0:
445,350,28150,1,2,1:0:0:0:
370,381,28292,2,0,L|325:374,3,31.1600004754639,8|8|8|8,0:0|0:0|0:0|0:0,0:0:0:0:
318,350,28578,6,0,L|172:367,2,139.839995305664,6|10|2,1:0|0:0|1:0,0:0:0:0:
289,270,29292,1,0,1:0:0:0:
289,270,29435,2,0,L|203:278,1,69.9199976528321,10|0,0:0|0:0,0:0:0:0:
121,305,29721,6,0,P|93:238|124:185,1,139.839995305664,2|10,1:0|0:0,0:0:0:0:
187,128,30150,1,0,1:0:0:0:
182,118,30292,2,0,P|147:110|99:96,1,69.9199976528321,2|0,0:0|1:0,0:0:0:0:
201,202,30578,2,0,P|236:194|284:180,1,69.9199976528321,10|2,0:0|0:0,0:0:0:0:
323,98,30864,6,0,P|367:63|455:85,2,139.839995305664,2|10|2,1:0|0:0|1:0,0:0:0:0:
286,173,31578,1,0,1:0:0:0:
339,237,31721,2,0,L|418:225,1,69.9199976528321,10|0,0:0|0:0,0:0:0:0:
492,270,32007,6,0,P|456:263|409:256,1,69.9199976528321,2|0,1:0|1:0,0:0:0:0:
358,353,32292,1,8,0:0:0:0:
358,353,32435,2,0,P|325:348|276:339,1,69.9199976528321,8|2,0:0|1:0,0:0:0:0:
216,278,32721,1,2,1:0:0:0:
142,330,32864,2,0,P|128:295|134:250,1,69.9199976528321,8|10,0:0|0:0,0:0:0:0:
73,166,33150,6,0,P|142:180|223:193,2,139.839995305664,0|10|0,1:0|0:0|1:0,0:0:0:0:
14,105,33864,1,2,1:0:0:0:
63,37,34007,2,0,L|147:27,1,69.9199976528321,8|2,0:0|0:0,0:0:0:0:
198,94,34292,6,0,P|207:58|224:15,1,69.9199976528321,4|0,1:0|0:0,0:0:0:0:
291,92,34578,2,0,P|339:125|432:108,1,139.839995305664,10|0,0:0|1:0,0:0:0:0:
491,76,35007,1,0,1:0:0:0:
412,111,35150,2,0,L|421:181,1,69.9199976528321,10|0,0:0|0:0,0:0:0:0:
487,261,35435,6,0,P|411:265|365:330,1,139.839995305664,2|8,1:0|0:0,0:0:0:0:
296,371,35864,2,0,P|278:310|313:233,1,139.839995305664,0|0,0:0|1:0,0:0:0:0:
317,158,36292,2,0,P|328:189|323:231,1,69.9199976528321,8|2,0:0|0:0,0:0:0:0:
244,319,36578,6,0,L|161:330,1,69.9199976528321,2|0,1:0|1:0,0:0:0:0:
104,280,36864,1,10,0:0:0:0:
182,230,37007,2,0,P|191:162|205:88,1,139.839995305664,2|0,0:0|1:0,0:0:0:0:
156,23,37435,2,0,P|119:30|78:36,1,69.9199976528321,10|2,0:0|0:0,0:0:0:0:
10,142,37721,6,0,P|74:133|149:172,1,139.839995305664,4|8,1:0|0:0,0:0:0:0:
194,228,38150,2,0,L|197:281,2,34.9599988264161,0|0|0,0:0|0:0|1:0,0:0:0:0:
259,175,38435,2,0,L|335:190,1,69.9199976528321,0|8,1:0|0:0,0:0:0:0:
379,255,38721,1,2,0:0:0:0:
464,220,38864,6,0,P|483:157|452:92,1,139.839995305664,2|10,1:0|0:0,0:0:0:0:
303,16,39435,2,0,L|229:29,1,69.9199976528321,2|0,1:0|1:0,0:0:0:0:
169,82,39721,2,0,L|95:69,1,69.9199976528321,10|0,0:0|0:0,0:0:0:0:
140,163,40007,6,0,P|215:158|257:108,1,139.839995305664,2|8,1:0|0:0,0:0:0:0:
327,188,40435,2,0,P|312:258|298:337,1,139.839995305664,0|0,0:0|1:0,0:0:0:0:
220,271,40864,2,0,P|212:237|204:197,1,69.9199976528321,8|0,0:0|0:0,0:0:0:0:
123,263,41150,6,0,P|116:297|108:331,1,69.9199976528321,0|0,1:0|1:0,0:0:0:0:
34,252,41435,1,8,0:0:0:0:
101,182,41578,2,0,L|155:173,2,34.9599988264161,8|8|4,0:0|0:0|3:0,0:0:0:0:
56,94,41864,2,0,L|2:85,2,34.9599988264161,4|0|8,3:0|0:0|3:0,0:0:0:0:
56,94,42292,6,0,P|123:94|185:47,1,139.839995305664,6|10,1:0|0:0,0:0:0:0:
277,190,42864,1,2,1:0:0:0:
277,190,43007,1,0,1:0:0:0:
204,148,43150,1,10,0:0:0:0:
341,52,43435,5,2,1:0:0:0:
341,52,43578,1,2,1:0:0:0:
418,83,43721,1,8,0:0:0:0:
418,83,43864,2,0,L|425:232,1,139.839995305664,10|0,0:0|1:0,0:0:0:0:
428,306,44292,1,8,0:0:0:0:
292,206,44578,5,2,1:0:0:0:
224,359,44864,1,10,0:0:0:0:
122,225,45150,1,2,1:0:0:0:
122,225,45292,1,0,1:0:0:0:
200,254,45435,1,10,0:0:0:0:
63,352,45721,5,2,1:0:0:0:
63,352,45864,1,0,1:0:0:0:
22,278,46007,1,10,0:0:0:0:
22,278,46150,2,0,L|47:124,1,139.839995305664,8|0,0:0|1:0,0:0:0:0:
57,57,46578,1,8,0:0:0:0:
57,57,46864,6,0,P|120:51|169:104,1,139.839995305664,6|2,1:0|0:0,0:0:0:0:
231,189,47292,2,0,P|247:118|271:41,1,139.839995305664,8|0,0:0|1:0,0:0:0:0:
341,14,47721,1,10,0:0:0:0:
390,82,47864,1,8,0:0:0:0:
331,142,48007,6,0,P|389:116|469:121,1,139.839995305664,6|2,1:0|0:0,0:0:0:0:
512,198,48435,2,0,B|526:285|526:285|487:338,1,139.839995305664,8|0,0:0|1:0,0:0:0:0:
435,266,48864,1,10,0:0:0:0:
390,337,49007,2,0,L|395:385,2,34.9599988264161,0|0|6,1:0|0:0|1:0,0:0:0:0:
262,227,49435,5,2,0:0:0:0:
212,295,49578,2,0,P|178:235|204:164,1,139.839995305664,8|0,0:0|0:0,0:0:0:0:
257,111,50007,2,0,L|249:29,1,69.9199976528321,12|0,0:0|0:0,0:0:0:0:
166,95,50292,5,2,1:0:0:0:
91,29,50435,2,0,P|77:95|58:192,1,139.839995305664,8|8,0:0|0:0,0:0:0:0:
4,226,50864,2,0,B|-8:258|-8:258|0:298,1,69.9199976528321,10|8,0:0|0:0,0:0:0:0:
45,363,51150,1,8,3:0:0:0:
129,326,51292,1,8,0:0:0:0:
71,264,51435,6,0,L|219:287,1,139.839995305664,6|10,1:0|0:0,0:0:0:0:
361,357,52007,2,0,P|352:323|352:270,1,69.9199976528321,2|0,1:0|1:0,0:0:0:0:
300,220,52292,2,0,P|316:189|338:162,1,69.9199976528321,10|0,0:0|0:0,0:0:0:0:
395,100,52578,6,0,P|324:133|250:118,1,139.839995305664,2|8,1:0|0:0,0:0:0:0:
214,55,53007,2,0,P|170:116|195:181,1,139.839995305664,8|0,0:0|1:0,0:0:0:0:
284,242,53435,1,10,0:0:0:0:
284,242,53721,6,0,P|250:247|195:261,1,69.9199976528321,2|0,1:0|0:0,0:0:0:0:
143,300,54007,1,10,0:0:0:0:
0,211,54292,2,0,P|5:245|19:300,1,69.9199976528321,2|0,1:0|1:0,0:0:0:0:
58,352,54578,1,10,0:0:0:0:
148,179,54864,6,0,P|159:108|175:26,1,139.839995305664,2|10,1:0|0:0,0:0:0:0:
243,139,55292,2,0,P|297:147|376:91,1,139.839995305664,8|0,0:0|0:0,0:0:0:0:
377,20,55721,2,0,P|345:24|306:45,1,69.9199976528321,10|0,0:0|0:3,0:0:0:0:
243,139,56007,6,0,L|261:284,1,139.839995305664,6|8,1:0|0:0,0:0:0:0:
270,288,56435,1,0,1:0:0:0:
321,354,56578,2,0,P|356:349|401:335,1,69.9199976528321,10|0,0:0|1:0,0:0:0:0:
457,290,56864,2,0,P|466:256|471:221,1,69.9199976528321,10|0,0:0|1:0,0:0:0:0:
444,141,57150,6,0,P|410:131|375:126,1,69.9199976528321,2|0,1:0|0:0,0:0:0:0:
320,207,57435,2,0,P|286:216|251:221,1,69.9199976528321,2|0,1:0|0:0,0:0:0:0:
180,154,57721,2,0,P|146:144|111:139,1,69.9199976528321,2|0,1:0|0:0,0:0:0:0:
27,200,58007,2,0,L|33:248,3,34.9599988264161,2|0|0|0,1:0|0:0|0:0|0:0,0:0:0:0:
40,257,58292,6,0,L|118:242,1,69.9199976528321,14|0,0:0|1:0,0:0:0:0:
172,299,58578,1,0,1:0:0:0:
81,337,58721,6,0,L|225:358,1,139.839995305664,12|0,0:0|1:0,0:0:0:0:
312,321,59150,2,0,P|327:286|311:249,1,69.9199976528321,8|0,0:0|1:0,0:0:0:0:
298,156,59435,6,0,L|380:174,1,69.9199976528321,8|8,0:0|3:0,0:0:0:0:
423,233,59721,1,4,3:0:0:0:
423,233,59864,1,4,3:0:0:0:
503,167,60007,6,0,L|509:207,2,34.9599988264161,8|8|8,0:0|0:0|3:0,0:0:0:0:
487,56,60292,1,12,0:0:0:0:
487,56,60578,6,0,B|407:39|420:103|320:79,1,155.040000946289,6|8,1:0|0:0,0:0:0:0:
259,31,61007,1,2,0:0:0:0:
172,66,61150,6,0,P|125:136|143:202,1,155.040000946289,2|10,1:0|0:0,0:0:0:0:
214,141,61578,1,2,0:0:0:0:
129,210,61721,6,0,L|29:194,1,77.5200004731445,0|2,1:0|1:0,0:0:0:0:
132,300,62007,2,0,L|295:278,1,155.040000946289,10|2,0:0|1:0,0:0:0:0:
356,218,62435,2,0,P|349:178|360:139,2,77.5200004731445,2|8|2,1:0|0:0|0:0,0:0:0:0:
410,294,62864,6,0,P|449:203|447:147,1,155.040000946289,2|10,1:0|0:0,0:0:0:0:
512,81,63292,2,0,P|433:122|363:106,1,155.040000946289,2|2,0:0|0:0,0:0:0:0:
313,36,63721,2,0,P|355:29|405:18,1,77.5200004731445,8|2,0:0|0:0,0:0:0:0:
291,139,64007,5,0,0:0:0:0:
217,87,64150,2,0,P|216:48|231:3,1,77.5200004731445,0|8,1:0|0:0,0:0:0:0:
126,84,64435,2,0,L|99:241,1,155.040000946289,0|0,0:0|1:0,0:0:0:0:
23,320,64864,1,8,0:0:0:0:
23,320,65150,6,0,P|83:285|175:290,1,155.040000946289,6|8,1:0|0:0,0:0:0:0:
237,346,65578,1,2,0:0:0:0:
320,304,65721,6,0,P|363:229|335:158,1,155.040000946289,2|10,1:0|0:0,0:0:0:0:
268,112,66150,1,2,0:0:0:0:
182,165,66292,6,0,P|168:128|175:78,1,77.5200004731445,0|0,0:0|1:0,0:0:0:0:
287,21,66578,2,0,B|347:31|347:31|370:57|370:57|437:72,1,155.040000946289,10|2,0:0|1:0,0:0:0:0:
496,133,67007,1,2,1:0:0:0:
496,133,67150,2,0,P|457:138|409:157,1,77.5200004731445,10|2,0:0|0:0,0:0:0:0:
328,225,67435,6,0,P|404:227|470:278,1,155.040000946289,2|10,1:0|0:0,0:0:0:0:
413,368,67864,2,0,B|362:376|318:386|318:386|262:334,1,155.040000946289,2|2,0:0|1:0,0:0:0:0:
208,281,68292,2,0,L|182:362,1,77.5200004731445,8|2,0:0|0:0,0:0:0:0:
295,265,68578,6,0,P|294:226|271:186,1,77.5200004731445,0|2,1:0|0:0,0:0:0:0:
160,147,68864,2,0,P|220:182|307:165,1,155.040000946289,10|2,0:0|1:0,0:0:0:0:
381,121,69292,1,0,1:0:0:0:
334,40,69435,5,8,0:0:0:0:
323,43,69578,1,8,0:0:0:0:
219,93,69721,6,0,P|154:122|56:97,1,155.040000946289,6|8,1:0|0:0,0:0:0:0:
22,186,70150,1,2,0:0:0:0:
102,231,70292,6,0,B|198:210|198:210|228:223|209:276,1,155.040000946289,2|10,1:0|0:0,0:0:0:0:
152,329,70721,1,2,0:0:0:0:
240,380,70864,6,0,L|328:371,1,77.5200004731445,0|2,1:0|1:0,0:0:0:0:
426,323,71150,2,0,P|453:254|433:176,1,155.040000946289,10|2,0:0|1:0,0:0:0:0:
363,111,71578,2,0,P|344:143|337:185,1,77.5200004731445,2|8,1:0|0:0,0:0:0:0:
442,100,71864,1,2,0:0:0:0:
380,29,72007,6,0,P|298:38|221:47,1,155.040000946289,2|10,1:0|0:0,0:0:0:0:
159,111,72435,1,2,0:0:0:0:
110,23,72578,2,0,P|125:53|135:98,1,77.5200004731445,0|2,1:0|1:0,0:0:0:0:
30,161,72864,2,0,L|48:76,1,77.5200004731445,8|2,0:0|0:0,0:0:0:0:
112,185,73150,6,0,B|203:187|167:241|260:245,2,155.040000946289,0|8|0,0:0|0:0|1:0,0:0:0:0:
36,239,73864,1,0,1:0:0:0:
49,338,74007,5,8,0:0:0:0:
46,349,74150,1,8,0:0:0:0:
155,317,74292,6,0,P|221:328|315:345,1,155.040000946289,6|8,1:0|0:0,0:0:0:0:
387,293,74721,1,2,0:0:0:0:
332,217,74864,6,0,B|318:171|318:171|366:69,1,155.040000946289,2|10,1:0|0:0,0:0:0:0:
445,29,75292,1,2,0:0:0:0:
355,82,75435,6,0,P|315:86|265:92,1,77.5200004731445,4|2,1:0|0:0,0:0:0:0:
198,27,75721,2,0,P|153:104|171:171,1,155.040000946289,8|0,0:0|1:0,0:0:0:0:
221,239,76150,1,0,1:0:0:0:
221,239,76292,2,0,P|241:202|247:151,1,77.5200004731445,10|0,0:0|1:0,0:0:0:0:
130,270,76578,6,0,L|275:253,1,139.839995305664,6|8,1:0|0:0,0:0:0:0:
327,314,77007,2,0,L|315:368,2,34.9599988264161,0|0|0,0:0|0:0|1:0,0:0:0:0:
402,277,77292,2,0,P|421:241|411:203,1,69.9199976528321,0|10,1:0|0:0,0:0:0:0:
325,71,77721,6,0,L|407:82,1,69.9199976528321,2|0,1:0|1:0,0:0:0:0:
506,153,78007,2,0,P|443:151|383:200,1,139.839995305664,12|2,0:0|1:0,0:0:0:0:
313,152,78435,1,0,1:0:0:0:
243,198,78578,2,0,L|192:194,3,34.9599988264161,14|8|8|8,0:0|0:0|0:0|0:0,0:0:0:0:
189,181,78864,6,0,P|196:262|199:341,2,155.040000946289,6|10|2,1:0|0:0|1:0,0:0:0:0:
109,132,79578,1,0,0:0:0:0:
170,62,79721,2,0,P|207:70|255:73,1,77.5200004731445,10|0,0:0|0:0,0:0:0:0:
317,134,80007,6,0,P|386:125|477:114,1,155.040000946289,2|10,1:0|0:0,0:0:0:0:
419,37,80435,1,0,0:0:0:0:
414,31,80578,2,0,L|324:42,1,77.5200004731445,2|0,1:0|1:0,0:0:0:0:
243,103,80864,2,0,P|227:137|231:189,1,77.5200004731445,10|0,0:0|0:0,0:0:0:0:
291,245,81150,6,0,P|363:256|453:273,2,155.040000946289,2|10|2,1:0|0:0|1:0,0:0:0:0:
210,291,81864,1,0,1:0:0:0:
210,291,82007,2,0,L|197:371,1,77.5200004731445,10|0,0:0|0:0,0:0:0:0:
117,319,82292,6,0,P|106:282|111:226,1,77.5200004731445,2|0,1:0|1:0,0:0:0:0:
197,195,82578,2,0,P|208:158|203:102,1,77.5200004731445,10|0,0:0|0:0,0:0:0:0:
132,33,82864,2,0,P|207:42|298:50,1,155.040000946289,2|8,1:0|0:0,0:0:0:0:
114,155,83435,6,0,L|9:170,2,77.5200004731445,2|2|10,1:0|1:0|0:0,0:0:0:0:
189,211,83864,1,0,0:0:0:0:
252,143,84007,2,0,P|289:148|327:162,1,77.5200004731445,2|2,1:0|1:0,0:0:0:0:
382,236,84292,2,0,P|345:241|307:255,1,77.5200004731445,10|2,0:0|0:0,0:0:0:0:
230,333,84578,6,0,P|302:341|401:358,1,155.040000946289,2|10,1:0|0:0,0:0:0:0:
467,314,85007,1,2,0:0:0:0:
403,245,85150,2,0,P|406:206|428:162,1,77.5200004731445,2|0,1:0|1:0,0:0:0:0:
497,118,85435,2,0,P|494:79|472:35,1,77.5200004731445,8|2,0:0|0:0,0:0:0:0:
390,92,85707,6,0,P|299:118|231:67,1,155.040000946289,2|10,1:0|0:0,0:0:0:0:
181,28,86135,2,0,P|166:101|147:183,1,155.040000946289,2|2,1:0|1:0,0:0:0:0:
73,122,86564,2,0,P|110:113|153:98,1,77.5200004731445,10|2,0:0|1:0,0:0:0:0:
222,201,86849,6,0,P|185:188|147:179,1,77.5200004731445,2|0,1:0|1:0,0:0:0:0:
60,290,87135,2,0,P|126:258|206:283,1,155.040000946289,10|2,0:0|1:0,0:0:0:0:
246,361,87564,1,0,1:0:0:0:
325,301,87707,2,0,L|364:307,3,38.7600002365723,8|8|8|8,0:0|0:0|0:0|0:0,0:0:0:0:
387,322,88007,6,0,P|381:279|377:216,1,77.5200004731445,6|0,1:0|0:0,0:0:0:0:
451,198,88283,2,0,P|461:158|465:114,1,77.5200004731445,10|0,0:0|1:0,0:0:0:0:
484,30,88568,6,0,P|443:31|403:54,1,77.5200004731445,10|0,0:0|1:0,0:0:0:0:
340,108,88854,2,0,P|299:107|259:84,1,77.5200004731445,10|0,0:0|1:0,0:0:0:0:
194,31,89140,6,0,L|117:42,1,77.5200004731445,6|0,1:0|0:0,0:0:0:0:
186,149,89425,2,0,L|109:138,1,77.5200004731445,10|0,0:0|1:0,0:0:0:0:
11,80,89711,6,0,P|20:156|28:251,1,155.040000946289,10|10,0:0|0:0,0:0:0:0:
37,243,90140,1,0,1:0:0:0:
5,337,90283,6,0,P|39:320|78:318,1,77.5200004731445,6|0,1:0|0:0,0:0:0:0:
157,268,90568,2,0,P|195:269|229:287,1,77.5200004731445,10|0,0:0|1:0,0:0:0:0:
296,352,90854,6,0,P|318:319|321:271,1,77.5200004731445,10|0,0:0|1:0,0:0:0:0:
379,207,91140,2,0,P|373:168|352:137,1,77.5200004731445,10|0,0:0|1:0,0:0:0:0:
400,57,91425,6,0,P|362:42|315:49,1,77.5200004731445,6|0,1:0|0:0,0:0:0:0:
247,96,91711,2,0,P|232:134|239:181,1,77.5200004731445,10|0,0:0|1:0,0:0:0:0:
307,246,91997,6,0,L|476:228,1,155.040000946289,10|8,0:0|0:0,0:0:0:0:
478,245,92425,1,2,0:0:0:0:
427,339,92560,6,0,P|387:333|338:328,1,77.5200004731445,6|2,1:0|1:0,0:0:0:0:
264,365,92845,2,0,P|225:358|184:352,1,77.5200004731445,10|0,0:0|1:0,0:0:0:0:
113,295,93131,6,0,P|111:253|106:207,1,77.5200004731445,10|2,0:0|1:0,0:0:0:0:
195,160,93417,2,0,P|196:201|202:248,1,77.5200004731445,10|2,0:0|1:0,0:0:0:0:
139,104,93702,6,0,P|172:84|216:83,1,77.5200004731445,10|2,0:0|1:0,0:0:0:0:
276,147,93988,2,0,P|309:167|353:168,1,77.5200004731445,10|2,0:0|1:0,0:0:0:0:
445,111,94274,6,0,L|411:271,1,155.040000946289,10|8,0:0|0:0,0:0:0:0:
424,279,94702,1,0,1:0:0:0:
482,351,94845,6,0,P|445:355|396:369,1,77.5200004731445,10|2,0:0|1:0,0:0:0:0:
328,312,95131,2,0,P|291:308|242:294,1,77.5200004731445,10|2,0:0|1:0,0:0:0:0:
171,345,95417,6,0,P|160:309|171:260,1,77.5200004731445,10|2,0:0|1:0,0:0:0:0:
237,210,95702,2,0,P|243:172|232:135,1,77.5200004731445,10|2,0:0|1:0,0:0:0:0:
178,58,95988,6,0,L|254:48,1,77.5200004731445,10|2,0:0|1:0,0:0:0:0:
342,14,96274,2,0,L|332:90,1,77.5200004731445,10|0,0:0|1:0,0:0:0:0:
377,173,96560,2,0,P|465:190|516:148,1,155.040000946289,8|8,0:0|3:0,0:0:0:0:
512,153,97131,6,0,P|501:215|486:300,1,124.640001901855,6|2,1:0|0:0,0:0:0:0:
370,365,97702,2,0,P|308:354|223:339,1,124.640001901855,10|2,0:0|0:0,0:0:0:0:
278,256,98131,6,0,P|216:260|166:297,1,124.640001901855,0|0,1:0|3:0,0:0:0:0:
89,342,98560,2,0,P|79:311|81:262,1,62.3200009509277,2|0,0:0|1:0,0:0:0:0:
19,217,98845,2,0,L|55:73,1,124.640001901855,10|8,0:0|3:0,0:0:0:0:
49,96,99417,6,0,B|123:77|123:77|168:106,1,124.640001901855,6|2,1:0|0:0,0:0:0:0:
319,25,99988,2,0,L|293:157,1,124.640001901855,10|10,0:0|0:0,0:0:0:0:
275,233,100417,6,0,P|326:269|399:254,1,124.640001901855,0|8,0:0|0:0,0:0:0:0:
459,217,100845,2,0,L|476:148,1,62.3200009509277,2|0,0:0|1:0,0:0:0:0:
387,120,101131,2,0,L|360:245,1,124.640001901855,10|0,0:0|3:0,0:0:0:0:
454,64,101702,6,0,P|399:33|333:49,1,124.640001901855,6|0,1:0|0:0,0:0:0:0:
221,172,102274,2,0,P|166:203|100:187,1,124.640001901855,10|10,0:0|0:0,0:0:0:0:
34,145,102702,1,0,0:0:0:0:
116,86,102845,6,0,L|190:96,1,62.3200009509277,14|0,0:0|0:0,0:0:0:0:
488,349,103845,6,0,L|499:295,2,31.1600004754639,0|0|6,1:0|1:0|1:0,0:0:0:0:
256,192,104060,12,0,106274,0:0:0:0:
446,72,106560,6,0,P|413:74|384:84,1,62.4773474683542,8|0,0:0|1:0,0:0:0:0:
330,159,106845,2,0,P|300:168|269:170,1,62.4773474683542,8|0,0:0|1:0,0:0:0:0:
182,133,107131,6,0,P|170:102|175:65,1,62.4773474683542,8|0,0:0|1:0,0:0:0:0:
263,22,107417,2,0,P|275:53|270:90,1,62.4773474683542,0|8,1:0|0:0,0:0:0:0:
172,146,107702,6,0,L|94:137,1,62.4773474683542,0|8,1:0|0:0,0:0:0:0:
210,221,107988,2,0,L|288:212,1,62.4773474683542,0|8,1:0|0:0,0:0:0:0:
156,293,108274,1,8,3:0:0:0:
156,293,108560,6,0,B|239:303|203:346|291:351,1,140.154697510026,6|10,1:0|0:0,0:0:0:0:
456,304,109131,2,0,P|470:270|459:228,1,70.0773487550129,2|2,1:0|1:0,0:0:0:0:
375,259,109417,1,10,0:0:0:0:
511,138,109702,6,0,L|437:125,1,70.0773487550129,2|2,1:0|1:0,0:0:0:0:
396,45,109988,2,0,L|322:58,1,70.0773487550129,10|0,0:0|0:0,0:0:0:0:
250,108,110274,2,0,P|197:96|140:88,1,105.116023132519,2|0,1:0|0:0,0:0:0:0:
129,84,110560,2,0,L|139:177,1,70.0773487550129,8|2,0:0|0:0,0:0:0:0:
73,228,110845,6,0,P|137:192|210:209,1,140.154697510026,2|10,1:0|0:0,0:0:0:0:
277,251,111274,2,0,L|343:238,2,35.0386743775065,0|0|2,0:0|0:0|1:0,0:0:0:0:
219,322,111560,1,2,1:0:0:0:
219,322,111703,2,0,L|136:307,1,70.0773487550129,10|0,0:0|0:0,0:0:0:0:
278,384,111988,6,0,P|314:376|358:369,1,70.0773487550129,2|0,1:0|1:0,0:0:0:0:
436,319,112274,2,0,P|441:284|449:250,1,70.0773487550129,12|2,0:0|1:0,0:0:0:0:
366,188,112560,2,0,P|358:153|352:119,1,70.0773487550129,10|8,0:0|0:0,0:0:0:0:
429,42,112845,2,0,L|475:49,3,35.0386743775065,8|8|8|8,3:0|0:0|0:0|0:0,0:0:0:0:
480,65,113131,6,0,P|412:53|333:41,1,140.154697510026,4|0,1:0|3:0,0:0:0:0:
254,92,113560,2,0,P|211:150|225:213,1,140.154697510026,8|0,0:0|1:0,0:0:0:0:
300,272,113988,2,0,P|266:279|225:298,1,70.0773487550129,8|0,0:0|0:0,0:0:0:0:
170,360,114274,5,0,1:0:0:0:
96,306,114417,2,0,B|73:266|73:266|109:172,1,140.154697510026,8|0,0:0|1:0,0:0:0:0:
56,102,114845,2,0,L|126:87,1,70.0773487550129,8|0,0:0|0:0,0:0:0:0:
197,180,115131,2,0,L|128:195,1,70.0773487550129,0|0,3:0|3:0,0:0:0:0:
207,100,115417,6,0,P|273:102|336:151,1,140.154697510026,4|0,1:0|3:0,0:0:0:0:
371,226,115845,2,0,P|432:261|509:249,1,140.154697510026,8|0,0:0|1:0,0:0:0:0:
449,176,116274,2,0,P|417:184|379:202,1,70.0773487550129,8|0,0:0|0:0,0:0:0:0:
309,279,116560,5,0,1:0:0:0:
374,334,116702,2,0,L|288:319,1,70.0773487550129,8|0,0:0|1:0,0:0:0:0:
198,367,116988,1,0,1:0:0:0:
198,367,117131,2,0,L|218:291,1,70.0773487550129,8|0,0:0|0:0,0:0:0:0:
178,198,117417,6,0,L|220:207,3,35.0386743775065,8|8|8|8,0:0|0:0|0:0|0:0,0:0:0:0:
232,222,117702,1,4,1:0:0:0:
256,192,117774,12,0,129917,0:0:0:0:
