osu file format v14

[General]
AudioFilename: audio.mp3
AudioLeadIn: 0
PreviewTime: 60507
Countdown: 0
SampleSet: Soft
StackLeniency: 0.7
Mode: 0
LetterboxInBreaks: 0
WidescreenStoryboard: 1

[Editor]
Bookmarks: 129917
DistanceSpacing: 0.6
BeatDivisor: 4
GridSize: 32
TimelineZoom: 2.5

[Metadata]
Title:Platform Syndrome
TitleUnicode:プラットホームシンドローム
Artist:SCANDAL
ArtistUnicode:SCANDAL
Creator:Sotarks
Version:Insane
Source:
Tags:honey haruna ono mami sasazaki rina suzuki tomomi ogawa epic records japan sony music entertainment eguchi ryo akitoshi corinn kalibe
BeatmapID:1570181
BeatmapSetID:741975

[Difficulty]
HPDrainRate:5
CircleSize:4
OverallDifficulty:7.8
ApproachRate:9
SliderMultiplier:1.92
SliderTickRate:1

[Events]
//Background and Video events
0,0,"BG1.jpg",0,0
//Break Periods
//Storyboard Layer 0 (Background)
//Storyboard Layer 1 (Fail)
//Storyboard Layer 2 (Pass)
//Storyboard Layer 3 (Foreground)
//Storyboard Sound Samples

[TimingPoints]
1150,285.714285714286,4,2,22,32,1,0
1150,-192.307692307692,4,2,22,32,0,0
5435,-81.9672131147541,4,2,22,42,0,0
9864,-121.951219512195,4,2,22,52,0,0
10292,-98.0392156862745,4,2,22,52,0,0
14864,-121.951219512195,4,2,22,42,0,0
28578,-98.0392156862744,4,2,22,52,0,0
56292,-98.0392156862744,4,2,22,32,0,0
56578,-98.0392156862744,4,2,22,42,0,0
56721,-98.0392156862744,4,2,22,52,0,0
56864,-98.0392156862744,4,2,22,62,0,0
58292,-81.9672131147541,4,2,22,72,0,0
60578,-75.7575757575758,4,2,22,82,0,1
75864,-98.0392156862745,4,2,22,52,0,1
76578,-98.0392156862745,4,2,22,52,0,0
78864,-89.2857142857143,4,2,22,52,0,0
85707,285.714285714286,4,2,22,52,1,0
85707,-89.2857142857143,4,2,22,52,0,0
88007,285.714285714286,4,2,22,82,1,1
88007,-75.7575757575758,4,2,22,82,0,1
88283,285.714285714286,4,2,22,82,1,1
88283,-75.7575757575758,4,2,22,82,0,1
92560,285.714285714286,4,2,22,82,1,1
92560,-75.7575757575758,4,2,22,82,0,1
97131,-138.888888888889,4,2,22,62,0,0
103988,-450.307692307692,4,2,22,52,0,0
106202,-450.307692307692,4,2,22,5,0,0
106274,-121.64408611088,4,2,22,52,0,0
108560,-97.8406204037972,4,2,22,62,0,0
113131,-108.451591389084,4,2,22,52,0,0
117702,-500,4,2,22,52,0,0
129917,-500,4,2,22,12,0,0

[Colours]
Combo1 : 214,216,216
Combo2 : 251,123,187
Combo3 : 214,58,152
Combo4 : 249,79,79
SliderBorder : 255,255,255
SliderTrackOverride : 253,198,251

[HitObjects]
363,245,1150,5,2,0:0:0:0:
363,245,1292,2,0,L|363:188,1,49.9199996953125,2|0,0:0|0:0,0:0:0:0:
180,252,1721,5,2,0:0:0:0:
180,252,1864,2,0,L|180:194,1,49.9199996953125,2|0,0:0|0:0,0:0:0:0:
316,120,2293,5,2,0:0:0:0:
316,120,2435,2,0,L|315:64,1,49.9199996953125,2|0,0:0|0:0,0:0:0:0:
169,116,2864,5,2,0:0:0:0:
169,116,3007,2,0,L|168:56,1,49.9199996953125,2|0,0:0|0:0,0:0:0:0:
302,247,3435,5,2,0:0:0:0:
302,247,3578,2,0,L|301:188,1,49.9199996953125,2|0,0:0|0:0,0:0:0:0:
157,330,4007,5,2,0:0:0:0:
157,330,4149,2,0,L|155:267,1,49.9199996953125,2|0,0:0|0:0,0:0:0:0:
320,354,4578,6,0,L|319:239,1,99.839999390625,2|2,0:0|0:0,0:0:0:0:
192,358,5007,2,0,L|191:240,1,99.839999390625,2|0,0:0|0:0,0:0:0:0:
252,119,5435,1,8,0:0:0:0:
252,119,5721,6,0,P|314:97|365:95,1,117.119995174805,2|2,1:0|0:0,0:0:0:0:
490,103,6007,2,0,P|395:85|256:14,1,234.23999034961,8|2,0:0|1:0,0:0:0:0:
185,60,6435,1,2,1:0:0:0:
259,155,6578,2,0,P|280:239|273:289,1,117.119995174805,8|2,0:0|0:0,0:0:0:0:
176,364,6864,5,2,1:0:0:0:
266,343,7007,1,2,1:0:0:0:
111,303,7150,2,0,P|231:319|363:262,1,234.23999034961,8|2,0:0|1:0,0:0:0:0:
397,216,7578,1,2,1:0:0:0:
476,340,7721,2,0,P|473:265|489:204,1,117.119995174805,8|2,0:0|0:0,0:0:0:0:
391,100,8007,6,0,P|401:157|396:215,1,117.119995174805,2|2,1:0|1:0,0:0:0:0:
292,73,8292,2,0,P|344:143|366:321,1,234.23999034961,8|2,0:0|1:0,0:0:0:0:
321,363,8721,1,2,1:0:0:0:
244,247,8864,2,0,P|181:222|109:223,1,117.119995174805,8|2,0:0|0:0,0:0:0:0:
37,260,9150,5,2,1:0:0:0:
82,163,9292,1,2,1:0:0:0:
117,319,9435,2,0,P|115:231|190:59,1,234.23999034961,10|8,0:0|0:0,0:0:0:0:
253,39,9864,2,0,P|305:24|349:28,2,78.7200012011719,0|2|2,1:0|3:0|3:0,0:0:0:0:
243,152,10292,6,0,P|312:125|367:124,1,97.9200005976563,6|0,1:0|0:0,0:0:0:0:
471,183,10578,2,0,P|372:155|265:171,1,195.840001195313,10|2,0:0|1:0,0:0:0:0:
193,221,11007,1,2,1:0:0:0:
319,253,11150,2,0,P|383:279|418:312,1,97.9200005976563,10|0,0:0|0:0,0:0:0:0:
462,365,11435,1,2,1:0:0:0:
462,365,11578,1,2,1:0:0:0:
504,254,11721,2,0,P|417:264|291:323,1,195.840001195313,10|2,0:0|1:0,0:0:0:0:
235,352,12150,2,0,P|186:351|140:335,1,97.9200005976563,2|8,1:0|0:0,0:0:0:0:
203,267,12435,1,2,0:0:0:0:
390,227,12578,6,0,P|314:219|271:194,1,97.9200005976563,2|2,1:0|1:0,0:0:0:0:
143,160,12864,2,0,P|219:152|262:127,1,97.9200005976563,10|0,0:0|0:0,0:0:0:0:
305,78,13150,1,2,1:0:0:0:
305,78,13293,1,2,1:0:0:0:
120,52,13435,2,0,P|166:68|214:68,1,97.9200005976563,10|0,0:0|0:0,0:0:0:0:
417,78,13721,2,0,P|293:106|216:163,1,195.840001195313,2|8,1:0|0:0,0:0:0:0:
178,227,14150,1,2,1:0:0:0:
178,227,14221,1,0,0:0:0:0:
178,227,14292,2,0,P|99:211|56:182,1,97.9200005976563,10|8,0:0|0:0,0:0:0:0:
42,124,14578,1,8,3:0:0:0:
42,124,14864,6,0,P|70:243|74:303,1,157.440002402344,6|10,1:0|0:0,0:0:0:0:
47,359,15292,1,0,0:0:0:0:
145,317,15435,2,0,P|203:313|236:318,1,78.7200012011719,2|0,1:0|1:0,0:0:0:0:
294,237,15721,2,0,P|337:275|357:302,1,78.7200012011719,10|0,0:0|0:0,0:0:0:0:
442,362,16007,2,0,P|445:300|456:258,1,78.7200012011719,2|0,1:0|1:0,0:0:0:0:
398,189,16292,2,0,P|397:149|391:110,1,78.7200012011719,10|0,0:0|1:0,0:0:0:0:
309,48,16578,2,0,P|302:86|302:126,1,78.7200012011719,2|0,0:0|1:0,0:0:0:0:
244,193,16864,2,0,P|250:231|250:271,1,78.7200012011719,10|0,0:0|0:0,0:0:0:0:
183,348,17150,6,0,P|137:318|100:306,1,78.7200012011719,2|0,1:0|1:0,0:0:0:0:
36,255,17435,2,0,P|72:239|104:216,1,78.7200012011719,8|0,0:0|0:0,0:0:0:0:
132,134,17721,1,2,1:0:0:0:
132,134,17864,1,2,1:0:0:0:
197,203,18007,2,0,P|228:225|265:241,1,78.7200012011719,10|0,0:0|0:0,0:0:0:0:
326,176,18292,2,0,P|357:153|394:137,1,78.7200012011719,2|0,1:0|1:0,0:0:0:0:
488,171,18578,1,8,0:0:0:0:
488,171,18721,1,8,0:0:0:0:
454,76,18864,1,2,1:0:0:0:
454,76,19007,2,0,P|402:57|343:52,1,78.7200012011719,2|8,1:0|0:0,0:0:0:0:
295,83,19292,1,2,0:0:0:0:
192,40,19435,6,0,P|230:141|238:219,1,157.440002402344,4|10,1:0|0:0,0:0:0:0:
201,289,19864,2,0,P|248:266|287:260,1,78.7200012011719,2|0,0:0|1:0,0:0:0:0:
348,201,20150,2,0,P|301:178|262:172,1,78.7200012011719,2|8,1:0|0:0,0:0:0:0:
194,207,20435,1,2,0:0:0:0:
244,106,20578,2,0,P|263:175|274:293,1,157.440002402344,4|10,1:0|0:0,0:0:0:0:
255,346,21007,1,0,0:0:0:0:
349,302,21150,2,0,P|356:257|352:214,1,78.7200012011719,2|0,1:0|1:0,0:0:0:0:
313,157,21435,2,0,P|306:118|308:79,1,78.7200012011719,10|2,0:0|0:0,0:0:0:0:
365,17,21721,5,0,1:0:0:0:
365,17,21864,1,0,1:0:0:0:
235,72,22007,2,0,P|176:79|56:57,1,157.440002402344,8|0,0:0|1:0,0:0:0:0:
0,27,22435,1,0,1:0:0:0:
42,143,22578,2,0,P|59:199|58:250,1,78.7200012011719,8|2,0:0|0:0,0:0:0:0:
126,305,22864,2,0,P|130:266|144:229,1,78.7200012011719,0|0,1:0|1:0,0:0:0:0:
206,160,23150,1,10,0:0:0:0:
206,160,23292,2,0,P|258:153|301:158,2,78.7200012011719,2|0|0,0:0|1:0|1:0,0:0:0:0:
115,80,23721,2,0,P|65:74|22:51,1,78.7200012011719,10|0,0:0|0:0,0:0:0:0:
200,21,24007,6,0,P|281:28|361:69,2,157.440002402344,6|8|0,1:0|0:0|1:0,0:0:0:0:
115,80,24721,1,0,1:0:0:0:
219,150,24864,2,0,P|241:215|243:247,1,78.7200012011719,8|0,0:0|0:0,0:0:0:0:
302,303,25150,2,0,P|309:264|325:228,1,78.7200012011719,0|0,1:0|1:0,0:0:0:0:
219,302,25435,2,0,P|142:308|54:253,1,157.440002402344,8|0,0:0|1:0,0:0:0:0:
31,197,25864,1,0,1:0:0:0:
82,79,26007,2,0,P|93:130|114:174,1,78.7200012011719,10|0,0:0|0:0,0:0:0:0:
200,212,26292,6,0,P|213:175|221:136,1,78.7200012011719,2|0,1:0|1:0,0:0:0:0:
306,46,26578,2,0,P|299:137|324:224,1,157.440002402344,8|0,0:0|1:0,0:0:0:0:
374,264,27007,1,0,1:0:0:0:
295,352,27150,2,0,P|246:322|192:313,1,78.7200012011719,8|0,0:0|0:0,0:0:0:0:
134,350,27435,2,0,P|97:336|64:314,1,78.7200012011719,0|0,1:0|1:0,0:0:0:0:
41,195,27721,2,0,P|73:217|110:230,1,78.7200012011719,8|0,0:0|0:0,0:0:0:0:
202,213,28007,1,2,1:0:0:0:
202,213,28150,1,2,1:0:0:0:
127,130,28292,2,0,L|118:86,3,39.3600006005859,8|8|8|8,0:0|0:0|0:0|0:0,0:0:0:0:
108,150,28578,6,0,P|158:131|233:130,1,97.9200005976563,6|0,1:0|0:0,0:0:0:0:
246,39,28864,2,0,P|294:60|348:113,1,97.9200005976563,10|0,0:0|0:0,0:0:0:0:
405,36,29150,2,0,P|423:85|424:160,1,97.9200005976563,2|0,1:0|1:0,0:0:0:0:
512,158,29435,2,0,P|490:206|437:260,1,97.9200005976563,10|0,0:0|0:0,0:0:0:0:
408,325,29721,2,0,L|300:293,1,97.9200005976563,2|0,1:0|1:0,0:0:0:0:
269,215,30007,2,0,L|175:242,1,97.9200005976563,10|0,0:0|1:0,0:0:0:0:
106,338,30292,2,0,L|80:133,1,195.840001195313,2|10,0:0|0:0,0:0:0:0:
119,61,30721,1,2,0:0:0:0:
204,117,30864,6,0,P|292:118|409:58,1,195.840001195313,2|10,1:0|0:0,0:0:0:0:
488,257,31435,2,0,P|428:231|382:222,1,97.9200005976563,2|0,1:0|1:0,0:0:0:0:
335,317,31721,2,0,P|310:256|284:217,1,97.9200005976563,10|0,0:0|0:0,0:0:0:0:
198,315,32007,2,0,P|213:192|190:101,1,195.840001195313,2|8,1:0|0:0,0:0:0:0:
134,57,32435,1,8,0:0:0:0:
89,136,32578,1,2,1:0:0:0:
89,136,32721,2,0,P|108:205|114:258,2,97.9200005976563,2|8|10,1:0|0:0|0:0,0:0:0:0:
220,77,33150,6,0,P|299:75|412:158,1,195.840001195313,0|10,1:0|0:0,0:0:0:0:
477,102,33578,2,0,P|483:177|464:226,1,97.9200005976563,2|0,0:0|1:0,0:0:0:0:
506,281,33864,2,0,P|437:273|389:224,1,97.9200005976563,2|8,1:0|0:0,0:0:0:0:
345,203,34150,1,2,0:0:0:0:
241,326,34292,2,0,P|166:308|98:183,1,195.840001195313,4|10,1:0|0:0,0:0:0:0:
40,129,34721,2,0,P|84:79|135:61,1,97.9200005976563,2|0,0:0|1:0,0:0:0:0:
203,78,35007,1,0,1:0:0:0:
297,33,35150,2,0,P|339:57|368:95,1,97.9200005976563,10|0,0:0|0:0,0:0:0:0:
435,185,35435,6,0,P|443:124|480:61,1,97.9200005976563,2|0,1:0|1:0,0:0:0:0:
512,220,35721,2,0,P|451:204|336:273,1,195.840001195313,8|0,0:0|1:0,0:0:0:0:
299,342,36150,1,0,1:0:0:0:
206,248,36292,2,0,P|145:230|90:248,1,97.9200005976563,8|2,0:0|0:0,0:0:0:0:
24,291,36578,2,0,P|32:236|25:166,1,97.9200005976563,2|0,1:0|1:0,0:0:0:0:
11,104,36864,1,10,0:0:0:0:
98,136,37007,2,0,P|203:142|299:69,1,195.840001195313,2|0,0:0|1:0,0:0:0:0:
330,22,37435,1,10,0:0:0:0:
396,80,37578,1,2,0:0:0:0:
479,16,37721,6,0,P|424:134|421:221,1,195.840001195313,4|8,1:0|0:0,0:0:0:0:
271,356,38292,2,0,P|224:320|170:306,1,97.9200005976563,0|0,1:0|1:0,0:0:0:0:
71,337,38578,1,8,0:0:0:0:
116,262,38721,1,2,0:0:0:0:
51,198,38864,2,0,P|59:140|92:95,1,97.9200005976563,2|0,1:0|1:0,0:0:0:0:
175,58,39150,2,0,P|198:100|203:148,1,97.9200005976563,10|0,0:0|0:0,0:0:0:0:
280,227,39435,2,0,P|303:184|308:136,1,97.9200005976563,2|0,1:0|1:0,0:0:0:0:
231,58,39721,2,0,P|207:100|202:148,1,97.9200005976563,10|0,0:0|0:0,0:0:0:0:
240,305,40007,6,0,P|208:201|114:127,2,195.840001195313,2|8|0,1:0|0:0|1:0,0:0:0:0:
207,384,40721,1,0,1:0:0:0:
327,333,40864,2,0,P|332:275|316:216,1,97.9200005976563,8|0,0:0|0:0,0:0:0:0:
277,161,41150,1,0,1:0:0:0:
277,161,41292,1,0,1:0:0:0:
366,70,41435,2,0,P|308:49|271:49,1,97.9200005976563,8|8,0:0|0:0,0:0:0:0:
202,104,41650,1,8,0:0:0:0:
202,104,41721,2,0,P|153:101|108:82,1,97.9200005976563,4|4,3:0|3:0,0:0:0:0:
48,20,42007,1,8,3:0:0:0:
48,20,42292,6,0,P|83:124|89:241,1,195.840001195313,6|10,1:0|0:0,0:0:0:0:
53,293,42721,1,0,0:0:0:0:
149,264,42864,2,0,L|271:253,1,97.9200005976563,2|0,1:0|1:0,0:0:0:0:
358,319,43150,2,0,L|455:327,1,97.9200005976563,10|0,0:0|0:0,0:0:0:0:
498,238,43435,1,2,1:0:0:0:
498,238,43578,2,0,P|477:170|452:136,1,97.9200005976563,2|8,1:0|0:0,0:0:0:0:
378,125,43864,1,10,0:0:0:0:
377,125,44007,2,0,P|388:77|412:35,1,97.9200005976563,2|0,1:0|1:0,0:0:0:0:
296,79,44292,2,0,L|165:54,1,97.9200005976563,8|0,0:0|0:0,0:0:0:0:
109,110,44578,5,2,1:0:0:0:
109,110,44721,1,2,0:0:0:0:
200,190,44864,2,0,P|221:253|219:298,1,97.9200005976563,10|2,0:0|0:0,0:0:0:0:
146,344,45150,2,0,P|216:316|342:316,1,195.840001195313,2|10,1:0|0:0,0:0:0:0:
412,360,45578,1,0,0:0:0:0:
456,244,45721,2,0,P|447:186|417:138,1,97.9200005976563,2|0,1:0|1:0,0:0:0:0:
477,81,46007,2,0,P|429:46|374:33,1,97.9200005976563,10|8,0:0|0:0,0:0:0:0:
310,75,46292,1,2,1:0:0:0:
310,75,46435,1,0,1:0:0:0:
179,33,46578,2,0,P|216:97|224:153,1,97.9200005976563,8|0,0:0|0:0,0:0:0:0:
205,194,46792,1,0,0:0:0:0:
205,194,46864,6,0,L|198:322,1,97.9200005976563,6|2,1:0|0:0,0:0:0:0:
294,338,47150,2,0,L|288:240,1,97.9200005976563,2|8,0:0|0:0,0:0:0:0:
361,167,47435,2,0,P|383:107|286:34,1,195.840001195313,2|10,0:0|0:0,0:0:0:0:
225,87,47864,1,8,0:0:0:0:
101,30,48007,6,0,P|133:119|144:225,1,195.840001195313,6|2,1:0|0:0,0:0:0:0:
114,303,48435,1,8,0:0:0:0:
207,266,48578,2,0,P|265:257|318:260,1,97.9200005976563,2|0,0:0|1:0,0:0:0:0:
367,175,48864,2,0,P|318:175|269:167,1,97.9200005976563,10|0,0:0|1:0,0:0:0:0:
154,113,49150,6,0,P|162:39|267:18,1,195.840001195313,6|2,1:0|0:0,0:0:0:0:
372,83,49578,2,0,P|436:73|474:46,2,97.9200005976563,8|2|0,0:0|0:0|0:0,0:0:0:0:
260,119,50007,2,0,P|234:175|234:240,1,97.9200005976563,10|0,0:0|0:0,0:0:0:0:
277,309,50292,1,2,1:0:0:0:
167,275,50435,2,0,L|62:291,1,97.9200005976563,8|2,0:0|0:0,0:0:0:0:
4,357,50721,1,8,0:0:0:0:
24,227,50864,2,0,L|44:111,1,97.9200005976563,10|8,0:0|0:0,0:0:0:0:
57,47,51150,1,8,3:0:0:0:
137,153,51292,1,8,0:0:0:0:
237,67,51435,6,0,P|303:79|345:121,1,97.9200005976563,6|0,1:0|0:0,0:0:0:0:
401,60,51721,2,0,P|439:115|439:174,1,97.9200005976563,10|0,0:0|0:0,0:0:0:0:
512,192,52007,2,0,P|491:270|449:312,1,97.9200005976563,2|0,1:0|1:0,0:0:0:0:
393,310,52292,1,10,0:0:0:0:
393,310,52578,2,0,L|280:290,1,97.9200005976563,2|0,1:0|0:0,0:0:0:0:
178,338,52864,1,8,0:0:0:0:
222,258,53007,1,8,0:0:0:0:
126,277,53150,2,0,P|68:263|35:234,1,97.9200005976563,2|0,1:0|1:0,0:0:0:0:
28,129,53435,2,0,P|86:143|119:172,1,97.9200005976563,10|0,0:0|0:0,0:0:0:0:
196,78,53721,6,0,P|247:44|356:138,1,195.840001195313,2|10,1:0|0:0,0:0:0:0:
373,188,54150,1,0,0:0:0:0:
452,131,54292,2,0,P|472:190|457:247,1,97.9200005976563,2|0,1:0|1:0,0:0:0:0:
357,281,54578,2,0,P|353:232|372:187,1,97.9200005976563,10|0,0:0|0:0,0:0:0:0:
271,263,54864,2,0,L|134:248,1,97.9200005976563,2|0,1:0|1:0,0:0:0:0:
115,181,55150,1,10,0:0:0:0:
79,269,55292,1,8,0:0:0:0:
32,174,55435,2,0,P|61:118|108:98,1,97.9200005976563,2|0,1:0|0:0,0:0:0:0:
59,21,55721,2,0,P|121:18|162:48,1,97.9200005976563,10|0,0:0|0:3,0:0:0:0:
184,130,56007,6,0,L|297:147,1,97.9200005976563,10|0,0:0|1:0,0:0:0:0:
446,99,56292,1,8,0:0:0:0:
315,42,56435,1,0,1:0:0:0:
446,99,56578,2,0,L|333:116,1,97.9200005976563,10|0,0:0|1:0,0:0:0:0:
253,237,56864,5,10,0:0:0:0:
418,181,57007,1,0,1:0:0:0:
253,237,57150,2,0,L|366:254,1,97.9200005976563,2|0,1:0|0:0,0:0:0:0:
127,338,57435,6,0,L|240:355,1,97.9200005976563,2|0,1:0|0:0,0:0:0:0:
60,263,57721,2,0,L|156:248,1,97.9200005976563,2|0,1:0|0:0,0:0:0:0:
103,145,58007,5,2,1:0:0:0:
253,237,58150,1,0,0:0:0:0:
27,190,58292,6,0,P|19:126|63:69,1,117.119995174805,14|0,0:0|1:0,0:0:0:0:
110,6,58578,1,0,1:0:0:0:
238,224,58721,6,0,P|246:160|202:103,1,117.119995174805,12|0,0:0|1:0,0:0:0:0:
145,74,59007,1,0,1:0:0:0:
326,125,59150,5,8,0:0:0:0:
166,183,59292,1,0,1:0:0:0:
317,40,59435,6,0,P|392:67|411:123,1,117.119995174805,8|8,0:0|3:0,0:0:0:0:
385,190,59721,1,4,3:0:0:0:
326,125,59864,1,4,3:0:0:0:
482,189,60007,2,0,L|469:323,1,117.119995174805,8|8,0:0|3:0,0:0:0:0:
291,369,60292,1,8,0:0:0:0:
291,369,60578,5,6,1:0:0:0:
291,369,60721,2,0,B|272:300|309:326|279:226,1,126.719999613281,2|8,0:0|0:0,0:0:0:0:
196,196,61007,1,2,0:0:0:0:
196,196,61150,2,0,B|215:127|178:153|208:53,1,126.719999613281,2|0,1:0|1:0,0:0:0:0:
285,25,61435,5,10,0:0:0:0:
285,25,61578,2,0,L|426:15,1,126.719999613281,2|0,0:0|1:0,0:0:0:0:
470,107,61864,1,2,1:0:0:0:
470,107,62007,2,0,L|329:97,1,126.719999613281,10|0,0:0|0:0,0:0:0:0:
282,166,62292,5,2,1:0:0:0:
282,166,62435,2,0,P|307:242|289:310,1,126.719999613281,2|8,1:0|0:0,0:0:0:0:
211,245,62721,1,2,0:0:0:0:
211,244,62864,2,0,P|187:302|193:364,1,126.719999613281,2|0,1:0|0:0,0:0:0:0:
97,341,63150,5,10,0:0:0:0:
97,341,63292,2,0,B|17:319|16:242,1,126.719999613281,2|0,0:0|1:0,0:0:0:0:
37,150,63578,2,0,B|117:172|118:249,1,126.719999613281,2|8,0:0|0:0,0:0:0:0:
97,341,63864,1,2,0:0:0:0:
184,296,64007,2,0,L|321:276,1,126.719999613281,0|0,0:0|1:0,0:0:0:0:
435,205,64292,2,0,B|292:173|337:280|178:221,1,253.439999226562,8|0,0:0|1:0,0:0:0:0:
131,157,64721,1,0,1:0:0:0:
32,212,64864,2,0,P|18:145|66:75,1,126.719999613281,8|0,0:0|0:0,0:0:0:0:
154,31,65150,5,2,1:0:0:0:
154,31,65292,2,0,B|230:24|194:74|323:58,1,126.719999613281,2|8,0:0|0:0,0:0:0:0:
376,118,65578,1,2,0:0:0:0:
376,118,65721,2,0,B|300:111|336:161|207:145,1,126.719999613281,2|0,1:0|1:0,0:0:0:0:
160,161,66007,5,10,0:0:0:0:
160,161,66150,2,0,P|184:228|182:291,1,126.719999613281,2|0,0:0|0:0,0:0:0:0:
135,361,66435,1,0,1:0:0:0:
257,336,66578,2,0,L|399:313,1,126.719999613281,10|2,0:0|0:0,0:0:0:0:
461,216,66864,2,0,L|319:193,1,126.719999613281,2|2,1:0|1:0,0:0:0:0:
243,103,67150,2,0,L|368:82,1,126.719999613281,10|2,0:0|0:0,0:0:0:0:
199,11,67435,6,0,B|259:156|133:101|231:301,1,253.439999226562,2|10,1:0|0:0,0:0:0:0:
281,333,67864,2,0,P|296:253|346:204,1,126.719999613281,2|0,0:0|1:0,0:0:0:0:
422,191,68150,2,0,P|407:271|357:320,1,126.719999613281,2|8,1:0|0:0,0:0:0:0:
352,142,68435,6,0,B|322:113|273:130|273:130|229:235|122:224,1,253.439999226562,2|2,0:0|0:0,0:0:0:0:
66,181,68864,2,0,P|125:136|180:141,1,126.719999613281,10|0,0:0|0:0,0:0:0:0:
225,268,69150,2,0,P|166:313|111:308,1,126.719999613281,2|0,1:0|1:0,0:0:0:0:
146,224,69435,1,8,0:0:0:0:
36,345,69578,1,0,0:0:0:0:
51,263,69721,5,6,1:0:0:0:
51,263,69864,2,0,B|64:196|19:215|45:100,1,126.719999613281,2|8,0:0|0:0,0:0:0:0:
115,63,70150,1,2,0:0:0:0:
115,63,70292,2,0,B|107:132|140:121|127:187,1,126.719999613281,2|0,1:0|1:0,0:0:0:0:
211,130,70578,5,10,0:0:0:0:
211,130,70721,2,0,B|259:125|259:125|289:137|289:137|342:134,1,126.719999613281,2|0,0:0|1:0,0:0:0:0:
420,206,71007,1,2,1:0:0:0:
420,206,71150,2,0,B|372:201|372:201|342:213|342:213|289:210,1,126.719999613281,10|0,0:0|0:0,0:0:0:0:
219,256,71435,5,2,1:0:0:0:
219,256,71578,2,0,L|209:110,1,126.719999613281,2|8,1:0|0:0,0:0:0:0:
130,61,71864,1,2,0:0:0:0:
130,61,72007,2,0,L|121:187,1,126.719999613281,2|0,1:0|1:0,0:0:0:0:
31,247,72292,5,10,0:0:0:0:
31,247,72435,2,0,B|96:243|80:289|158:287,1,126.719999613281,2|0,0:0|1:0,0:0:0:0:
242,239,72721,2,0,B|307:243|291:197|358:199,1,126.719999613281,2|8,1:0|0:0,0:0:0:0:
407,295,73007,2,0,B|354:173|462:197|380:28,1,253.439999226562,2|0,0:0|1:0,0:0:0:0:
275,24,73435,2,0,P|195:41|166:85,1,126.719999613281,8|0,0:0|0:0,0:0:0:0:
152,163,73721,1,0,1:0:0:0:
152,163,73864,1,0,1:0:0:0:
68,98,74007,2,0,P|48:179|77:234,1,126.719999613281,8|0,0:0|0:0,0:0:0:0:
154,262,74292,5,2,1:0:0:0:
154,262,74435,2,0,P|209:241|296:269,1,126.719999613281,2|8,1:0|0:0,0:0:0:0:
350,320,74721,1,2,0:0:0:0:
350,320,74864,2,0,P|405:341|492:313,1,126.719999613281,2|0,1:0|1:0,0:0:0:0:
491,238,75150,5,10,0:0:0:0:
491,238,75292,2,0,L|458:89,1,126.719999613281,2|0,0:0|1:0,0:0:0:0:
386,46,75578,2,0,L|358:169,1,126.719999613281,2|8,0:0|0:0,0:0:0:0:
292,250,75864,2,0,P|242:197|184:184,1,97.9200005976563,2|0,0:0|1:0,0:0:0:0:
125,193,76150,1,0,1:0:0:0:
49,265,76292,2,0,L|31:139,1,97.9200005976563,10|0,0:0|1:0,0:0:0:0:
146,96,76578,6,0,L|137:339,2,195.840001195313,6|8|0,1:0|0:0|1:0,0:0:0:0:
214,34,77292,1,0,1:0:0:0:
293,125,77435,2,0,P|343:123|390:90,1,97.9200005976563,10|0,0:0|0:0,0:0:0:0:
427,21,77721,1,2,1:0:0:0:
427,21,77864,1,0,1:0:0:0:
479,105,78007,2,0,L|469:318,1,195.840001195313,12|2,0:0|1:0,0:0:0:0:
407,364,78435,1,0,1:0:0:0:
333,304,78578,2,0,L|339:238,3,48.9600002988281,14|8|8|8,0:0|0:0|0:0|0:0,0:0:0:0:
316,326,78864,6,0,P|268:303|194:299,1,107.5200013125,6|0,1:0|0:0,0:0:0:0:
139,243,79150,2,0,P|187:220|261:216,1,107.5200013125,10|0,0:0|0:0,0:0:0:0:
317,157,79435,2,0,P|269:134|195:130,1,107.5200013125,2|0,1:0|0:0,0:0:0:0:
140,74,79721,2,0,P|188:51|262:47,1,107.5200013125,10|0,0:0|0:0,0:0:0:0:
349,10,80007,6,0,P|328:120|348:235,1,215.040002625,2|10,1:0|0:0,0:0:0:0:
209,357,80578,2,0,P|224:294|208:249,1,107.5200013125,2|0,1:0|1:0,0:0:0:0:
130,205,80864,2,0,P|117:256|132:307,1,107.5200013125,10|0,0:0|0:0,0:0:0:0:
211,254,81150,6,0,L|216:135,1,107.5200013125,2|0,1:0|1:0,0:0:0:0:
125,97,81435,2,0,L|129:204,1,107.5200013125,10|0,0:0|0:0,0:0:0:0:
215,146,81721,2,0,P|282:133|333:158,1,107.5200013125,2|0,1:0|1:0,0:0:0:0:
351,59,82007,2,0,P|400:106|408:162,1,107.5200013125,10|0,0:0|0:0,0:0:0:0:
359,222,82292,6,0,L|380:338,1,107.5200013125,2|0,1:0|1:0,0:0:0:0:
293,364,82578,2,0,P|247:277|122:302,1,215.040002625,10|2,0:0|1:0,0:0:0:0:
83,345,83007,1,0,1:0:0:0:
63,242,83150,2,0,L|40:101,1,107.5200013125,8|2,0:0|0:0,0:0:0:0:
98,51,83435,6,0,P|160:31|235:78,1,107.5200013125,2|2,1:0|1:0,0:0:0:0:
250,127,83721,2,0,P|345:160|451:87,1,215.040002625,10|2,0:0|1:0,0:0:0:0:
497,36,84150,1,2,1:0:0:0:
512,138,84292,2,0,L|501:256,1,107.5200013125,10|2,0:0|0:0,0:0:0:0:
508,338,84578,6,0,P|435:309|390:314,1,107.5200013125,2|2,1:0|1:0,0:0:0:0:
324,342,84864,2,0,P|270:338|223:314,1,107.5200013125,10|2,0:0|0:0,0:0:0:0:
142,356,85150,2,0,L|112:127,1,215.040002625,2|8,1:0|0:0,0:0:0:0:
142,57,85578,1,2,0:0:0:0:
205,129,85707,6,0,P|249:105|318:108,1,107.5200013125,2|2,1:0|1:0,0:0:0:0:
329,25,85992,2,0,P|377:39|423:90,1,107.5200013125,10|2,0:0|1:0,0:0:0:0:
485,130,86278,2,0,L|470:245,1,107.5200013125,2|2,1:0|1:0,0:0:0:0:
402,306,86564,2,0,L|388:199,1,107.5200013125,10|2,0:0|1:0,0:0:0:0:
314,142,86849,5,2,1:0:0:0:
314,142,86992,1,0,1:0:0:0:
251,216,87135,2,0,P|181:220|121:182,1,107.5200013125,10|0,0:0|0:0,0:0:0:0:
60,152,87421,2,0,L|73:275,1,107.5200013125,2|0,1:0|1:0,0:0:0:0:
141,315,87707,2,0,L|134:376,3,53.76000065625,8|8|8|8,0:0|0:0|0:0|0:0,0:0:0:0:
157,290,88007,6,0,L|283:279,1,126.719999613281,6|0,1:0|0:0,0:0:0:0:
390,207,88283,2,0,L|263:196,1,126.719999613281,10|0,0:0|1:0,0:0:0:0:
168,120,88568,2,0,L|294:109,1,126.719999613281,10|0,0:0|1:0,0:0:0:0:
401,37,88854,2,0,L|274:26,1,126.719999613281,10|0,0:0|1:0,0:0:0:0:
129,13,89140,6,0,L|172:274,1,253.439999226562,6|10,1:0|0:0,0:0:0:0:
137,347,89568,1,0,1:0:0:0:
248,288,89711,2,0,L|394:269,1,126.719999613281,10|0,0:0|1:0,0:0:0:0:
483,193,89997,2,0,L|337:174,1,126.719999613281,10|0,0:0|1:0,0:0:0:0:
239,106,90283,2,0,L|385:87,1,126.719999613281,6|0,1:0|0:0,0:0:0:0:
248,17,90568,6,0,P|173:42|143:108,1,126.719999613281,10|0,0:0|1:0,0:0:0:0:
123,199,90854,2,0,P|198:174|228:108,1,126.719999613281,10|0,0:0|1:0,0:0:0:0:
82,130,91140,2,0,L|107:294,1,126.719999613281,10|0,0:0|1:0,0:0:0:0:
187,333,91425,2,0,L|206:207,1,126.719999613281,6|0,1:0|0:0,0:0:0:0:
298,81,91711,6,0,L|314:351,1,253.439999226562,10|10,0:0|0:0,0:0:0:0:
399,374,92140,1,0,1:0:0:0:
457,267,92283,2,0,L|447:123,1,126.719999613281,8|2,0:0|0:0,0:0:0:0:
399,60,92560,5,6,1:0:0:0:
399,60,92702,1,2,1:0:0:0:
309,141,92845,2,0,L|161:120,1,126.719999613281,10|0,0:0|1:0,0:0:0:0:
99,174,93131,2,0,L|83:31,2,126.719999613281,10|2|10,0:0|1:0|0:0,0:0:0:0:
65,259,93560,1,2,1:0:0:0:
180,206,93702,6,0,L|305:223,1,126.719999613281,10|2,0:0|1:0,0:0:0:0:
367,305,93988,1,10,0:0:0:0:
367,305,94131,1,2,1:0:0:0:
482,259,94274,2,0,L|444:-7,1,253.439999226562,10|8,0:0|0:0,0:0:0:0:
372,69,94702,1,0,1:0:0:0:
287,23,94845,6,0,L|146:15,1,126.719999613281,10|2,0:0|1:0,0:0:0:0:
112,107,95131,1,10,0:0:0:0:
20,77,95274,2,0,L|48:256,1,126.719999613281,2|10,1:0|0:0,0:0:0:0:
175,255,95560,2,0,L|194:129,2,126.719999613281,2|10|2,1:0|0:0|1:0,0:0:0:0:
224,338,95988,1,10,0:0:0:0:
224,338,96131,1,2,1:0:0:0:
277,249,96274,2,0,L|419:234,1,126.719999613281,10|0,0:0|1:0,0:0:0:0:
486,291,96560,1,8,0:0:0:0:
501,204,96702,1,8,3:0:0:0:
501,204,96845,1,8,3:0:0:0:
501,204,97131,6,0,P|469:140|392:87,1,138.240003375,6|2,1:0|0:0,0:0:0:0:
336,46,97560,1,0,3:0:0:0:
336,46,97702,2,0,P|274:57|252:73,1,69.1200016875,10|0,0:0|0:0,0:0:0:0:
180,30,97988,2,0,P|143:81|139:108,1,69.1200016875,2|0,0:0|1:0,0:0:0:0:
66,165,98274,6,0,P|130:167|205:221,1,138.240003375,2|2,0:0|0:0,0:0:0:0:
237,284,98702,1,0,1:0:0:0:
237,284,98845,2,0,P|276:306|314:306,1,69.1200016875,10|0,0:0|0:0,0:0:0:0:
373,357,99131,2,0,P|416:344|443:318,1,69.1200016875,8|0,3:0|0:0,0:0:0:0:
466,244,99417,6,0,L|440:90,1,138.240003375,6|2,1:0|0:0,0:0:0:0:
368,45,99845,1,0,3:0:0:0:
368,45,99988,2,0,L|288:40,1,69.1200016875,10|0,0:0|0:0,0:0:0:0:
230,102,100274,2,0,L|161:106,1,69.1200016875,10|0,0:0|0:0,0:0:0:0:
69,69,100560,6,0,P|79:117|82:153,1,69.1200016875,2|8,1:0|0:0,0:0:0:0:
155,192,100845,2,0,P|147:225|142:259,1,69.1200016875,2|0,0:0|1:0,0:0:0:0:
96,350,101131,2,0,P|161:330|242:327,1,138.240003375,10|0,0:0|3:0,0:0:0:0:
321,353,101560,1,0,3:0:0:0:
386,286,101702,6,0,P|396:235|411:199,2,69.1200016875,6|0|0,1:0|0:0|0:0,0:0:0:0:
305,252,102131,1,2,3:0:0:0:
305,252,102274,2,0,P|299:217|289:184,1,69.1200016875,10|0,0:0|0:0,0:0:0:0:
211,113,102560,2,0,P|200:145|195:180,1,69.1200016875,10|0,0:0|0:0,0:0:0:0:
224,262,102845,5,14,0:0:0:0:
224,262,103845,1,0,1:0:0:0:
224,262,103917,1,0,1:0:0:0:
224,262,103988,5,6,1:0:0:0:
256,192,104060,12,0,106202,0:0:0:0:
255,192,106274,6,0,B|177:178|187:235|91:211,1,157.837509393737,4|8,1:0|0:0,0:0:0:0:
43,150,106702,1,0,1:0:0:0:
92,68,106845,2,0,P|155:54|183:66,1,78.9187546968685,8|0,0:0|1:0,0:0:0:0:
248,101,107131,2,0,P|286:105|322:90,1,78.9187546968685,8|0,0:0|1:0,0:0:0:0:
396,27,107417,5,0,1:0:0:0:
440,103,107560,2,0,L|431:216,1,78.9187546968685,8|0,0:0|1:0,0:0:0:0:
466,274,107845,1,8,0:0:0:0:
382,247,107988,2,0,L|285:266,1,78.9187546968685,0|8,1:0|0:0,0:0:0:0:
229,314,108274,2,0,L|151:298,1,78.9187546968685,8|0,3:0|0:0,0:0:0:0:
71,200,108560,6,0,P|140:227|195:228,1,97.9200005976563,6|0,1:0|0:0,0:0:0:0:
299,169,108846,2,0,P|200:197|93:181,1,195.840001195313,10|2,0:0|1:0,0:0:0:0:
60,115,109275,1,2,1:0:0:0:
193,102,109418,2,0,P|257:76|292:43,1,97.9200005976563,10|0,0:0|0:0,0:0:0:0:
354,3,109703,1,2,1:0:0:0:
354,3,109846,1,2,1:0:0:0:
466,110,109989,2,0,P|379:100|253:41,1,195.840001195313,10|2,0:0|1:0,0:0:0:0:
185,31,110417,2,0,P|109:39|66:64,1,97.9200005976563,2|8,1:0|0:0,0:0:0:0:
155,118,110702,1,2,0:0:0:0:
352,137,110846,6,0,P|276:145|233:170,1,97.9200005976563,2|2,1:0|1:0,0:0:0:0:
105,204,111132,2,0,P|181:212|224:237,1,97.9200005976563,10|0,0:0|0:0,0:0:0:0:
267,286,111418,1,2,1:0:0:0:
267,286,111561,1,2,1:0:0:0:
82,312,111703,2,0,P|128:296|176:296,1,97.9200005976563,10|0,0:0|0:0,0:0:0:0:
379,286,111989,6,0,P|255:258|178:201,1,195.840001195313,2|8,1:0|0:0,0:0:0:0:
159,144,112417,1,2,1:0:0:0:
253,162,112560,1,10,0:0:0:0:
253,162,112702,1,8,0:0:0:0:
218,75,112845,2,0,L|222:6,3,49.0593774285205,8|8|8|8,3:0|0:0|0:0|0:0,0:0:0:0:
257,75,113131,6,0,P|298:61|368:72,1,88.5187563221216,4|0,1:0|0:0,0:0:0:0:
396,134,113417,1,0,3:0:0:0:
472,88,113560,2,0,L|478:-16,2,88.5187563221216,8|0|0,0:0|0:0|1:0,0:0:0:0:
396,134,113988,2,0,L|407:238,1,88.5187563221216,8|0,0:0|0:0,0:0:0:0:
465,309,114274,5,0,1:0:0:0:
388,359,114417,2,0,P|344:362|304:343,1,88.5187563221216,8|0,0:0|0:0,0:0:0:0:
251,273,114702,1,0,1:0:0:0:
193,343,114845,2,0,P|160:277|233:181,1,177.037512644243,8|0,0:0|3:0,0:0:0:0:
286,147,115274,1,0,3:0:0:0:
205,92,115417,6,0,P|134:73|108:54,2,88.5187563221216,4|0|0,1:0|0:0|3:0,0:0:0:0:
297,56,115845,2,0,P|368:37|394:18,2,88.5187563221216,8|0|0,0:0|0:0|1:0,0:0:0:0:
214,7,116274,2,0,L|234:223,1,177.037512644243,8|0,0:0|1:0,0:0:0:0:
278,261,116702,1,8,0:0:0:0:
214,329,116845,2,0,L|105:309,1,88.5187563221216,0|0,1:0|1:0,0:0:0:0:
56,237,117131,2,0,L|165:217,1,88.5187563221216,8|0,0:0|0:0,0:0:0:0:
142,96,117417,2,0,L|142:27,3,44.2593781610608,8|8|8|8,0:0|0:0|0:0|0:0,0:0:0:0:
163,117,117702,6,0,B|139:168|118:217|218:194|183:248|160:343|138:372|92:358|-4:269|105:165|168:253|171:289|171:289|230:356|324:330|291:268|287:235|331:219|462:243|538:218|549:337|479:409|441:373|385:379|395:251|395:251|392:145|423:115|441:98|475:88|524:90|488:223|415:121|415:121|391:99|346:104|332:153|276:150|237:97|218:83|216:41|242:11|284:-8|335:7|347:64|319:87|284:60,1,1641.6,4|0,1:0|0:0,0:0:0:0:
