osu file format v14

[General]
AudioFilename: audio.mp3
AudioLeadIn: 0
PreviewTime: 60507
Countdown: 0
SampleSet: Soft
StackLeniency: 0.7
Mode: 0
LetterboxInBreaks: 0
WidescreenStoryboard: 0

[Editor]
Bookmarks: 129917
DistanceSpacing: 0.6
BeatDivisor: 4
GridSize: 32
TimelineZoom: 2.5

[Metadata]
Title:Platform Syndrome
TitleUnicode:プラットホームシンドローム
Artist:SCANDAL
ArtistUnicode:SCANDAL
Creator:Sotarks
Version:Hesitation
Source:
Tags:honey haruna ono mami sasazaki rina suzuki tomomi ogawa epic records japan sony music entertainment eguchi ryo akitoshi corinn kalibe
BeatmapID:1565150
BeatmapSetID:741975

[Difficulty]
HPDrainRate:5.2
CircleSize:4.2
OverallDifficulty:8.2
ApproachRate:9.2
SliderMultiplier:2.12
SliderTickRate:1

[Events]
//Background and Video events
0,0,"BG1.jpg",0,0
//Break Periods
//Storyboard Layer 0 (Background)
//Storyboard Layer 1 (Fail)
//Storyboard Layer 2 (Pass)
//Storyboard Layer 3 (Foreground)
//Storyboard Sound Samples

[TimingPoints]
1150,285.714285714286,4,2,22,32,1,0
1150,-192.307692307692,4,2,22,32,0,0
5435,-81.9672131147541,4,2,22,42,0,0
9864,-121.951219512195,4,2,22,52,0,0
10292,-98.0392156862745,4,2,22,52,0,0
14864,-121.951219512195,4,2,22,42,0,0
28578,-98.0392156862744,4,2,22,52,0,0
56292,-98.0392156862744,4,2,22,32,0,0
56578,-98.0392156862744,4,2,22,42,0,0
56721,-98.0392156862744,4,2,22,52,0,0
56864,-98.0392156862744,4,2,22,62,0,0
58292,-81.9672131147541,4,2,22,72,0,0
60578,-75.7575757575758,4,2,22,82,0,1
75864,-98.0392156862745,4,2,22,72,0,1
76578,-98.0392156862745,4,2,22,62,0,0
78864,-89.2857142857143,4,2,22,62,0,0
85707,285.714285714286,4,2,22,62,1,0
85707,-89.2857142857143,4,2,22,62,0,0
88007,285.714285714286,4,2,22,82,1,1
88007,-75.7575757575758,4,2,22,82,0,1
88283,285.714285714286,4,2,22,82,1,1
88283,-75.7575757575758,4,2,22,82,0,1
92560,285.714285714286,4,2,22,82,1,1
92560,-75.7575757575758,4,2,22,82,0,1
97131,-138.888888888889,4,2,22,62,0,0
103988,-450.307692307692,4,2,22,52,0,0
106202,-450.307692307692,4,2,22,5,0,0
106274,-121.64408611088,4,2,22,52,0,0
108560,-97.8406204037972,4,2,22,62,0,0
113131,-108.451591389084,4,2,22,52,0,0
117702,-555.555555555556,4,2,22,52,0,0
117774,-555.555555555556,4,2,22,12,0,0
129917,-555.555555555556,4,2,22,12,0,0

[Colours]
Combo1 : 214,216,216
Combo2 : 251,123,187
Combo3 : 214,58,152
Combo4 : 249,79,79
SliderBorder : 255,255,255
SliderTrackOverride : 253,198,251

[HitObjects]
404,208,1150,5,2,0:0:0:0:
404,208,1292,2,0,L|333:194,1,55.1199996635742,2|0,0:0|0:0,0:0:0:0:
99,236,1721,5,2,0:0:0:0:
99,236,1864,2,0,L|172:219,1,55.1199996635742,2|0,0:0|0:0,0:0:0:0:
387,88,2292,5,2,0:0:0:0:
387,88,2435,2,0,P|343:108|318:108,1,55.1199996635742,2|0,0:0|0:0,0:0:0:0:
111,61,2864,5,2,0:0:0:0:
111,61,3007,2,0,P|157:81|178:83,1,55.1199996635742,2|0,0:0|0:0,0:0:0:0:
370,201,3435,5,2,0:0:0:0:
370,201,3578,2,0,L|377:274,1,55.1199996635742,2|0,0:0|0:0,0:0:0:0:
71,156,4007,5,2,0:0:0:0:
71,156,4150,2,0,L|65:233,1,55.1199996635742,2|0,0:0|0:0,0:0:0:0:
318,346,4578,6,0,P|354:346|385:319,1,55.1199996635742,2|0,0:0|0:0,0:0:0:0:
333,271,4864,1,2,0:0:0:0:
178,372,5007,2,0,P|125:367|92:304,1,110.239999327148,2|0,0:0|0:0,0:0:0:0:
162,117,5435,6,0,L|168:197,1,64.6599973360902,8|0,0:0|0:0,0:0:0:0:
166,181,5721,5,2,1:0:0:0:
166,181,5864,1,2,0:0:0:0:
245,260,6007,2,0,L|314:271,1,64.6599973360902,8|8,0:0|0:0,0:0:0:0:
345,260,6150,1,2,0:0:0:0:
419,328,6292,5,2,1:0:0:0:
419,328,6435,1,2,1:0:0:0:
457,237,6578,2,0,L|439:156,1,64.6599973360902,8|8,0:0|0:0,0:0:0:0:
433,137,6721,1,2,0:0:0:0:
343,181,6864,5,2,1:0:0:0:
343,181,7007,1,2,1:0:0:0:
269,125,7150,2,0,L|173:113,1,64.6599973360902,8|8,0:0|0:0,0:0:0:0:
168,129,7292,1,2,0:0:0:0:
101,57,7435,5,2,1:0:0:0:
101,57,7578,1,2,1:0:0:0:
66,139,7721,2,0,L|78:216,1,64.6599973360902,8|8,0:0|0:0,0:0:0:0:
81,231,7864,1,2,0:0:0:0:
181,212,8007,5,2,1:0:0:0:
181,212,8150,1,2,1:0:0:0:
227,304,8292,2,0,L|309:318,1,64.6599973360902,8|8,0:0|0:0,0:0:0:0:
322,305,8435,1,2,0:0:0:0:
386,236,8578,5,2,1:0:0:0:
386,236,8721,1,2,1:0:0:0:
456,309,8864,2,0,L|472:228,1,64.6599973360902,8|8,0:0|0:0,0:0:0:0:
466,208,9007,1,2,0:0:0:0:
395,146,9150,5,2,1:0:0:0:
395,146,9292,1,2,1:0:0:0:
312,190,9435,2,0,L|199:177,1,64.6599973360902,10|0,0:0|0:0,0:0:0:0:
247,182,9721,5,8,0:0:0:0:
169,224,9864,2,0,L|65:211,2,86.920001326294,0|2|2,1:0|3:0|3:0,0:0:0:0:
268,320,10292,6,0,P|317:299|392:294,1,108.120000659912,6|0,1:0|0:0,0:0:0:0:
512,204,10578,2,0,P|458:197|408:176,1,108.120000659912,10|0,0:0|0:0,0:0:0:0:
276,74,10864,1,2,1:0:0:0:
318,170,11007,1,2,1:0:0:0:
170,109,11150,2,0,P|116:115|66:136,1,108.120000659912,10|0,0:0|0:0,0:0:0:0:
144,202,11435,1,2,1:0:0:0:
15,279,11578,1,2,1:0:0:0:
188,270,11721,2,0,P|241:276|291:297,1,108.120000659912,10|0,0:0|0:0,0:0:0:0:
423,378,12007,1,2,1:0:0:0:
377,275,12150,2,0,P|362:223|362:169,1,108.120000659912,2|8,1:0|0:0,0:0:0:0:
299,311,12434,1,2,1:0:0:0:
107,262,12578,5,2,1:0:0:0:
150,355,12721,1,2,1:0:0:0:
184,198,12864,2,0,P|220:120|251:91,1,108.120000659912,10|0,0:0|0:0,0:0:0:0:
399,84,13150,1,2,1:0:0:0:
310,43,13292,1,2,1:0:0:0:
404,175,13435,2,0,P|424:224|428:278,1,108.120000659912,10|0,0:0|0:0,0:0:0:0:
286,370,13721,2,0,P|306:320|310:266,1,108.120000659912,2|0,1:0|1:0,0:0:0:0:
141,126,14007,2,0,P|144:179|165:229,1,108.120000659912,8|2,0:0|1:0,0:0:0:0:
53,135,14292,1,10,0:0:0:0:
40,299,14435,1,8,0:0:0:0:
83,222,14578,1,8,3:0:0:0:
83,222,14864,6,0,P|146:205|182:206,1,86.920001326294,6|0,1:0|0:0,0:0:0:0:
223,99,15150,2,0,P|279:131|304:157,1,86.920001326294,10|0,0:0|0:0,0:0:0:0:
370,90,15435,2,0,P|387:153|386:188,1,86.920001326294,2|0,1:0|1:0,0:0:0:0:
277,230,15721,2,0,P|280:186|294:145,1,86.920001326294,10|0,0:0|0:0,0:0:0:0:
370,90,16007,1,2,1:0:0:0:
287,51,16150,1,0,1:0:0:0:
189,126,16292,2,0,P|137:142|79:136,1,86.920001326294,10|0,0:0|1:0,0:0:0:0:
30,210,16578,2,0,P|73:211|114:225,1,86.920001326294,2|0,0:0|1:0,0:0:0:0:
203,307,16864,1,10,0:0:0:0:
203,307,17150,6,0,P|252:264|289:248,1,86.920001326294,2|0,1:0|1:0,0:0:0:0:
288,136,17435,2,0,P|353:140|390:155,1,86.920001326294,8|0,0:0|0:0,0:0:0:0:
449,220,17721,1,2,1:0:0:0:
473,132,17864,1,2,1:0:0:0:
445,233,18007,2,0,P|428:297|428:356,1,86.920001326294,10|0,0:0|0:0,0:0:0:0:
347,368,18292,2,0,P|341:324|328:283,1,86.920001326294,2|0,1:0|1:0,0:0:0:0:
230,197,18578,1,8,0:0:0:0:
209,323,18721,1,8,0:0:0:0:
259,268,18864,1,2,1:0:0:0:
182,255,19007,1,2,1:0:0:0:
227,369,19150,2,0,P|163:335|119:328,1,86.920001326294,8|2,0:0|0:0,0:0:0:0:
31,361,19435,6,0,P|57:304|45:170,1,173.840002652588,4|10,1:0|0:0,0:0:0:0:
10,120,19864,2,0,P|-2:63|0:22,1,86.920001326294,2|0,0:0|1:0,0:0:0:0:
88,69,20150,1,2,1:0:0:0:
203,8,20292,1,8,0:0:0:0:
160,95,20435,1,2,0:0:0:0:
274,45,20578,2,0,P|329:54|438:145,2,173.840002652588,4|10|2,1:0|0:0|1:0,0:0:0:0:
236,126,21292,1,0,1:0:0:0:
297,240,21435,2,0,P|313:184|313:141,1,86.920001326294,10|2,0:0|0:0,0:0:0:0:
207,203,21721,5,0,1:0:0:0:
236,126,21864,1,0,1:0:0:0:
297,240,22007,2,0,P|225:243|135:288,1,173.840002652588,8|0,0:0|1:0,0:0:0:0:
77,358,22435,1,0,1:0:0:0:
72,238,22578,1,8,0:0:0:0:
18,296,22721,1,2,0:0:0:0:
72,238,22864,2,0,P|75:182|67:144,1,86.920001326294,0|0,1:0|1:0,0:0:0:0:
12,52,23150,1,10,0:0:0:0:
103,80,23292,2,0,P|163:69|204:49,1,86.920001326294,2|0,0:0|1:0,0:0:0:0:
253,3,23578,1,0,1:0:0:0:
302,113,23721,1,10,0:0:0:0:
302,113,24007,6,0,B|324:218|257:178|292:309,2,173.840002652588,6|8|0,1:0|0:0|1:0,0:0:0:0:
371,42,24721,1,0,1:0:0:0:
398,159,24864,2,0,P|406:231|422:271,1,86.920001326294,8|0,0:0|0:0,0:0:0:0:
481,347,25150,1,0,1:0:0:0:
396,319,25292,1,0,1:0:0:0:
285,375,25435,2,0,P|224:383|189:375,1,86.920001326294,8|0,0:0|0:0,0:0:0:0:
115,289,25721,1,0,1:0:0:0:
52,348,25864,1,0,1:0:0:0:
57,223,26007,2,0,P|71:158|90:116,1,86.920001326294,10|0,0:0|0:0,0:0:0:0:
179,60,26292,5,2,1:0:0:0:
231,138,26435,1,0,1:0:0:0:
323,47,26578,2,0,P|400:26|433:28,1,86.920001326294,8|0,0:0|0:0,0:0:0:0:
486,84,26864,1,0,1:0:0:0:
432,158,27007,1,0,1:0:0:0:
484,265,27150,2,0,P|481:327|461:373,1,86.920001326294,8|0,0:0|0:0,0:0:0:0:
364,371,27435,1,0,1:0:0:0:
398,281,27578,1,0,1:0:0:0:
285,337,27721,2,0,P|210:345|166:331,1,86.920001326294,8|0,0:0|0:0,0:0:0:0:
102,241,28007,1,2,1:0:0:0:
66,366,28150,1,2,1:0:0:0:
27,184,28292,1,8,0:0:0:0:
27,184,28364,1,8,0:0:0:0:
27,184,28435,1,8,0:0:0:0:
27,184,28507,1,8,0:0:0:0:
27,184,28578,6,0,P|98:162|151:163,1,108.120000659912,6|0,1:0|0:0,0:0:0:0:
236,51,28864,2,0,P|278:59|340:86,1,108.120000659912,10|0,0:0|0:0,0:0:0:0:
374,196,29150,2,0,P|402:147|410:78,1,108.120000659912,2|0,1:0|1:0,0:0:0:0:
266,171,29435,2,0,P|256:213|269:289,1,108.120000659912,10|0,0:0|0:0,0:0:0:0:
339,376,29721,2,0,P|275:353|222:348,1,108.120000659912,2|0,1:0|1:0,0:0:0:0:
185,203,30007,2,0,P|142:210|70:246,1,108.120000659912,10|0,0:0|1:0,0:0:0:0:
27,352,30292,2,0,P|17:292|-10:219,1,108.120000659912,2|0,0:0|1:0,0:0:0:0:
71,105,30578,1,10,0:0:0:0:
90,256,30721,1,2,0:0:0:0:
1,140,30864,5,2,1:0:0:0:
2,247,31007,1,0,1:0:0:0:
130,158,31150,2,0,P|196:145|260:149,1,108.120000659912,10|0,0:0|0:0,0:0:0:0:
323,252,31435,2,0,P|270:240|216:239,1,108.120000659912,2|0,1:0|1:0,0:0:0:0:
359,162,31721,2,0,P|385:97|387:48,1,108.120000659912,10|0,0:0|0:0,0:0:0:0:
454,176,32007,5,2,1:0:0:0:
488,90,32150,1,0,1:0:0:0:
493,250,32292,1,8,0:0:0:0:
416,106,32435,1,8,0:0:0:0:
491,171,32578,5,2,1:0:0:0:
488,90,32721,1,2,1:0:0:0:
412,246,32864,1,8,0:0:0:0:
337,113,33007,1,10,0:0:0:0:
312,278,33150,6,0,P|243:270|192:241,1,108.120000659912,0|0,1:0|0:0,0:0:0:0:
139,147,33435,1,10,0:0:0:0:
89,270,33578,2,0,P|63:184|26:138,1,108.120000659912,2|0,0:0|1:0,0:0:0:0:
161,225,33864,1,2,1:0:0:0:
24,316,34007,1,8,0:0:0:0:
145,325,34150,1,2,0:0:0:0:
1,239,34292,2,0,P|-21:171|-5:104,1,108.120000659912,4|0,1:0|0:0,0:0:0:0:
115,38,34578,1,10,0:0:0:0:
231,104,34721,2,0,P|232:157|212:207,1,108.120000659912,2|0,0:0|1:0,0:0:0:0:
141,297,35007,1,0,1:0:0:0:
291,246,35150,2,0,P|342:236|419:261,1,108.120000659912,10|0,0:0|0:0,0:0:0:0:
485,324,35435,5,2,1:0:0:0:
396,346,35578,1,0,1:0:0:0:
475,211,35721,2,0,P|452:124|371:52,1,162.180000989868,8|0,0:0|0:0,0:0:0:0:
382,64,36007,1,0,1:0:0:0:
299,127,36150,1,0,1:0:0:0:
205,21,36292,1,8,0:0:0:0:
294,43,36435,1,2,0:0:0:0:
211,152,36578,2,0,P|192:223|197:282,1,108.120000659912,2|0,1:0|1:0,0:0:0:0:
326,347,36864,1,10,0:0:0:0:
208,331,37007,2,0,P|124:341|72:372,1,108.120000659912,2|0,0:0|1:0,0:0:0:0:
16,377,37292,1,0,1:0:0:0:
113,261,37435,1,10,0:0:0:0:
32,291,37578,1,2,0:0:0:0:
124,161,37721,6,0,B|235:112|232:198|349:128,2,216.240001319824,4|8|0,1:0|0:0|1:0,0:0:0:0:
188,234,38435,1,0,1:0:0:0:
271,80,38578,1,8,0:0:0:0:
333,136,38721,1,2,0:0:0:0:
187,67,38864,2,0,P|113:58|72:65,1,108.120000659912,2|0,1:0|1:0,0:0:0:0:
6,200,39150,2,0,P|59:190|112:195,1,108.120000659912,10|0,0:0|0:0,0:0:0:0:
211,298,39435,2,0,P|200:227|209:158,1,108.120000659912,2|0,1:0|1:0,0:0:0:0:
324,87,39721,2,0,P|313:139|315:193,1,108.120000659912,10|0,0:0|0:0,0:0:0:0:
413,336,40007,6,0,B|400:214|486:266|451:120,2,216.240001319824,2|8|0,1:0|0:0|1:0,0:0:0:0:
327,289,40721,1,0,1:0:0:0:
192,367,40864,2,0,P|117:355|82:319,1,108.120000659912,8|0,0:0|0:0,0:0:0:0:
113,204,41150,1,0,1:0:0:0:
167,277,41292,1,0,1:0:0:0:
203,128,41435,2,0,P|256:60|286:42,1,108.120000659912,8|8,0:0|0:0,0:0:0:0:
349,34,41650,1,8,0:0:0:0:
349,34,41721,2,0,P|354:108|365:152,1,108.120000659912,4|4,3:0|3:0,0:0:0:0:
451,259,42007,1,8,3:0:0:0:
441,248,42292,6,0,B|409:217|371:233|371:233|323:310|241:289,1,216.240001319824,6|10,1:0|0:0,0:0:0:0:
168,250,42721,1,0,0:0:0:0:
221,131,42864,2,0,P|277:184|267:242,1,108.120000659912,2|0,1:0|1:0,0:0:0:0:
87,255,43150,2,0,P|100:203|144:175,1,108.120000659912,10|0,0:0|0:0,0:0:0:0:
188,336,43435,1,2,1:0:0:0:
188,336,43578,2,0,P|257:302|305:325,1,108.120000659912,2|8,1:0|0:0,0:0:0:0:
373,355,43864,1,10,0:0:0:0:
307,235,44007,2,0,P|306:168|368:121,1,108.120000659912,2|0,1:0|1:0,0:0:0:0:
446,32,44292,2,0,P|474:76|468:129,1,108.120000659912,8|0,0:0|0:0,0:0:0:0:
389,196,44578,5,2,1:0:0:0:
394,96,44721,1,2,0:0:0:0:
465,210,44864,1,10,0:0:0:0:
468,129,45007,1,2,0:0:0:0:
375,215,45150,2,0,P|320:233|260:202,1,108.120000659912,2|0,1:0|1:0,0:0:0:0:
141,124,45435,2,0,P|196:106|256:137,1,108.120000659912,10|0,0:0|0:0,0:0:0:0:
220,284,45721,2,0,P|188:241|221:155,1,108.120000659912,2|0,1:0|1:0,0:0:0:0:
297,58,46007,2,0,P|329:101|296:187,1,108.120000659912,10|8,0:0|0:0,0:0:0:0:
141,124,46292,2,0,P|196:106|256:137,1,108.120000659912,2|0,1:0|1:0,0:0:0:0:
220,284,46578,2,0,P|188:241|221:155,1,108.120000659912,8|0,0:0|0:0,0:0:0:0:
375,215,46864,5,6,1:0:0:0:
274,216,47007,1,2,0:0:0:0:
407,293,47150,2,0,P|457:230|442:182,1,108.120000659912,2|8,0:0|0:0,0:0:0:0:
383,61,47435,2,0,P|333:124|348:172,1,108.120000659912,2|0,0:0|1:0,0:0:0:0:
328,311,47721,2,0,P|265:273|224:286,1,108.120000659912,10|8,0:0|0:0,0:0:0:0:
48,367,48007,2,0,P|134:328|133:197,1,216.240001319824,6|2,1:0|0:0,0:0:0:0:
92,103,48435,1,8,0:0:0:0:
214,165,48578,2,0,P|280:144|304:102,1,108.120000659912,2|0,0:0|1:0,0:0:0:0:
467,98,48864,2,0,P|401:119|377:161,1,108.120000659912,10|0,0:0|1:0,0:0:0:0:
440,362,49150,6,0,P|494:281|438:167,1,216.240001319824,6|2,1:0|0:0,0:0:0:0:
303,240,49578,2,0,P|384:272|429:238,1,108.120000659912,8|2,0:0|0:0,0:0:0:0:
371,184,49864,1,0,0:0:0:0:
238,286,50007,2,0,P|157:318|112:284,1,108.120000659912,10|0,0:0|0:0,0:0:0:0:
148,114,50292,1,2,1:0:0:0:
178,239,50435,2,0,L|177:103,1,108.120000659912,8|2,0:0|0:0,0:0:0:0:
307,223,50721,1,8,0:0:0:0:
266,72,50864,1,10,0:0:0:0:
245,165,51007,1,8,0:0:0:0:
330,122,51150,1,8,3:0:0:0:
291,296,51292,1,8,0:0:0:0:
408,141,51435,6,0,P|397:73|347:41,1,108.120000659912,6|0,1:0|0:0,0:0:0:0:
315,218,51721,2,0,P|243:251|190:228,1,108.120000659912,10|0,0:0|0:0,0:0:0:0:
150,143,52007,1,2,1:0:0:0:
245,165,52150,1,0,1:0:0:0:
92,212,52292,2,0,P|59:142|77:90,1,108.120000659912,10|0,0:0|0:0,0:0:0:0:
229,59,52578,2,0,L|223:254,1,162.180000989868,2|0,1:0|0:0,0:0:0:0:
217,245,52864,1,8,0:0:0:0:
150,143,53007,1,8,0:0:0:0:
165,305,53150,2,0,P|233:324|271:298,1,108.120000659912,2|0,1:0|1:0,0:0:0:0:
398,228,53435,2,0,P|330:209|292:235,1,108.120000659912,10|0,0:0|0:0,0:0:0:0:
431,334,53721,6,0,L|443:96,1,216.240001319824,2|10,1:0|0:0,0:0:0:0:
389,50,54150,1,0,0:0:0:0:
294,136,54292,2,0,P|233:153|185:129,1,108.120000659912,2|0,1:0|1:0,0:0:0:0:
54,44,54578,2,0,P|92:124|66:177,1,108.120000659912,10|0,0:0|0:0,0:0:0:0:
1,294,54864,2,0,P|60:235|126:236,1,108.120000659912,2|0,1:0|1:0,0:0:0:0:
243,272,55150,1,10,0:0:0:0:
95,319,55292,1,8,0:0:0:0:
250,181,55435,2,0,P|299:201|330:244,1,108.120000659912,2|0,1:0|0:0,0:0:0:0:
438,359,55721,2,0,P|445:275|496:234,1,108.120000659912,10|0,0:0|0:3,0:3:0:0:
250,181,56007,5,6,1:0:0:0:
250,181,56292,5,8,0:0:0:0:
332,158,56435,1,0,1:0:0:0:
186,138,56578,5,10,0:0:0:0:
410,174,56721,1,0,1:0:0:0:
158,208,56864,5,10,0:0:0:0:
455,116,57007,1,0,1:0:0:0:
167,58,57150,6,0,P|106:111|109:167,1,108.120000659912,2|0,1:0|0:0,0:0:0:0:
310,256,57435,2,0,P|337:173|301:122,1,108.120000659912,2|0,1:0|0:0,0:0:0:0:
168,341,57721,6,0,L|106:351,3,54.0600003299561,2|0|0|0,1:0|0:0|0:0|0:0,0:0:0:0:
262,359,58007,2,0,L|324:369,3,54.0600003299561,2|0|0|0,1:0|0:0|0:0|0:0,0:0:0:0:
228,279,58292,6,0,L|225:132,1,129.31999467218,14|0,0:0|1:0,0:0:0:0:
365,27,58578,1,0,1:0:0:0:
129,280,58721,6,0,L|126:133,1,129.31999467218,12|0,0:0|1:0,0:0:0:0:
266,28,59007,1,0,1:0:0:0:
35,284,59150,5,8,0:0:0:0:
124,72,59292,1,0,1:0:0:0:
219,287,59435,5,8,0:0:0:0:
126,150,59578,1,8,3:0:0:0:
221,196,59721,1,4,3:0:0:0:
124,235,59864,1,4,3:0:0:0:
332,143,60007,6,0,L|429:135,1,64.6599973360902,8|8,0:0|0:0,0:0:0:0:
263,45,60150,2,0,L|166:37,1,64.6599973360902,8|8,3:0|3:0,0:0:0:0:
413,16,60292,1,8,0:0:0:0:
413,16,60578,5,6,1:0:0:0:
476,104,60721,2,0,B|491:199|433:154|464:304,1,139.919999572998,2|8,0:0|0:0,0:0:0:0:
500,363,61007,1,2,0:0:0:0:
386,298,61150,2,0,B|339:296|339:296|295:318|295:318|205:320,1,139.919999572998,2|0,1:0|1:0,0:0:0:0:
73,366,61435,5,10,0:0:0:0:
129,278,61578,2,0,B|140:198|92:237|107:142,1,139.919999572998,2|0,0:0|1:0,0:0:0:0:
22,90,61864,1,2,1:0:0:0:
136,25,62007,2,0,B|183:23|183:23|227:45|227:45|317:47,1,139.919999572998,10|0,0:0|0:0,0:0:0:0:
406,4,62292,5,2,1:0:0:0:
302,121,62435,1,2,1:0:0:0:
438,80,62578,1,8,0:0:0:0:
353,63,62721,1,2,0:0:0:0:
473,158,62864,6,0,P|483:245|458:319,1,139.919999572998,2|0,1:0|0:0,0:0:0:0:
335,374,63150,1,10,0:0:0:0:
281,292,63292,2,0,P|196:250|125:255,1,139.919999572998,2|0,0:0|1:0,0:0:0:0:
13,303,63578,2,0,P|58:216|61:147,1,139.919999572998,2|8,0:0|0:0,0:0:0:0:
194,18,63864,6,0,B|145:21|130:69|130:69|205:167|140:269,1,279.839999145996,2|0,0:0|1:0,0:0:0:0:
244,123,64292,2,0,P|328:89|375:101,1,139.919999572998,8|0,0:0|0:0,0:0:0:0:
433,236,64578,1,0,1:0:0:0:
323,180,64721,1,0,1:0:0:0:
428,27,64864,2,0,P|463:113|441:175,1,139.919999572998,8|0,0:0|0:0,0:0:0:0:
407,315,65150,5,2,1:0:0:0:
324,273,65292,2,0,B|303:261|278:273|278:273|244:332|166:319,1,139.919999572998,2|8,0:0|0:0,0:0:0:0:
87,284,65578,1,2,0:0:0:0:
156,228,65721,2,0,B|186:188|186:188|174:77,1,139.919999572998,2|0,1:0|1:0,0:0:0:0:
249,255,66007,1,10,0:0:0:0:
271,80,66150,6,0,P|355:35|409:173,1,279.839999145996,2|0,0:0|1:0,0:0:0:0:
254,234,66578,1,10,0:0:0:0:
347,118,66721,1,2,0:0:0:0:
308,298,66864,1,2,1:0:0:0:
203,172,67007,1,2,1:0:0:0:
329,205,67150,1,10,0:0:0:0:
175,261,67292,1,2,0:0:0:0:
347,118,67435,6,0,P|414:174|405:252,1,139.919999572998,2|0,1:0|1:0,0:0:0:0:
476,83,67721,1,10,0:0:0:0:
503,172,67864,2,0,L|485:348,1,139.919999572998,2|0,0:0|1:0,0:0:0:0:
343,344,68150,2,0,L|328:204,1,139.919999572998,2|8,1:0|0:0,0:0:0:0:
148,96,68435,6,0,B|234:97|191:151|311:141,1,139.919999572998,2|0,0:0|1:0,0:0:0:0:
272,57,68721,1,2,0:0:0:0:
150,186,68864,2,0,P|145:263|206:321,1,139.919999572998,10|0,0:0|0:0,0:0:0:0:
357,241,69150,2,0,B|274:213|274:213|208:237,1,139.919999572998,2|0,1:0|1:0,0:0:0:0:
344,325,69435,1,8,0:0:0:0:
372,154,69578,1,0,0:0:0:0:
440,325,69721,5,6,1:0:0:0:
467,235,69864,2,0,B|481:158|429:179|451:67,1,139.919999572998,2|8,0:0|0:0,0:0:0:0:
505,21,70150,1,2,0:0:0:0:
379,54,70292,2,0,B|330:70|330:70|292:64|292:64|233:86,1,139.919999572998,2|0,1:0|1:0,0:0:0:0:
124,33,70578,5,10,0:0:0:0:
97,123,70721,2,0,B|83:200|135:179|113:291,1,139.919999572998,2|0,0:0|1:0,0:0:0:0:
59,337,71007,1,2,1:0:0:0:
185,304,71149,2,0,B|234:288|234:288|272:294|272:294|331:272,1,139.919999572998,10|0,0:0|0:0,0:0:0:0:
446,335,71435,1,2,1:0:0:0:
396,250,71578,1,2,1:0:0:0:
242,369,71721,1,8,0:0:0:0:
354,341,71864,1,2,0:0:0:0:
260,208,72007,6,0,P|239:121|256:59,1,139.919999572998,2|0,1:0|1:0,0:0:0:0:
163,201,72292,1,10,0:0:0:0:
118,104,72435,2,0,B|31:83|31:83|-3:146,1,139.919999572998,2|0,0:0|1:0,0:0:0:0:
82,298,72721,2,0,P|87:228|156:176,1,139.919999572998,2|8,1:0|0:0,0:0:0:0:
275,333,73007,6,0,P|241:244|313:66,1,279.839999145996,2|0,0:0|1:0,0:0:0:0:
492,46,73435,2,0,P|417:94|391:157,1,139.919999572998,8|0,0:0|0:0,0:0:0:0:
439,274,73721,1,0,1:0:0:0:
353,211,73864,1,0,1:0:0:0:
254,337,74007,2,0,L|77:306,1,139.919999572998,8|0,0:0|0:0,0:0:0:0:
187,103,74292,5,2,1:0:0:0:
187,103,74435,2,0,B|213:193|145:155|197:297,1,139.919999572998,2|8,1:0|0:0,0:0:0:0:
269,113,74721,1,2,0:0:0:0:
269,113,74864,2,0,B|295:203|227:165|279:307,1,139.919999572998,2|0,1:0|1:0,0:0:0:0:
350,114,75150,1,10,0:0:0:0:
336,216,75292,1,2,0:0:0:0:
476,161,75435,1,0,1:0:0:0:
401,172,75578,1,2,0:0:0:0:
456,320,75721,1,8,0:0:0:0:
445,234,75864,2,0,L|455:88,2,108.120000659912,2|0|0,0:0|1:0|1:0,0:0:0:0:
368,355,76292,2,0,P|308:328|237:323,1,108.120000659912,10|0,0:0|1:0,0:0:0:0:
97,362,76578,6,0,B|149:257|53:268|125:127,2,216.240001319824,6|8|0,1:0|0:0|1:0,0:0:0:0:
33,294,77292,1,0,1:0:0:0:
187,342,77435,2,0,P|255:326|309:289,1,108.120000659912,10|0,0:0|0:0,0:0:0:0:
327,222,77721,1,2,1:0:0:0:
369,313,77864,1,0,1:0:0:0:
384,171,78007,2,0,P|401:92|424:52,1,108.120000659912,12|0,0:0|0:0,0:0:0:0:
307,132,78292,2,0,P|232:157|175:153,1,108.120000659912,2|0,1:0|1:0,0:0:0:0:
84,102,78578,1,14,0:0:0:0:
84,102,78650,1,8,0:0:0:0:
84,102,78721,1,8,0:0:0:0:
84,102,78792,1,8,0:0:0:0:
84,102,78864,6,0,P|112:179|111:223,1,118.720001449219,6|0,1:0|0:0,0:0:0:0:
231,270,79150,2,0,P|203:193|204:149,1,118.720001449219,10|0,0:0|0:0,0:0:0:0:
352,46,79435,2,0,P|317:120|285:150,1,118.720001449219,2|0,1:0|0:0,0:0:0:0:
337,268,79721,2,0,P|371:193|403:163,1,118.720001449219,10|0,0:0|0:0,0:0:0:0:
418,340,80007,2,0,P|338:367|283:362,1,118.720001449219,2|0,1:0|1:0,0:0:0:0:
170,310,80292,2,0,P|250:283|305:288,1,118.720001449219,10|0,0:0|0:0,0:0:0:0:
417,258,80578,2,0,P|341:220|305:178,1,118.720001449219,2|0,1:0|1:0,0:0:0:0:
262,61,80864,2,0,P|337:98|373:140,1,118.720001449219,10|0,0:0|0:0,0:0:0:0:
156,84,81150,6,0,P|83:108|32:162,1,118.720001449219,2|0,1:0|1:0,0:0:0:0:
18,267,81435,2,0,P|91:243|142:189,1,118.720001449219,10|0,0:0|0:0,0:0:0:0:
262,61,81721,2,0,P|227:129|229:203,1,118.720001449219,2|0,1:0|1:0,0:0:0:0:
290,300,82007,2,0,P|324:231|322:157,1,118.720001449219,10|0,0:0|0:0,0:0:0:0:
208,344,82292,2,0,P|132:361|77:352,1,118.720001449219,2|0,1:0|1:0,0:0:0:0:
290,300,82578,2,0,P|348:296|405:312,1,118.720001449219,10|0,0:0|0:0,0:0:0:0:
212,268,82864,1,2,1:0:0:0:
290,220,83007,1,0,1:0:0:0:
140,195,83150,2,0,P|84:175|38:138,1,118.720001449219,8|2,0:0|0:0,0:0:0:0:
217,85,83435,5,2,1:0:0:0:
129,52,83578,1,2,1:0:0:0:
219,175,83721,2,0,P|301:143|357:155,1,118.720001449219,10|0,0:0|0:0,0:0:0:0:
242,252,84007,1,2,1:0:0:0:
337,227,84150,1,2,1:0:0:0:
286,371,84292,1,10,0:0:0:0:
304,297,84435,1,2,0:0:0:0:
370,354,84578,1,2,1:0:0:0:
400,282,84721,1,2,1:0:0:0:
286,371,84864,1,10,0:0:0:0:
370,354,85007,1,2,0:0:0:0:
226,302,85150,2,0,P|159:281|89:277,1,118.720001449219,2|0,1:0|1:0,0:0:0:0:
5,163,85435,2,0,P|63:156|120:137,1,118.720001449219,8|2,0:0|0:0,0:0:0:0:
199,59,85707,5,2,1:0:0:0:
109,43,85850,1,2,1:0:0:0:
200,171,85993,1,10,0:0:0:0:
235,85,86136,1,2,1:0:0:0:
274,210,86278,1,2,1:0:0:0:
200,171,86421,1,2,1:0:0:0:
330,71,86564,1,10,0:0:0:0:
295,136,86707,1,2,1:0:0:0:
199,59,86850,2,0,P|123:43|69:49,1,118.720001449219,2|0,1:0|1:0,0:0:0:0:
83,183,87135,2,0,P|140:168|199:170,1,118.720001449219,10|0,0:0|0:0,0:0:0:0:
246,297,87421,2,0,P|188:282|129:284,1,118.720001449219,2|0,1:0|1:0,0:0:0:0:
26,354,87707,1,8,0:0:0:0:
26,354,87778,1,8,0:0:0:0:
26,354,87850,1,8,0:0:0:0:
26,354,87921,1,8,0:0:0:0:
26,354,88007,6,0,B|41:300|41:300|35:261|35:261|55:188,1,139.919999572998,6|0,1:0|0:0,0:0:0:0:
209,110,88283,1,10,0:0:0:0:
80,144,88425,1,0,1:0:0:0:
257,222,88568,1,10,0:0:0:0:
155,179,88711,1,0,1:0:0:0:
302,89,88854,1,10,0:0:0:0:
177,191,88997,1,0,1:0:0:0:
382,54,89141,6,0,B|387:113|387:113|379:149|379:149|385:221,1,139.919999572998,6|0,1:0|0:0,0:0:0:0:
468,350,89425,1,10,0:0:0:0:
354,280,89569,1,0,1:0:0:0:
471,162,89712,1,10,0:0:0:0:
310,99,89855,1,0,1:0:0:0:
408,216,89998,1,10,0:0:0:0:
438,63,90141,1,0,1:0:0:0:
291,213,90283,6,0,B|241:221|241:221|206:207|206:207|109:218,1,139.919999572998,6|0,1:0|0:0,0:0:0:0:
38,357,90569,1,10,0:0:0:0:
189,290,90712,1,0,1:0:0:0:
66,152,90854,1,10,0:0:0:0:
97,300,90998,1,0,1:0:0:0:
260,142,91141,1,10,0:0:0:0:
138,205,91283,1,0,1:0:0:0:
306,333,91426,6,0,B|369:311|378:359|450:332,1,139.919999572998,6|0,1:0|0:0,0:0:0:0:
370,216,91712,2,0,B|307:194|298:242|233:217,1,139.919999572998,10|0,0:0|1:0,0:0:0:0:
399,112,91998,1,10,0:0:0:0:
260,142,92141,1,0,1:0:0:0:
466,172,92283,2,0,P|480:95|437:37,1,139.919999572998,8|2,0:0|0:0,0:0:0:0:
254,46,92560,5,6,1:0:0:0:
399,112,92703,1,2,1:0:0:0:
233,150,92845,2,0,B|192:163|192:163|151:155|151:155|92:169,1,139.919999572998,10|0,0:0|1:0,0:0:0:0:
281,217,93132,1,10,0:0:0:0:
182,85,93274,1,2,1:0:0:0:
140,274,93417,1,10,0:0:0:0:
214,170,93560,1,2,1:0:0:0:
332,320,93703,1,10,0:0:0:0:
224,277,93846,1,2,1:0:0:0:
345,136,93989,1,10,0:0:0:0:
304,244,94132,1,2,1:0:0:0:
255,92,94274,2,0,B|201:79|201:79|160:87|160:87|119:74,1,139.919999572998,10|0,0:0|1:0,0:0:0:0:
15,237,94560,2,0,B|68:224|68:224|109:232|109:232|150:219,1,139.919999572998,8|0,0:0|1:0,0:0:0:0:
325,259,94845,5,10,0:0:0:0:
229,186,94988,1,2,1:0:0:0:
194,346,95131,1,10,0:0:0:0:
244,271,95274,1,2,1:0:0:0:
84,189,95417,1,10,0:0:0:0:
147,277,95560,1,2,1:0:0:0:
264,116,95702,1,10,0:0:0:0:
179,184,95845,1,2,1:0:0:0:
354,159,95988,1,10,0:0:0:0:
259,85,96131,1,2,1:0:0:0:
314,236,96274,2,0,B|310:286|310:286|324:324|324:324|308:378,1,139.919999572998,10|0,0:0|1:0,0:0:0:0:
400,241,96560,5,8,0:0:0:0:
304,232,96702,1,8,3:0:0:0:
244,286,96845,1,8,3:0:0:0:
244,286,97131,6,0,P|194:271|60:261,1,152.640003726563,6|2,1:0|0:0,0:0:0:0:
3,223,97560,1,0,3:0:0:0:
113,179,97702,2,0,P|172:174|207:157,1,76.3200018632813,10|0,0:0|0:0,0:0:0:0:
257,99,97988,2,0,P|293:109|331:109,1,76.3200018632813,2|0,0:0|1:0,0:0:0:0:
423,54,98274,1,2,0:0:0:0:
423,54,98417,2,0,P|421:118|439:154,1,76.3200018632813,0|2,3:0|0:0,0:0:0:0:
470,204,98702,1,0,1:0:0:0:
429,286,98845,2,0,P|384:259|355:251,1,76.3200018632813,10|0,0:0|0:0,0:0:0:0:
321,168,99131,2,0,P|270:180|243:195,1,76.3200018632813,8|0,3:0|0:0,0:0:0:0:
216,293,99417,6,0,P|211:222|169:134,1,152.640003726563,6|2,1:0|0:0,0:0:0:0:
109,96,99845,1,0,3:0:0:0:
49,155,99988,2,0,P|65:212|65:245,1,76.3200018632813,10|0,0:0|0:0,0:0:0:0:
122,346,100274,2,0,P|126:308|138:272,1,76.3200018632813,10|0,0:0|0:0,0:0:0:0:
210,207,100560,1,2,1:0:0:0:
272,326,100702,1,8,0:0:0:0:
300,236,100845,2,0,P|319:189|345:149,1,76.3200018632813,2|0,0:0|1:0,0:0:0:0:
393,62,101131,2,0,P|411:95|424:130,1,76.3200018632813,10|0,0:0|0:0,0:0:0:0:
416,218,101417,1,0,3:0:0:0:
416,218,101560,1,0,3:0:0:0:
315,156,101702,6,0,P|264:134|212:129,2,76.3200018632813,6|0|0,1:0|0:0|0:0,0:0:0:0:
334,240,102131,1,2,3:0:0:0:
258,279,102274,2,0,P|208:290|158:290,1,76.3200018632813,10|0,0:0|0:0,0:0:0:0:
109,190,102560,2,0,P|71:186|34:177,1,76.3200018632813,10|0,0:0|0:0,0:0:0:0:
1,59,102845,1,14,0:0:0:0:
400,206,103845,5,0,1:0:0:0:
400,206,103917,1,0,1:0:0:0:
400,206,103988,2,0,B|350:152|287:179|287:179|209:324|89:261,1,364.8616444838,6|0,1:0|0:0,0:0:0:0:
84,250,106274,6,0,P|74:191|108:102,1,130.709187466688,4|0,1:0|0:0,0:0:0:0:
153,72,106560,2,0,L|141:25,3,43.5697291555628,8|0|0|0,0:0|1:0|1:0|1:0,0:0:0:0:
213,124,106845,2,0,L|202:166,3,43.5697291555628,8|0|0|0,0:0|1:0|1:0|1:0,0:0:0:0:
284,74,107131,2,0,L|273:31,3,43.5697291555628,8|0|0|0,0:0|1:0|1:0|1:0,0:0:0:0:
365,110,107417,6,0,L|382:221,1,87.1394583111256,0|8,1:0|0:0,0:0:0:0:
274,284,107702,2,0,L|287:197,1,87.1394583111256,0|8,1:0|0:0,0:0:0:0:
162,250,107988,2,0,L|175:336,1,87.1394583111256,0|8,1:0|0:0,0:0:0:0:
49,283,108274,2,0,L|64:175,1,87.1394583111256,8|0,3:0|0:0,0:0:0:0:
285,88,108560,6,0,P|236:109|161:114,1,108.120000659912,6|0,1:0|0:0,0:0:0:0:
60,196,108846,2,0,P|114:203|164:224,1,108.120000659912,10|0,0:0|0:0,0:0:0:0:
262,336,109132,1,2,1:0:0:0:
236,222,109275,1,2,1:0:0:0:
357,304,109418,2,0,P|411:298|461:277,1,108.120000659912,10|0,0:0|0:0,0:0:0:0:
383,211,109703,1,2,1:0:0:0:
512,134,109846,1,2,1:0:0:0:
339,143,109989,2,0,P|286:137|236:116,1,108.120000659912,10|0,0:0|0:0,0:0:0:0:
104,35,110275,1,2,1:0:0:0:
149,138,110417,2,0,P|143:192|123:242,1,108.120000659912,0|8,1:0|0:0,0:0:0:0:
228,101,110702,1,2,0:0:0:0:
420,151,110846,5,2,1:0:0:0:
377,58,110989,1,2,1:0:0:0:
343,215,111132,2,0,P|307:293|276:322,1,108.120000659912,10|0,0:0|0:0,0:0:0:0:
128,329,111418,1,2,1:0:0:0:
217,370,111560,1,2,1:0:0:0:
123,238,111703,2,0,P|103:189|99:135,1,108.120000659912,10|0,0:0|0:0,0:0:0:0:
241,43,111989,2,0,P|221:93|217:147,1,108.120000659912,2|0,1:0|1:0,0:0:0:0:
386,287,112275,2,0,P|383:234|362:184,1,108.120000659912,8|2,0:0|1:0,0:0:0:0:
474,278,112560,1,10,0:0:0:0:
487,114,112703,1,8,0:0:0:0:
452,188,112846,1,8,3:0:0:0:
452,188,112917,1,8,0:0:0:0:
452,188,112988,1,8,0:0:0:0:
452,188,113060,1,8,0:0:0:0:
452,188,113131,6,0,P|452:140|435:58,2,97.7394601056759,4|0|0,1:0|0:0|3:0,0:0:0:0:
389,320,113560,2,0,P|296:284|277:286,1,97.7394601056759,8|0,0:0|0:0,0:0:0:0:
206,322,113845,1,0,1:0:0:0:
270,196,113988,2,0,P|280:148|272:100,1,97.7394601056759,8|0,0:0|0:0,0:0:0:0:
200,36,114274,1,0,1:0:0:0:
111,146,114417,2,0,P|100:98|108:50,2,97.7394601056759,8|0|0,0:0|0:0|1:0,0:0:0:0:
168,265,114845,1,8,0:0:0:0:
168,265,115131,1,0,3:0:0:0:
227,214,115274,1,0,3:0:0:0:
298,284,115417,6,0,P|349:296|423:286,2,97.7394601056759,4|0|0,1:0|0:0|3:0,0:0:0:0:
373,171,115845,2,0,P|372:100|344:46,1,97.7394601056759,8|0,0:0|0:0,0:0:0:0:
283,14,116131,1,0,1:0:0:0:
188,115,116274,2,0,P|132:113|77:85,1,97.7394601056759,8|0,0:0|0:0,0:0:0:0:
22,44,116560,1,0,1:0:0:0:
45,165,116702,2,0,P|52:222|47:270,1,97.7394601056759,8|0,0:0|1:0,0:0:0:0:
39,355,116988,1,0,1:0:0:0:
140,220,117131,2,0,L|330:204,1,146.609190158514,8|0,0:0|0:0,0:0:0:0:
368,264,117417,1,8,0:0:0:0:
368,264,117488,1,8,0:0:0:0:
368,264,117560,1,8,0:0:0:0:
368,264,117631,1,8,0:0:0:0:
368,264,117702,6,0,B|392:213|413:164|313:187|348:133|410:-21|468:17|536:97|516:158|429:187|360:115|360:115|301:25|207:51|240:113|244:146|200:162|69:138|-7:163|-18:44|52:-28|90:8|146:2|136:130|136:130|139:236|108:266|90:283|56:293|7:291|43:158|116:260|116:260|140:282|185:277|199:228|255:231|305:277|315:340|264:377|216:372|205:332,1,1631.34003982764,4|0,1:0|0:0,0:0:0:0:
