osu file format v14

[General]
AudioFilename: audio.mp3
AudioLeadIn: 0
PreviewTime: 58491
Countdown: 0
SampleSet: Normal
StackLeniency: 0.7
Mode: 0
LetterboxInBreaks: 0
WidescreenStoryboard: 0

[Editor]
DistanceSpacing: 1
BeatDivisor: 4
GridSize: 4
TimelineZoom: 1.3

[Metadata]
Title:HARUKAZE ~TV size~
TitleUnicode:HARUKAZE ~TV size~
Artist:SCANDAL
ArtistUnicode:SCANDAL
Creator:Milar001
Version:Normal
Source:BLEACH
Tags:opening op γƒ–γƒͺーチ 15
BeatmapID:1538062
BeatmapSetID:728510

[Difficulty]
HPDrainRate:4
CircleSize:3.4
OverallDifficulty:4
ApproachRate:6
SliderMultiplier:1.1
SliderTickRate:1

[Events]
//Background and Video events
0,0,"2771505.png",0,0
//Break Periods
//Storyboard Layer 0 (Background)
//Storyboard Layer 1 (Fail)
//Storyboard Layer 2 (Pass)
//Storyboard Layer 3 (Foreground)
//Storyboard Sound Samples

[TimingPoints]
-236,363.636363636364,4,1,1,60,1,0
1218,-100,4,1,1,50,0,0
12854,-100,4,1,1,40,0,0
24491,-100,4,1,1,50,0,0
36127,-100,4,1,1,30,0,0
59218,-100,4,1,1,50,0,0
59400,-100,4,1,1,65,0,1
84127,-100,4,1,1,50,0,1
87036,-100,4,1,1,30,0,0

[Colours]
Combo1 : 255,128,64
Combo2 : 17,238,55
Combo3 : 255,32,49
Combo4 : 223,32,194

[HitObjects]
68,100,491,6,0,L|73:174,1,55,8|0,0:0|0:0,0:0:0:0:
86,264,1036,1,0,0:0:0:0:
86,264,1218,5,0,0:0:0:0:
193,240,1581,1,0,0:0:0:0:
304,232,1945,2,2,P|292:156|322:113,1,110
396,72,2672,1,0,0:0:0:0:
368,180,3036,1,0,0:0:0:0:
384,288,3400,2,2,P|323:332|268:321,1,110
188,292,4127,5,0,0:0:0:0:
136,196,4490,1,0,0:0:0:0:
116,88,4854,2,2,P|167:103|217:82,1,110
313,27,5581,2,2,L|303:139,1,110
396,196,6309,2,2,L|405:86,1,110
313,27,7036,5,0,0:0:0:0:
303,136,7399,1,0,0:0:0:0:
288,248,7764,2,2,P|236:232|186:253,1,110
112,332,8491,2,2,L|101:216,1,110
0,181,9219,2,2,L|9:290,1,110
112,332,9945,6,0,B|171:358|171:358|214:326|214:326|267:361|329:326,1,220,8|0,0:0|0:0,0:0:0:0:
272,232,11036,1,0,0:0:0:0:
272,232,11218,2,0,B|291:158|291:158|270:128|270:128|287:66,1,165,8|0,0:0|2:0,2:0:0:0:
204,0,12127,1,0,0:0:0:0:
99,34,12490,1,0,0:0:0:0:
67,139,12854,6,0,P|55:191|75:251,1,110,4|0,0:0|0:0,0:0:0:0:
172,292,13581,1,0,0:0:0:0:
280,264,13945,1,8,0:0:0:0:
252,156,14309,2,0,B|178:155|178:155|131:187,1,110,0|8,0:0|0:0,0:0:0:0:
92,268,15036,2,0,B|166:269|166:269|195:248,1,110,0|8,0:0|0:0,0:0:0:0:
252,156,15764,5,0,0:0:0:0:
348,104,16127,1,8,0:0:0:0:
452,136,16490,2,0,P|458:108|448:60,2,55,0|0|8,0:0|0:0|0:0,0:0:0:0:
440,188,17036,1,0,0:0:0:0:
408,232,17218,2,0,P|356:216|306:237,1,110,0|8,0:0|0:0,0:0:0:0:
260,268,17764,2,0,L|248:136,1,110
244,104,18309,1,8,0:0:0:0:
144,60,18672,5,0,0:0:0:0:
40,100,19036,1,8,0:0:0:0:
56,208,19400,2,0,P|28:210|1:204,2,55,0|0|8,0:0|0:0|0:0,0:0:0:0:
108,188,19945,1,0,0:0:0:0:
148,152,20127,2,0,P|198:131|249:146,1,110,0|8,0:0|0:0,0:0:0:0:
292,184,20673,2,0,L|419:194,1,110
456,196,21218,1,8,0:0:0:0:
412,296,21581,5,0,0:0:0:0:
316,352,21945,1,8,0:0:0:0:
212,316,22309,2,0,P|206:342|208:370,2,55,0|0|8,0:0|0:0|0:0,0:0:0:0:
232,264,22854,1,0,0:0:0:0:
252,156,23218,2,0,P|257:129|255:101,2,55,0|8|0,0:0|0:0|0:0,0:0:0:0:
204,184,23764,2,0,L|136:189,1,55
96,192,24127,1,4,0:0:0:0:
144,92,24491,6,0,P|90:79|38:97,1,110,2|8,0:0|0:0,0:0:0:0:
8,200,25218,1,0,0:0:0:0:
60,296,25581,1,8,0:0:0:0:
156,352,25945,2,0,P|207:367|263:346,2,110,0|8|0,0:0|0:0|0:0,0:0:0:0:
208,254,27037,2,0,L|211:187,1,55,8|0,0:0|0:0,0:0:0:0:
212,146,27400,5,0,0:0:0:0:
284,64,27764,1,8,0:0:0:0:
388,100,28127,2,0,P|393:73|391:45,2,55,0|0|8,0:0|0:0|0:0,0:0:0:0:
364,148,28672,1,0,0:0:0:0:
336,196,28854,2,0,P|320:247|341:297,1,110,0|8,0:0|0:0,0:0:0:0:
376,340,29400,2,0,L|266:349,1,110
212,356,29945,1,8,0:0:0:0:
112,312,30308,5,0,0:0:0:0:
60,216,30673,2,0,P|112:200|168:216,1,110,8|0,0:0|0:0,0:0:0:0:
212,236,31218,1,0,0:0:0:0:
212,236,31400,2,0,L|235:104,1,110,8|0,0:0|0:0,0:0:0:0:
256,20,32127,1,8,0:0:0:0:
340,92,32490,1,0,0:0:0:0:
308,196,32854,2,0,P|364:200|412:168,1,110,8|0,0:0|0:0,0:0:0:0:
444,68,33581,5,8,0:0:0:0:
340,92,33945,2,0,P|332:65|331:38,2,55,0|0|8,0:0|0:0|0:0,0:0:0:0:
360,144,34490,1,0,0:0:0:0:
252,152,34854,1,0,0:0:0:0:
252,152,35036,2,0,L|188:157,1,55,8|0,0:0|0:0,0:0:0:0:
144,168,35400,2,0,P|165:217|153:270,1,110,8|0,0:0|0:0,0:0:0:0:
52,228,36127,6,0,P|32:168|52:112,1,110,0|8,0:0|0:0,0:0:0:0:
64,72,36673,1,0,0:0:0:0:
64,72,36854,2,0,L|187:61,1,110,0|8,0:0|0:0,0:0:0:0:
284,44,37581,1,0,0:0:0:0:
392,72,37945,2,0,P|397:45|392:16,2,55,8|0|0,0:0|0:0|0:0,0:0:0:0:
336,168,38672,1,8,0:0:0:0:
280,264,39036,6,0,L|148:254,1,110,0|8,0:0|0:0,0:0:0:0:
116,248,39581,1,0,0:0:0:0:
116,248,39764,2,0,P|127:194|107:144,1,110,0|8,0:0|0:0,0:0:0:0:
0,120,40491,2,0,P|22:70|68:42,2,110,0|8|0,0:0|0:0|0:0,0:0:0:0:
107,144,41581,1,8,0:0:0:0:
216,144,41945,6,0,L|206:263,1,110,0|8,0:0|0:0,0:0:0:0:
207,310,42490,1,0,0:0:0:0:
207,310,42673,2,0,P|153:298|103:318,1,110,0|8,0:0|0:0,0:0:0:0:
36,228,43400,2,0,L|25:104,2,110,0|8|0,0:0|0:0|0:0,0:0:0:0:
103,317,44490,1,8,0:0:0:0:
212,304,44854,6,0,L|338:291,1,110,0|8,0:0|0:0,0:0:0:0:
376,288,45399,1,0,0:0:0:0:
376,288,45582,2,0,P|356:237|367:184,1,110,0|8,0:0|0:0,0:0:0:0:
388,132,46127,1,0,0:0:0:0:
388,132,46309,2,0,L|333:123,1,55,4|4,0:0|0:0,0:0:0:0:
295,83,46672,2,0,L|240:74,1,55,8|4,0:0|0:0,0:0:0:0:
132,56,47218,1,0,0:0:0:0:
132,56,47400,2,0,L|137:123,1,55,8|0,0:0|0:0,0:0:0:0:
140,168,47764,6,0,P|132:200|108:228,1,55
88,264,48127,2,0,L|33:268,2,55,8|0|0,0:0|0:0|0:0,0:0:0:0:
196,252,48854,2,0,L|250:247,1,55,8|0,0:0|0:0,0:0:0:0:
304,240,49218,2,0,P|300:200|316:168,1,55
332,140,49582,1,8,0:0:0:0:
228,168,49945,2,0,L|116:177,1,110,0|8,0:0|0:0,0:0:0:0:
128,288,50672,6,0,L|263:276,1,110,0|8,0:0|0:0,0:0:0:0:
292,268,51218,1,0,0:0:0:0:
344,256,51399,1,0,0:0:0:0:
448,220,51763,1,8,0:0:0:0:
496,120,52127,2,0,P|442:108|392:128,1,110,0|8,0:0|0:0,0:0:0:0:
284,108,52854,2,0,L|294:223,1,110,0|8,0:0|0:0,0:0:0:0:
300,328,53581,5,0,0:0:0:0:
196,292,53945,2,0,P|142:280|92:300,1,110,8|0,0:0|0:0,0:0:0:0:
44,200,54672,2,0,B|21:142|21:142|21:79,1,110,8|0,0:0|0:0,0:0:0:0:
96,12,55400,2,0,B|119:70|119:70|119:133,1,110,8|0,0:0|0:0,0:0:0:0:
44,200,56127,1,8,0:0:0:0:
102,293,56491,6,0,P|126:282|141:259,1,55,8|0,0:0|0:0,0:0:0:0:
164,208,56854,2,0,L|236:201,1,55,8|0,0:0|0:0,0:0:0:0:
264,236,57218,2,0,L|330:241,1,55,8|0,0:0|0:0,0:0:0:0:
376,240,57582,2,0,P|408:236|432:220,1,55,8|0,0:0|0:0,0:0:0:0:
456,180,57945,6,0,L|464:107,2,55,8|2|4,0:0|0:0|0:0,0:0:0:0:
360,260,59218,1,0,0:0:0:0:
360,260,59400,6,0,P|375:311|361:364,1,110,4|8,0:0|0:0,0:0:0:0:
264,312,60127,1,0,0:0:0:0:
268,204,60490,1,8,0:0:0:0:
168,252,60854,2,0,B|91:252|91:252|50:227,1,110,0|8,0:0|0:0,0:0:0:0:
12,136,61581,2,0,B|89:136|89:136|130:161,1,110,0|8,0:0|0:0,0:0:0:0:
168,252,62309,6,0,P|193:204|240:177,1,110,0|8,0:0|0:0,0:0:0:0:
352,172,63036,1,0,0:0:0:0:
452,216,63399,1,8,0:0:0:0:
364,284,63764,2,8,P|312:299|259:285,2,110,0|8|0,0:0|0:0|0:0,0:0:0:0:
452,216,64854,1,8,0:0:0:0:
420,116,65218,6,0,P|372:142|347:190,1,110,0|8,0:0|0:0,0:0:0:0:
312,296,65945,1,0,0:0:0:0:
224,364,66308,1,8,0:0:0:0:
116,344,66672,2,0,L|105:224,1,110,0|8,0:0|0:0,0:0:0:0:
180,152,67400,2,0,L|189:261,1,110,0|8,0:0|0:0,0:0:0:0:
224,364,68127,5,0,0:0:0:0:
316,304,68491,2,0,P|330:251|314:199,1,110,8|0,0:0|0:0,0:0:0:0:
238,119,69218,1,8,0:0:0:0:
155,46,69582,2,0,L|91:40,1,55
45,43,69945,2,0,P|42:74|52:111,1,55,8|0,0:0|0:0,0:0:0:0:
123,176,70491,2,0,P|126:145|116:108,1,55,0|8,0:0|0:0,0:0:0:0:
27,179,71036,6,0,P|11:231|25:283,1,110,0|8,0:0|0:0,0:0:0:0:
112,350,71764,1,0,0:0:0:0:
220,354,72127,1,8,0:0:0:0:
324,322,72490,2,0,B|360:286|360:286|360:226,1,110,0|8,0:0|0:0,0:0:0:0:
308,130,73218,2,0,B|272:166|272:166|272:226,1,110,0|8,0:0|0:0,0:0:0:0:
324,322,73945,6,0,L|200:332,1,110,0|8,0:0|0:0,0:0:0:0:
104,338,74672,1,0,0:0:0:0:
4,294,75036,1,8,0:0:0:0:
0,183,75400,2,0,P|53:194|92:232,1,110,0|8,0:0|0:0,0:0:0:0:
104,338,76127,2,0,L|169:332,1,55
213,323,76491,2,8,P|234:299|239:264,1,55
234,223,76854,6,0,L|222:108,1,110,0|8,0:0|0:0,0:0:0:0:
197,6,77582,2,0,P|249:21|301:7,1,110,0|8,0:0|0:0,0:0:0:0:
407,35,78309,2,0,L|417:158,2,110,0|8|0,0:0|0:0|0:0,0:0:0:0:
301,6,79399,1,8,0:0:0:0:
238,97,79764,6,0,L|227:220,1,110,0|8,0:0|0:0,0:0:0:0:
228,316,80491,2,0,P|280:331|332:317,1,110,0|8,0:0|0:0,0:0:0:0:
404,233,81218,1,0,0:0:0:0:
443,130,81582,1,8,0:0:0:0:
443,75,81764,2,0,P|390:89|338:73,1,110,4|0,0:0|0:0,0:0:0:0:
291,44,82309,2,0,L|286:98,1,55,8|0,0:0|0:0,0:0:0:0:
279,152,82672,6,0,L|289:275,2,110,0|8|0,0:0|0:0|0:0,0:0:0:0:
240,48,83764,2,0,L|176:53,1,55
132,56,84127,6,0,P|152:116|128:164,1,110
94,194,84673,2,0,L|224:205,1,110
258,211,85218,1,8,0:0:0:0:
312,219,85400,1,0,0:0:0:0:
348,260,85582,6,0,L|348:332,2,55,8|2|0,0:0|0:0|0:0,0:0:0:0:
391,226,86127,2,0,L|394:171,2,55,8|2|0,0:0|0:0|0:0,0:0:0:0:
431,263,86673,1,8,0:0:0:0:
256,192,87036,12,0,88490,0:0:0:0:
