osu file format v14

[General]
AudioFilename: audio.mp3
AudioLeadIn: 0
PreviewTime: 58491
Countdown: 0
SampleSet: Normal
StackLeniency: 0.7
Mode: 0
LetterboxInBreaks: 0
WidescreenStoryboard: 0

[Editor]
Bookmarks: 12854
DistanceSpacing: 2.7
BeatDivisor: 4
GridSize: 4
TimelineZoom: 2.299999

[Metadata]
Title:HARUKAZE ~TV size~
TitleUnicode:HARUKAZE ~TV size~
Artist:SCANDAL
ArtistUnicode:SCANDAL
Creator:Milar001
Version:Insane
Source:BLEACH
Tags:opening op γƒ–γƒͺーチ 15
BeatmapID:1556801
BeatmapSetID:728510

[Difficulty]
HPDrainRate:6
CircleSize:4
OverallDifficulty:7
ApproachRate:9
SliderMultiplier:1.4
SliderTickRate:1

[Events]
//Background and Video events
0,0,"2771505.png",0,0
//Break Periods
//Storyboard Layer 0 (Background)
//Storyboard Layer 1 (Fail)
//Storyboard Layer 2 (Pass)
//Storyboard Layer 3 (Foreground)
//Storyboard Sound Samples

[TimingPoints]
-236,363.636363636364,4,1,1,60,1,0
1218,-100,4,1,1,50,0,0
4036,-100,4,1,1,5,0,0
4127,-100,4,1,1,50,0,0
6945,-100,4,1,1,5,0,0
7036,-100,4,1,1,50,0,0
9945,-100,4,1,1,40,0,0
12764,-100,4,1,1,5,0,0
12854,-100,4,1,1,40,0,0
13127,-100,4,1,1,5,0,0
13218,-100,4,1,1,40,0,0
16036,-100,4,1,1,5,0,0
16127,-100,4,1,1,40,0,0
18582,-100,4,1,1,5,0,0
18673,-100,4,1,1,40,0,0
18945,-100,4,1,1,5,0,0
19036,-100,4,1,1,40,0,0
21854,-100,4,1,1,5,0,0
21945,-100,4,1,1,40,0,0
22218,-100,4,1,1,5,0,0
22309,-100,4,1,1,40,0,0
24491,-100,4,1,1,50,0,0
24764,-100,4,1,1,5,0,0
24854,-100,4,1,1,50,0,0
27673,-100,4,1,1,5,0,0
27764,-100,4,1,1,50,0,0
28036,-100,4,1,1,5,0,0
28127,-100,4,1,1,50,0,0
30582,-100,4,1,1,5,0,0
30673,-100,4,1,1,50,0,0
30945,-100,4,1,1,5,0,0
31036,-100,4,1,1,50,0,0
33491,-100,4,1,1,5,0,0
33582,-100,4,1,1,50,0,0
33854,-100,4,1,1,5,0,0
33945,-100,4,1,1,50,0,0
36036,-100,4,1,1,5,0,0
36127,-100,4,1,1,30,0,0
36400,-100,4,1,1,5,0,0
36491,-100,4,1,1,30,0,0
59218,-100,4,1,1,50,0,0
59400,-100,4,1,1,60,0,1
81127,-100,4,1,1,5,0,1
81218,-100,4,1,1,60,0,1
81491,-100,4,1,1,5,0,1
81582,-100,4,1,1,60,0,1
82673,-100,4,1,1,40,0,0
84127,-100,4,1,1,50,0,1
87036,-100,4,1,1,30,0,0

[Colours]
Combo1 : 255,128,64
Combo2 : 17,238,55
Combo3 : 255,32,49
Combo4 : 223,32,194

[HitObjects]
312,48,491,5,8,3:1:0:0:
224,200,673,1,0,3:0:0:0:
324,20,1036,5,0,3:0:0:0:
311,232,1218,6,0,P|291:268|247:292,1,70
118,191,1582,2,0,P|157:179|205:193,1,70
313,349,1945,1,10,0:0:0:0:
293,139,2127,1,2,0:0:0:0:
154,297,2309,2,0,L|147:366,1,70,0|0,0:0|3:0,0:0:0:0:
371,171,2673,6,0,P|376:130|355:84,1,70
193,79,3037,2,0,P|218:110|267:123,1,70,0|0,0:3|0:0,0:0:0:0:
454,137,3400,1,2,0:0:0:0:
265,43,3582,1,2,0:0:0:0:
335,241,3764,2,0,L|355:362,1,105
360,371,4127,6,0,P|326:363|292:372,1,70
129,304,4491,2,0,P|162:311|196:302,1,70
362,173,4854,1,10,0:0:0:0:
268,344,5036,1,2,0:0:0:0:
156,164,5218,2,0,L|148:81,1,70,0|0,0:0|3:0,0:0:0:0:
436,124,5582,6,0,B|453:153|453:153|448:213,1,70,2|0,0:0|0:0,0:0:0:0:
439,363,5945,2,0,B|409:380|409:380|349:375,1,70,2|0,0:0|0:0,0:0:0:0:
198,363,6309,2,0,B|180:333|180:333|185:273,1,70,2|0,0:0|0:0,0:0:0:0:
198,122,6673,2,0,B|231:102|231:102|300:108,1,105,2|0,0:0|0:0,0:0:0:0:
335,110,7036,6,0,P|329:151|352:202,1,70
510,201,7400,2,0,P|485:167|430:152,1,70
249,142,7764,1,10,0:0:0:0:
439,227,7945,1,2,0:0:0:0:
341,40,8127,2,0,L|334:109,1,70
305,330,8491,6,0,B|276:348|276:348|216:343,1,70,2|4,0:0|3:0,0:0:0:0:
66,325,8854,2,0,B|48:296|48:296|53:236,1,70,2|0,0:0|0:0,0:0:0:0:
69,85,9218,2,0,B|98:67|98:67|158:72,1,70,2|0,0:0|0:0,0:0:0:0:
308,88,9582,2,0,B|320:110|320:110|317:155,1,70,2|0,0:0|0:0,0:0:0:0:
316,188,9854,1,0,0:0:0:0:
314,218,9945,6,0,P|266:207|209:222,1,105,8|0,0:0|0:0,0:0:0:0:
175,249,10309,2,0,P|174:214|158:184,1,70,0|8,0:0|0:0,0:0:0:0:
36,112,10673,1,0,0:0:0:0:
102,234,10854,1,0,0:0:0:0:
172,112,11036,1,8,0:0:0:0:
24,248,11218,2,0,P|68:304|140:304,1,140,4|0,0:0|0:0,0:0:0:0:
301,196,11764,6,0,L|310:282,1,70
487,375,12127,1,0,0:0:0:0:
412,178,12309,1,0,0:0:0:0:
312,344,12491,2,0,P|256:328|232:280,1,105
197,266,12854,6,0,L|89:256,1,105,4|0,0:0|0:0,0:0:0:0:
50,253,13218,1,8,0:0:0:0:
185,364,13400,1,0,0:0:0:0:
262,206,13582,2,0,P|266:167|251:126,1,70,4|0,3:0|0:0,0:0:0:0:
132,15,13945,1,8,0:0:0:0:
135,190,14127,1,0,0:0:0:0:
9,68,14309,6,0,P|1:102|8:136,1,70,4|0,3:0|0:0,0:0:0:0:
136,264,14673,1,8,0:0:0:0:
218,110,14854,1,0,0:0:0:0:
67,262,15036,2,0,P|101:269|135:263,1,70,4|0,3:0|0:0,0:0:0:0:
286,112,15400,2,0,P|251:104|217:110,1,70,8|0,0:0|0:0,0:0:0:0:
180,128,15673,1,8,0:0:0:0:
148,156,15764,6,0,L|28:145,1,105,4|0,3:0|0:0,0:0:0:0:
8,152,16127,2,0,P|32:224|8:288,1,140
172,356,16673,1,0,0:0:0:0:
112,192,16854,1,8,0:0:0:0:
284,224,17036,1,0,0:0:0:0:
164,100,17218,6,0,L|237:93,1,70,4|0,3:0|0:0,0:0:0:0:
408,68,17582,1,8,0:0:0:0:
353,230,17764,2,0,L|283:223,1,70,0|4,0:0|3:0,0:0:0:0:
112,192,18127,1,0,0:0:0:0:
256,92,18309,1,8,0:0:0:0:
188,252,18491,2,0,L|192:308,1,35
185,376,18673,6,0,P|238:359|289:366,1,105
330,380,19036,2,0,B|330:328|330:328|350:300|350:300|350:244,1,140,8|0,0:0|0:0,0:0:0:0:
252,100,19582,1,0,0:0:0:0:
279,273,19764,1,8,0:0:0:0:
410,158,19945,1,0,0:0:0:0:
240,204,20127,6,0,P|213:227|203:260,1,70,4|0,3:0|0:0,0:0:0:0:
340,372,20491,1,8,0:0:0:0:
324,196,20673,2,0,P|308:156|263:127,1,70,0|4,0:0|3:0,0:0:0:0:
124,200,21036,1,0,0:0:0:0:
289,281,21218,1,8,0:0:0:0:
144,380,21400,1,0,0:0:0:0:
124,200,21582,6,0,L|135:72,1,105
181,131,21945,2,0,L|199:234,1,105,8|0,0:0|0:0,0:0:0:0:
213,281,22309,1,2,0:0:0:0:
48,216,22491,1,2,0:0:0:0:
268,176,22673,1,8,0:0:0:0:
136,312,22854,2,0,P|171:354|256:354,1,140
396,264,23400,5,8,0:0:0:0:
213,281,23582,1,0,0:0:0:0:
352,176,23764,1,0,0:0:0:0:
292,340,23945,1,0,0:0:0:0:
256,168,24127,2,0,B|256:136|256:136|264:120|264:120|264:72,1,70,8|2,0:0|0:0,0:0:0:0:
265,54,24400,1,2,0:0:0:0:
226,25,24491,6,0,L|121:15,1,105,2|0,0:0|0:0,0:0:0:0:
75,11,24854,1,8,0:0:0:0:
176,156,25036,2,0,P|177:194|196:225,1,70,0|4,0:0|3:0,0:0:0:0:
332,328,25399,1,0,0:0:0:0:
368,155,25582,1,8,0:0:0:0:
218,246,25764,1,0,0:0:0:0:
392,232,25945,6,0,P|423:212|441:185,1,70,4|0,3:0|0:0,0:0:0:0:
465,8,26309,1,8,0:0:0:0:
303,74,26491,1,0,0:0:0:0:
483,123,26673,1,0,0:0:0:0:
483,123,26764,1,0,0:0:0:0:
483,123,26854,1,0,0:0:0:0:
324,196,27036,2,0,L|318:275,1,70,8|0,0:0|0:0,0:0:0:0:
180,372,27400,6,0,L|169:248,1,105
129,253,27764,2,0,L|141:127,1,105,8|0,0:0|0:0,0:0:0:0:
143,106,28127,1,0,0:0:0:0:
224,264,28309,1,0,0:0:0:0:
36,172,28491,1,8,0:0:0:0:
228,88,28673,1,0,0:0:0:0:
224,264,28854,6,0,P|240:294|268:314,1,70,4|0,3:0|0:0,0:0:0:0:
412,212,29218,1,8,0:0:0:0:
341,51,29400,1,0,0:0:0:0:
325,225,29582,1,0,0:0:0:0:
325,225,29673,1,0,0:0:0:0:
325,225,29764,1,0,0:0:0:0:
464,120,29945,2,0,L|381:127,1,70,8|0,0:0|0:0,0:0:0:0:
220,128,30309,6,0,L|101:118,1,105,2|0,0:0|0:0,0:0:0:0:
66,113,30673,2,0,P|75:163|51:199,1,70,8|0,0:0|0:0,0:0:0:0:
8,344,31036,2,0,L|81:349,1,70,4|0,3:0|0:0,0:0:0:0:
252,368,31400,1,8,0:0:0:0:
116,250,31582,1,0,0:0:0:0:
280,162,31764,6,0,P|287:128|278:94,1,70,4|0,3:0|0:0,0:0:0:0:
114,182,32127,2,0,P|107:216|116:250,1,70,8|0,0:0|0:0,0:0:0:0:
292,240,32491,2,0,L|401:228,1,105
440,222,32854,1,8,0:0:0:0:
308,80,33036,2,0,L|264:76,1,35
194,69,33218,6,0,L|82:59,1,105
43,37,33582,2,0,P|57:90|39:150,1,105,8|0,0:0|0:0,0:0:0:0:
19,176,33945,1,2,0:0:0:0:
142,299,34127,1,2,0:0:0:0:
133,124,34309,1,8,0:0:0:0:
66,286,34491,2,0,P|85:352|171:372,1,140,4|0,0:0|0:0,0:0:0:0:
320,372,35036,6,0,P|328:327|362:287,1,70,8|0,0:0|0:0,0:0:0:0:
452,168,35400,1,0,3:0:0:0:
413,134,35490,1,0,3:0:0:0:
362,138,35582,2,0,L|333:187,1,35
254,290,35764,2,0,L|243:185,1,105,8|0,0:0|0:0,0:0:0:0:
265,131,36127,6,0,P|213:147|154:137,1,105
115,116,36491,2,0,L|121:185,1,70,8|0,0:0|0:0,0:0:0:0:
136,340,36854,1,0,0:0:0:0:
272,272,37036,1,0,0:0:0:0:
124,228,37218,1,8,0:0:0:0:
220,348,37400,1,0,0:0:0:0:
364,292,37582,6,0,P|365:257|352:225,1,70
200,200,37945,2,0,L|259:263,1,70,8|0,0:0|0:0,0:0:0:0:
344,372,38309,1,0,0:0:0:0:
444,256,38491,1,0,0:0:0:0:
292,268,38673,1,8,0:0:0:0:
396,152,38854,1,0,0:0:0:0:
268,64,39036,6,0,P|240:96|232:128,1,70
222,274,39400,2,0,L|295:267,1,70,8|0,0:0|0:0,0:0:0:0:
444,256,39764,1,0,0:0:0:0:
328,356,39945,1,0,0:0:0:0:
328,200,40127,2,0,P|325:165|338:133,1,70,8|0,0:0|0:0,0:0:0:0:
456,32,40491,6,0,P|422:40|388:33,1,70,0|0,1:0|1:0,1:0:0:0:
236,24,40854,1,8,0:0:0:0:
338,133,41036,1,0,0:0:0:0:
184,160,41218,2,0,L|178:229,1,70
272,352,41582,1,8,0:0:0:0:
296,200,41764,1,0,0:0:0:0:
296,200,41854,1,0,0:0:0:0:
294,199,41945,6,0,P|327:210|362:206,1,70,4|0,0:0|0:0,0:0:0:0:
488,120,42309,1,8,0:0:0:0:
336,132,42491,1,0,0:0:0:0:
232,20,42673,2,0,L|226:91,1,70
212,244,43036,1,8,0:0:0:0:
108,128,43218,1,0,0:0:0:0:
124,280,43400,6,0,P|140:309|177:334,1,70
324,356,43764,1,8,0:0:0:0:
280,208,43945,1,0,0:0:0:0:
244,360,44127,1,0,0:0:0:0:
244,360,44218,1,0,0:0:0:0:
244,360,44309,1,0,0:0:0:0:
352,248,44491,1,8,0:0:0:0:
236,144,44673,1,0,0:0:0:0:
236,144,44764,1,0,0:0:0:0:
236,144,44854,6,0,P|211:169|202:203,1,70
308,316,45218,1,8,0:0:0:0:
336,164,45400,1,0,0:0:0:0:
232,280,45582,1,0,0:0:0:0:
232,280,45673,1,0,0:0:0:0:
232,280,45764,1,0,0:0:0:0:
124,172,45945,2,0,L|117:102,1,70,8|0,0:0|0:0,0:0:0:0:
272,84,46309,5,4,0:0:0:0:
446,54,46491,1,4,0:0:0:0:
246,90,46673,1,8,0:0:0:0:
466,200,46855,1,4,0:0:0:0:
466,200,47218,5,0,0:0:0:0:
343,75,47400,2,0,L|317:150,1,70,8|0,0:0|0:0,0:0:0:0:
303,184,47673,1,0,0:0:0:0:
303,184,47764,6,0,P|342:192|367:212,1,70,4|0,3:0|0:0,0:0:0:0:
428,352,48127,1,8,0:0:0:0:
308,256,48309,1,0,0:0:0:0:
416,144,48491,2,0,L|409:64,1,70
260,32,48854,1,8,0:0:0:0:
332,168,49036,1,0,0:0:0:0:
188,112,49218,6,0,P|163:87|131:73,1,70
116,228,49582,2,0,L|122:297,1,70,8|0,0:0|0:0,0:0:0:0:
264,356,49945,1,0,0:0:0:0:
244,204,50127,1,0,0:0:0:0:
122,297,50309,1,8,0:0:0:0:
276,280,50491,2,0,L|324:292,1,35
384,312,50673,6,0,P|382:277|395:244,1,70
492,124,51036,1,8,0:0:0:0:
348,180,51218,1,0,0:0:0:0:
400,36,51400,2,0,L|308:27,1,70
176,16,51764,1,8,0:0:0:0:
304,100,51945,1,0,0:0:0:0:
152,108,52127,6,0,P|156:164|176:188,1,70
240,308,52491,2,0,L|248:212,1,70,8|0,0:0|0:0,0:0:0:0:
304,100,52854,2,0,B|238:80|238:80|196:36,1,105
187,25,53218,1,8,0:0:0:0:
76,132,53400,1,2,0:0:0:0:
76,132,53491,1,2,0:0:0:0:
76,132,53582,6,0,P|66:165|71:199,1,70,2|0,0:0|0:0,0:0:0:0:
144,336,53945,2,0,L|236:327,1,70,8|0,0:0|0:0,0:0:0:0:
256,324,54218,1,0,0:0:0:0:
256,324,54309,1,0,0:0:0:0:
380,236,54491,1,0,0:0:0:0:
344,88,54673,6,0,P|377:79|411:85,1,70,8|0,0:0|0:0,0:0:0:0:
456,112,54945,1,0,0:0:0:0:
456,112,55036,2,0,L|465:220,1,105,0|0,0:0|0:0,0:0:0:0:
472,264,55400,1,8,0:0:0:0:
340,344,55582,1,0,0:0:0:0:
340,344,55673,1,0,0:0:0:0:
340,344,55764,2,0,L|219:354,1,105
190,350,56127,2,0,P|153:326|137:278,1,70,8|0,0:0|0:0,0:0:0:0:
52,152,56491,5,0,0:0:0:0:
83,137,56581,1,0,0:0:0:0:
116,126,56672,1,0,0:0:0:0:
152,126,56763,1,0,0:0:0:0:
186,133,56854,1,8,0:0:0:0:
215,151,56945,1,0,0:0:0:0:
237,178,57036,1,0,0:0:0:0:
255,207,57127,1,0,0:0:0:0:
282,231,57218,1,0,0:0:0:0:
314,243,57309,1,0,0:0:0:0:
349,245,57400,1,0,0:0:0:0:
383,237,57490,1,0,0:0:0:0:
415,223,57582,6,0,L|400:161,1,35,8|0,0:0|0:0,0:0:0:0:
319,122,57764,2,0,L|325:154,1,35
366,329,57945,5,8,0:0:0:0:
488,205,58127,1,8,0:0:0:0:
282,231,58309,1,4,0:0:0:0:
212,184,59218,5,0,0:0:0:0:
212,184,59309,1,0,0:0:0:0:
212,184,59400,6,0,L|200:96,1,70,4|0,0:0|0:0,0:0:0:0:
36,24,59764,2,0,L|45:93,1,70,8|0,0:0|0:0,0:0:0:0:
156,248,60127,1,0,0:0:0:0:
232,76,60309,1,0,0:0:0:0:
84,196,60491,2,0,P|69:227|69:261,1,70,8|0,0:0|0:0,0:0:0:0:
316,272,60854,6,0,P|349:281|383:275,1,70
299,78,61218,2,0,P|266:69|232:75,1,70,8|0,0:0|0:0,0:0:0:0:
400,344,61582,2,0,P|430:328|450:299,1,70
204,4,61945,2,0,P|174:20|154:49,1,70,8|0,0:0|0:0,0:0:0:0:
308,164,62309,6,0,L|315:247,1,70
168,356,62673,1,8,0:0:0:0:
352,308,62854,1,0,0:0:0:0:
200,196,63036,2,0,L|108:187,1,70
84,188,63309,1,0,0:0:0:0:
84,188,63400,2,0,P|68:157|68:122,1,70,8|0,0:0|0:0,0:0:0:0:
268,52,63764,6,0,L|185:59,1,70
156,264,64127,2,0,L|225:270,1,70,8|0,0:0|0:0,0:0:0:0:
440,36,64491,2,0,L|356:44,1,70
348,280,64854,2,0,L|418:286,1,70,8|0,0:0|0:0,0:0:0:0:
464,292,65127,1,0,0:0:0:0:
464,292,65218,6,0,P|456:328|470:362,1,70,4|0,0:0|0:0,0:0:0:0:
280,320,65582,1,8,0:0:0:0:
412,184,65764,1,0,0:0:0:0:
236,248,65945,2,0,P|212:273|199:305,1,70
195,349,66218,1,0,0:0:0:0:
195,349,66309,1,8,0:0:0:0:
376,288,66491,1,0,0:0:0:0:
468,100,66673,6,0,P|472:52|456:4,1,70
296,252,67036,2,0,P|292:300|308:348,1,70,8|0,0:0|0:0,0:0:0:0:
188,100,67400,2,0,P|192:52|176:4,1,70
32,268,67764,2,0,P|28:316|44:364,1,70,8|0,0:0|0:0,0:0:0:0:
52,372,68036,1,0,0:0:0:0:
52,372,68127,6,0,L|140:380,1,70
412,252,68491,2,0,L|343:258,1,70,8|0,0:0|0:0,0:0:0:0:
116,160,68854,2,0,L|204:168,1,70
376,76,69218,2,0,L|307:82,1,70,8|0,0:0|0:0,0:0:0:0:
264,88,69491,1,0,0:0:0:0:
264,88,69582,6,0,L|195:82,1,70
4,64,69945,1,8,0:0:0:0:
136,200,70127,1,0,0:0:0:0:
152,12,70309,1,0,0:0:0:0:
36,160,70491,1,0,0:0:0:0:
224,168,70673,1,8,0:0:0:0:
224,168,70764,1,0,0:0:0:0:
224,168,70854,1,0,0:0:0:0:
224,168,70945,1,0,0:0:0:0:
224,168,71036,6,0,P|228:220|216:256,1,70,4|0,0:0|0:0,0:0:0:0:
92,376,71400,2,0,P|135:346|172:338,1,70,8|0,0:0|0:0,0:0:0:0:
328,276,71764,1,0,0:0:0:0:
154,202,71945,1,0,0:0:0:0:
256,360,72127,2,0,L|249:280,1,70,8|0,0:0|0:0,0:0:0:0:
84,196,72491,6,0,L|154:202,1,70
316,20,72854,2,0,L|247:26,1,70,8|0,0:0|0:0,0:0:0:0:
108,272,73218,2,0,L|178:279,1,70
388,92,73582,2,0,L|318:98,1,70,8|0,0:0|0:0,0:0:0:0:
276,108,73854,1,0,0:0:0:0:
276,108,73945,6,0,P|254:132|246:180,1,70,4|0,0:0|0:0,0:0:0:0:
284,352,74309,1,8,0:0:0:0:
324,168,74491,1,0,0:0:0:0:
136,152,74673,1,0,0:0:0:0:
288,264,74854,1,0,0:0:0:0:
208,92,75036,1,8,0:0:0:0:
368,192,75218,1,0,0:0:0:0:
176,276,75400,6,0,L|176:372,1,70
292,128,75764,2,0,L|292:58,1,70,8|0,0:0|0:0,0:0:0:0:
424,280,76127,2,0,L|424:376,1,70
442,368,76400,1,0,0:0:0:0:
442,368,76491,1,8,0:0:0:0:
442,368,76582,1,0,0:0:0:0:
442,368,76673,1,0,0:0:0:0:
442,368,76764,1,0,0:0:0:0:
442,368,76854,6,0,P|402:368|362:352,1,70,4|0,0:0|0:0,0:0:0:0:
84,232,77218,2,0,P|124:232|164:248,1,70,8|0,0:0|0:0,0:0:0:0:
464,192,77582,2,0,P|424:192|384:176,1,70
112,44,77945,2,0,P|152:44|192:60,1,70,8|0,0:0|0:0,0:0:0:0:
224,76,78218,1,0,0:0:0:0:
224,76,78309,6,0,L|303:69,1,70
476,328,78673,2,0,L|406:334,1,70,8|0,0:0|0:0,0:0:0:0:
116,208,79036,2,0,L|195:201,1,70
488,112,79400,2,0,L|418:118,1,70,8|0,0:0|0:0,0:0:0:0:
376,120,79673,1,0,0:0:0:0:
376,120,79764,6,0,P|344:135|322:162,1,70
196,328,80127,2,0,P|227:312|249:285,1,70,8|0,0:0|0:0,0:0:0:0:
184,84,80491,2,0,P|171:117|175:151,1,70
332,292,80854,2,0,P|384:276|451:286,1,105,8|0,0:0|0:0,0:0:0:0:
468,280,81218,6,0,L|476:164,1,105
480,128,81582,1,8,0:0:0:0:
384,28,81764,2,0,P|336:0|253:31,1,140
236,60,82218,1,0,0:0:0:0:
236,60,82309,1,8,0:0:0:0:
184,192,82491,1,0,0:0:0:0:
132,32,82673,6,0,P|92:28|60:40,2,70,0|0|8,0:0|0:0|0:0,0:0:0:0:
48,192,83218,1,0,0:0:0:0:
132,356,83400,2,0,P|92:360|60:348,2,70,0|0|8,0:0|0:0|0:0,0:0:0:0:
88,192,83945,1,0,0:0:0:0:
256,196,84127,6,0,B|260:148|260:148|300:116|300:116|308:64,1,140,0|8,0:0|0:0,0:0:0:0:
352,212,84673,2,0,P|324:272|244:292,1,140
216,300,85127,1,0,0:0:0:0:
216,300,85218,1,8,0:0:0:0:
64,240,85400,1,0,0:0:0:0:
139,125,85582,5,0,0:0:0:0:
271,255,85764,1,0,0:0:0:0:
86,288,85945,1,8,0:0:0:0:
191,123,86127,5,2,0:0:0:0:
241,303,86309,1,0,0:0:0:0:
64,240,86490,1,0,0:0:0:0:
142,54,86673,6,0,P|185:39|235:52,1,70,8|0,0:0|0:0,0:0:0:0:
175,226,87036,5,4,0:0:0:0:
256,192,87127,12,0,88491,0:0:0:0:
