osu file format v14

[General]
AudioFilename: audio.mp3
AudioLeadIn: 0
PreviewTime: 59137
Countdown: 0
SampleSet: Soft
StackLeniency: 0.8
Mode: 0
LetterboxInBreaks: 0
WidescreenStoryboard: 0

[Editor]
Bookmarks: 75228
DistanceSpacing: 0.9
BeatDivisor: 4
GridSize: 8
TimelineZoom: 1.4

[Metadata]
Title:HARUKAZE (TV Size)
TitleUnicode:HARUKAZE (TV Size)
Artist:SCANDAL
ArtistUnicode:SCANDAL
Creator:synderes
Version:Insane
Source:BLEACH
Tags:スキャンダル ブリーチ opening 15 japanese black kowari -mikan man bazz b bazz_b fixxis black_man anime japanese rock
BeatmapID:2396251
BeatmapSetID:1147585

[Difficulty]
HPDrainRate:6
CircleSize:4
OverallDifficulty:7
ApproachRate:8.5
SliderMultiplier:1.8
SliderTickRate:1

[Events]
//Background and Video events
0,0,"Kuchiki.Rukia.full.2891817.jpg",0,0
Video,270,"BLEACH OP 15.flv"
//Break Periods
//Storyboard Layer 0 (Background)
//Storyboard Layer 1 (Fail)
//Storyboard Layer 2 (Pass)
//Storyboard Layer 3 (Foreground)
//Storyboard Layer 4 (Overlay)
//Storyboard Sound Samples

[TimingPoints]
-953,363.636363636364,4,2,1,60,1,0
1865,-100,4,1,99,60,0,0
1956,-100,4,2,1,55,0,0
6592,-100,4,1,99,55,0,0
6683,-100,4,2,1,55,0,0
7683,-100,4,2,0,55,0,0
7774,-100,4,2,1,55,0,0
9865,-100,4,1,99,55,0,0
9956,-100,4,2,1,55,0,0
11410,-100,4,2,1,60,0,0
11592,-100,4,2,1,55,0,0
11774,-100,4,2,1,60,0,0
11956,-100,4,2,1,65,0,0
12319,-100,4,2,1,55,0,0
12501,-100,4,2,1,60,0,0
12865,-100,4,2,0,60,0,0
13228,-100,4,2,1,60,0,0
13592,-117.647058823529,4,2,1,55,0,0
17047,-100,4,1,99,55,0,0
17228,-117.647058823529,4,2,1,55,0,0
24410,-100,4,1,99,55,0,0
24501,-100,4,2,1,55,0,0
24592,-100,4,1,99,55,0,0
24683,-117.647058823529,4,2,1,55,0,0
28683,-100,4,1,99,55,0,0
28865,-117.647058823529,4,2,1,55,0,0
36137,-117.647058823529,4,2,0,55,0,0
36228,-117.647058823529,4,2,1,55,0,0
36501,-117.647058823529,4,2,0,55,0,0
36865,-111.111111111111,4,2,1,55,0,0
38137,-100,4,1,99,55,0,0
38319,-111.111111111111,4,2,1,55,0,0
38865,-100,4,2,0,55,0,0
39047,-111.111111111111,4,2,1,55,0,0
41047,-100,4,1,99,55,0,0
41228,-111.111111111111,4,2,1,55,0,0
43956,-100,4,1,99,55,0,0
44137,-111.111111111111,4,2,1,55,0,0
44683,-100,4,2,0,55,0,0
44865,-111.111111111111,4,2,1,55,0,0
47047,-100,4,2,1,65,0,0
47592,-100,4,2,1,60,0,0
47956,-100,4,2,1,70,0,0
48501,-100,4,2,1,65,0,0
50592,-100,4,1,99,65,0,0
50683,-100,4,2,1,65,0,0
51319,-100,4,1,99,65,0,0
51410,-100,4,2,1,65,0,0
52683,-100,4,1,99,65,0,0
52865,-100,4,2,1,65,0,0
55683,-100,4,2,0,65,0,0
55774,-100,4,2,1,65,0,0
57228,-100,4,2,0,30,0,0
57592,-100,4,2,1,65,0,0
57683,-100,4,1,99,65,0,0
57774,-100,4,2,1,65,0,0
57865,-100,4,1,99,65,0,0
58319,-100,4,2,1,65,0,0
58683,-100,4,2,1,70,0,0
58865,-100,4,2,1,60,0,0
59047,-100,4,2,1,70,0,0
59228,-100,4,2,1,30,0,0
59956,-100,4,2,1,50,0,0
60137,-100,4,2,1,70,0,1
66592,-100,4,1,99,70,0,1
66683,-100,4,2,1,70,0,1
77410,-100,4,1,99,70,0,1
77592,-100,4,2,1,70,0,1
78228,-100,4,1,99,70,0,1
78319,-100,4,2,1,70,0,1
79956,-100,4,1,99,70,0,1
80137,-100,4,2,1,70,0,1
80410,-100,4,1,99,70,0,1
80501,-100,4,2,1,70,0,1
81774,-100,4,1,99,70,0,1
81956,-100,4,2,1,70,0,1
83228,-100,4,2,0,70,0,1
83410,-100,4,2,1,65,0,0
84774,-100,4,1,99,65,0,0
84865,-100,4,2,1,65,0,0
86319,-100,4,2,1,75,0,0
89228,-100,4,2,1,5,0,0

[Colours]
Combo1 : 39,165,233
Combo2 : 143,222,252

[HitObjects]
117,174,1228,5,8,0:0:0:0:
117,174,1410,1,0,1:0:0:0:
395,210,1774,1,0,1:0:0:0:
395,210,1865,1,0,0:0:0:0:
395,210,1956,2,0,B|419:257|395:308|395:308,1,90,6|0,0:1|0:0,0:0:0:0:
149,332,2319,2,0,B|125:285|149:234|149:234,1,90,2|0,1:0|0:0,0:0:0:0:
145,244,2683,2,0,L|350:265,1,180,8|2,0:0|0:0,0:0:0:0:
119,132,3228,2,0,L|29:123,1,90,0|0,1:0|3:0,0:0:0:0:
259,93,3592,5,10,0:1:0:0:
259,93,3683,1,0,0:0:0:0:
259,93,3774,2,0,B|277:45|259:-6|259:-6,1,90,0|2,0:0|1:0,0:0:0:0:
98,5,4137,2,0,B|64:94|98:189|98:189,1,180,10|2,0:1|0:1,0:0:0:0:
162,238,4683,1,0,1:0:0:0:
93,288,4865,6,0,B|68:323|56:384|56:384,1,90,4|0,1:0|0:0,0:0:0:0:
292,336,5228,2,0,B|274:296|227:255|227:255,1,90,0|0,1:0|0:0,0:0:0:0:
216,170,5592,2,0,B|311:215|415:155|415:155,1,180,10|2,0:1|0:0,0:0:0:0:
340,100,6137,1,2,1:0:0:0:
340,100,6319,6,0,L|353:-6,1,90,0|10,0:0|0:1,0:0:0:0:
329,255,6683,2,0,L|318:344,1,90,0|2,0:0|1:0,0:0:0:0:
422,265,7047,2,0,B|468:277|523:265|523:265,1,90,10|0,0:1|0:0,0:0:0:0:
259,185,7410,2,0,B|213:173|158:185|158:185,1,90,2|0,0:1|1:0,0:0:0:0:
169,182,7683,1,8,0:3:0:0:
169,182,7774,6,0,B|191:90|169:-32|169:-32,1,180,4|0,0:0|1:0,0:0:0:0:
177,284,8501,2,0,B|182:331|156:389|156:389,1,90,8|0,0:0|1:0,0:0:0:0:
8,257,8865,2,0,B|3:210|29:152|29:152,1,90,2|2,0:0|1:0,0:0:0:0:
97,252,9228,1,0,0:0:0:0:
239,213,9410,1,8,0:1:0:0:
239,213,9592,2,0,B|266:164|236:106|236:106,1,90,2|0,0:1|1:0,0:0:0:0:
105,42,9956,2,0,B|78:91|108:149|108:149,1,90,10|0,0:1|0:0,0:0:0:0:
319,46,10319,2,0,L|451:69,1,90,2|0,0:1|3:0,0:0:0:0:
408,62,10592,1,8,0:0:0:0:
408,62,10683,6,0,B|440:155|407:245|407:245,1,180,4|0,1:0|1:0,0:0:0:0:
408,239,11228,1,0,0:0:0:0:
369,369,11410,1,8,0:0:0:0:
239,330,11592,1,0,1:0:0:0:
278,200,11774,1,8,0:0:0:0:
188,235,11956,6,0,B|156:142|189:52|189:52,1,180,4|0,1:0|1:0,0:0:0:0:
20,88,12501,2,0,B|25:140|16:187|16:187,1,90,12|0,0:0|0:0,0:0:0:0:
10,300,12865,1,8,0:3:0:0:
113,383,13047,1,8,0:3:0:0:
106,348,13137,1,8,0:3:0:0:
99,313,13228,2,0,B|94:261|103:214|103:214,1,90,4|0,0:0|0:0,0:0:0:0:
159,46,13592,6,0,B|164:98|155:145|155:145,1,76.5000014591217,4|0,0:0|0:0,0:0:0:0:
231,162,13956,1,8,0:0:0:0:
319,90,14137,2,0,B|407:125|495:79|495:79,1,153.000002918243,0|0,0:0|1:0,0:0:0:0:
475,176,14683,1,8,0:0:0:0:
481,260,14865,1,0,1:0:0:0:
307,244,15047,6,0,L|420:252,1,76.5000014591217,2|0,0:0|0:0,0:0:0:0:
279,320,15410,2,0,L|189:313,1,76.5000014591217,10|0,0:0|0:0,0:0:0:0:
129,253,15774,1,2,1:2:0:0:
129,253,15956,1,0,1:0:0:0:
205,181,16137,1,8,0:0:0:0:
105,151,16319,1,0,0:0:0:0:
186,78,16501,6,0,B|265:97|347:51|347:51,1,153.000002918243,0|8,1:0|0:0,0:0:0:0:
334,57,17228,1,0,1:0:0:0:
416,40,17410,1,0,1:0:0:0:
432,122,17592,1,8,0:0:0:0:
377,225,17774,6,0,B|371:274|379:335|379:335,1,76.5000014591217,0|0,1:0|0:0,0:0:0:0:
306,347,18137,1,0,1:0:0:0:
229,351,18319,1,8,0:0:0:0:
231,237,18501,1,2,0:0:0:0:
231,237,18592,1,0,0:0:0:0:
231,237,18683,2,0,B|182:243|121:235|121:235,1,76.5000014591217,0|0,1:0|1:0,0:0:0:0:
80,204,19047,1,8,0:0:0:0:
83,341,19228,1,2,0:3:0:0:
20,275,19410,5,0,1:0:0:0:
160,107,19774,1,8,0:0:0:0:
160,107,20137,1,0,1:0:0:0:
105,30,20319,1,0,1:0:0:0:
67,115,20501,1,8,0:0:0:0:
108,219,20683,6,0,B|96:279|96:279|70:305|70:305|51:391,1,153.000002918243,0|0,1:0|1:0,0:0:0:0:
195,292,21228,2,0,B|231:283|231:283|283:300,1,76.5000014591217,8|0,0:0|0:0,0:0:0:0:
332,355,21592,1,0,0:0:0:0:
269,296,21774,1,0,1:0:0:0:
250,381,21956,1,8,0:0:0:0:
367,256,22137,2,0,B|381:202|363:98|363:98,1,153.000002918243,2|0,0:3|0:0,0:0:0:0:
231,47,22683,2,0,B|280:36|330:44|330:44,1,76.5000014591217,8|0,0:0|0:0,0:0:0:0:
83,141,23047,1,0,1:0:0:0:
96,47,23229,1,0,1:0:0:0:
170,107,23410,1,8,0:0:0:0:
155,199,23592,6,0,B|144:248|152:298|152:298,1,76.5000014591217,0|0,1:0|0:0,0:0:0:0:
102,343,23956,1,0,1:0:0:0:
244,368,24137,2,0,B|255:319|247:269|247:269,1,76.5000014591217,8|0,0:0|1:0,0:0:0:0:
249,291,24410,1,0,0:0:0:0:
249,291,24501,1,2,0:0:0:0:
340,226,24683,1,0,0:0:0:0:
498,212,24865,2,0,L|422:217,1,76.5000014591217,8|8,0:0|0:0,0:0:0:0:
412,182,25137,1,8,0:0:0:0:
406,146,25228,6,0,L|229:156,1,153.000002918243,4|8,0:0|0:0,0:0:0:0:
145,161,25774,1,0,0:0:0:0:
154,251,25956,2,0,B|167:296|152:350|152:350,1,76.5000014591217,0|0,1:0|1:0,0:0:0:0:
64,176,26319,2,0,B|51:131|66:77|66:77,1,76.5000014591217,8|0,0:0|1:0,0:0:0:0:
214,27,26683,2,0,B|231:90|210:166|210:166,1,114.750002188683,2|0,0:0|0:0,0:0:0:0:
215,140,27047,2,0,L|313:148,1,76.5000014591217,10|0,0:0|0:0,0:0:0:0:
355,218,27410,1,2,1:2:0:0:
440,227,27592,1,0,1:0:0:0:
452,96,27774,1,8,0:0:0:0:
367,87,27956,1,0,0:0:0:0:
247,144,28137,6,0,B|167:162|70:144|70:144,1,153.000002918243,0|8,1:0|0:0,0:0:0:0:
94,147,28865,1,0,1:0:0:0:
110,68,29047,1,0,1:0:0:0:
33,93,29228,1,8,0:0:0:0:
189,41,29410,6,0,B|225:31|271:41|271:41,1,76.5000014591217,0|0,1:0|0:0,0:0:0:0:
307,110,29774,1,0,1:0:0:0:
341,27,29956,1,8,0:0:0:0:
394,102,30137,2,0,B|398:200|445:281|445:281,1,153.000002918243,0|0,3:0|1:0,0:0:0:0:
220,246,30683,2,0,B|258:204|271:152|271:152,1,76.5000014591217,8|2,0:0|0:3,0:0:0:0:
189,99,31047,6,0,B|107:92|4:115|4:115,1,153.000002918243,0|8,1:0|0:0,0:0:0:0:
20,190,31592,1,0,0:0:0:0:
23,268,31774,2,0,B|32:309|26:377|26:377,1,76.5000014591217,0|0,1:0|1:0,0:0:0:0:
130,377,32137,1,8,0:0:0:0:
157,279,32319,1,0,1:0:0:0:
228,342,32501,2,0,B|315:360|390:288|390:288,1,153.000002918243,0|8,0:0|0:0,0:0:0:0:
442,218,33047,2,0,B|449:168|422:119|422:119,1,76.5000014591217
432,142,33410,1,0,1:0:0:0:
272,40,33592,2,0,B|265:90|292:139|292:139,1,76.5000014591217,8|2,0:0|0:3,0:0:0:0:
282,116,33865,1,0,0:0:0:0:
282,116,33956,5,0,1:0:0:0:
87,151,34319,1,8,0:0:0:0:
87,151,34683,1,0,1:0:0:0:
125,47,34865,1,0,1:0:0:0:
21,9,35047,1,8,0:0:0:0:
22,245,35228,6,0,B|99:216|195:247|195:247,1,153.000002918243,4|0,1:0|1:0,0:0:0:0:
390,284,35774,2,0,B|346:299|294:282|294:282,1,76.5000014591217,12|0,0:0|0:0,0:0:0:0:
306,180,36137,1,8,0:3:0:0:
306,180,36228,1,8,0:0:0:0:
306,180,36319,1,0,1:0:0:0:
292,91,36501,2,0,B|338:75|392:93|392:93,1,76.5000014591217,8|0,0:3|0:0,0:0:0:0:
141,97,36865,6,0,B|88:116|24:95|24:95,1,80.9999975280763,4|0,0:0|0:0,0:0:0:0:
158,179,37228,1,8,0:0:0:0:
102,251,37410,1,2,0:0:0:0:
6,211,37592,2,0,B|16:267|4:369|4:369,1,121.499996292114,0|0,1:0|0:0,0:0:0:0:
8,333,37956,1,8,0:0:0:0:
101,370,38137,1,0,0:0:0:0:
101,370,38228,1,0,0:0:0:0:
101,370,38319,2,0,B|143:361|143:361|211:380,1,80.9999975280763,0|0,1:0|0:0,0:0:0:0:
411,370,38683,2,0,B|374:382|374:382|324:372,1,80.9999975280763,8|2,0:0|0:0,0:0:0:0:
316,272,39047,2,0,L|496:260,1,161.999995056153,0|8,1:0|0:0,0:0:0:0:
467,187,39592,1,2,0:0:0:0:
263,180,39774,6,0,L|83:168,1,161.999995056153,0|8,1:0|0:0,0:0:0:0:
264,99,40319,1,2,0:0:0:0:
258,256,40501,2,0,B|265:305|247:371|247:371,1,80.9999975280763,0|0,1:0|0:0,0:0:0:0:
147,304,40865,1,8,0:0:0:0:
36,351,41047,1,0,0:0:0:0:
36,351,41137,1,0,0:0:0:0:
35,351,41228,6,0,B|28:304|45:242|45:242,1,80.9999975280763,0|0,1:0|0:0,0:0:0:0:
111,135,41592,2,0,B|118:181|101:244|101:244,1,80.9999975280763,8|2,0:0|0:0,0:0:0:0:
20,132,41956,1,0,1:0:0:0:
22,48,42137,1,0,1:0:0:0:
20,132,42319,1,8,0:0:0:0:
18,216,42501,1,0,3:0:0:0:
185,212,42683,6,0,B|220:203|277:218|277:218,1,80.9999975280763,4|0,0:0|0:0,0:0:0:0:
464,226,43047,2,0,B|421:235|353:217|353:217,1,80.9999975280763,8|2,0:0|0:0,0:0:0:0:
343,150,43410,2,0,L|354:4,1,121.499996292114,0|0,1:0|0:0,0:0:0:0:
352,28,43774,2,0,L|262:21,1,80.9999975280763,8|0,0:0|0:0,0:0:0:0:
179,80,44137,5,0,1:0:0:0:
258,153,44319,1,0,1:0:0:0:
155,184,44501,2,0,B|62:177|-12:278|-12:278,1,161.999995056153,8|0,0:0|1:0,0:0:0:0:
66,379,45047,1,0,1:0:0:0:
201,354,45228,2,0,B|209:309|182:258|182:258,1,80.9999975280763,8|0,0:0|1:0,0:0:0:0:
190,275,45501,1,0,1:0:0:0:
190,275,45592,6,0,B|237:270|294:292|294:292,1,80.9999975280763,0|0,1:0|0:0,0:0:0:0:
203,101,45956,2,0,B|183:144|136:182|136:182,1,80.9999975280763,8|2,0:0|0:0,0:0:0:0:
347,199,46319,2,0,B|319:160|310:100|310:100,1,80.9999975280763,0|0,1:0|0:0,0:0:0:0:
175,354,46683,2,0,B|222:349|279:371|279:371,1,80.9999975280763,8|0,0:0|0:0,0:0:0:0:
473,371,47047,5,12,0:0:0:0:
512,256,47228,1,8,1:3:0:0:
473,141,47410,1,8,1:0:0:0:
512,26,47592,1,12,0:0:0:0:
512,26,47956,5,8,1:0:0:0:
473,141,48138,1,12,0:0:0:0:
512,256,48320,1,8,0:0:0:0:
473,371,48501,6,0,B|426:363|357:387|357:387,1,90,4|0,1:0|0:0,0:0:0:0:
262,384,48865,2,0,B|234:296|262:190|262:190,1,180,8|0,0:0|1:0,0:0:0:0:
154,186,49410,1,0,1:0:0:0:
355,216,49592,2,0,B|402:224|471:200|471:200,1,90,8|0,0:0|0:0,0:0:0:0:
208,300,49956,2,0,B|161:292|92:316|92:316,1,90,0|2,1:0|1:2,0:0:0:0:
0,384,50319,2,0,L|37:174,1,180,8|0,0:0|1:0,0:0:0:0:
62,109,50865,1,2,1:2:0:0:
173,186,51047,1,8,0:0:0:0:
226,129,51228,1,0,1:0:0:0:
226,129,51319,1,0,0:0:0:0:
226,129,51410,6,0,L|203:2,1,90,0|0,1:0|0:0,0:0:0:0:
286,255,51774,2,0,L|308:381,1,90,8|0,0:0|0:0,0:0:0:0:
368,384,52137,2,0,B|485:384|510:271|510:271,1,180,0|8,1:0|0:0,0:0:0:0:
476,209,52683,1,0,0:0:0:0:
278,181,52865,2,0,L|392:194,1,90,0|0,1:0|0:0,0:0:0:0:
272,47,53228,2,0,B|155:47|130:160|130:160,1,180,8|2,0:0|1:2,0:0:0:0:
162,322,53774,1,0,1:0:0:0:
162,322,53865,1,2,0:0:0:0:
162,322,53956,2,0,B|170:275|146:206|146:206,1,90,8|2,0:0|0:0,0:0:0:0:
0,37,54319,6,0,B|-13:117|27:236|27:236,1,180,4|8,0:0|0:0,0:0:0:0:
20,214,55047,1,0,1:0:0:0:
50,302,55228,1,0,1:0:0:0:
115,198,55410,1,8,0:0:0:0:
11,133,55592,1,0,0:0:0:0:
226,7,55774,6,0,B|203:117|83:117|83:117,1,180,0|8,1:0|0:0,0:0:0:0:
416,205,56319,2,0,B|332:130|392:26|392:26,1,180,0|2,0:0|0:0,0:0:0:0:
247,204,56865,2,0,L|264:327,1,90,4|0,0:0|0:0,0:0:0:0:
329,360,57228,5,8,0:3:0:0:
329,360,57319,1,8,0:3:0:0:
329,360,57410,2,0,L|373:353,1,45,8|8,0:3|0:3,0:0:0:0:
458,308,57592,5,8,0:0:0:0:
477,277,57683,1,0,0:0:0:0:
473,241,57774,1,0,1:0:0:0:
450,212,57865,1,0,0:0:0:0:
422,189,57956,1,0,0:0:0:0:
402,158,58047,1,0,0:0:0:0:
397,122,58137,1,0,0:0:0:0:
405,87,58228,1,0,0:0:0:0:
439,77,58319,5,8,0:0:0:0:
415,49,58410,1,8,0:0:0:0:
379,46,58501,1,8,0:0:0:0:
347,63,58592,1,8,0:0:0:0:
335,97,58683,5,14,0:1:0:0:
189,134,58865,1,2,1:1:0:0:
43,171,59047,1,10,0:1:0:0:
43,171,59956,5,8,0:0:0:0:
43,171,60047,1,8,0:0:0:0:
43,171,60137,2,0,B|-4:247|12:356|12:356,1,180,12|8,0:3|0:0,0:0:0:0:
132,362,60683,1,2,0:1:0:0:
149,196,60865,2,0,B|199:209|261:200|261:200,1,90,0|2,1:0|0:1,0:0:0:0:
453,220,61228,2,0,B|403:207|341:216|341:216,1,90,10|2,0:1|0:1,0:0:0:0:
295,294,61592,6,0,L|303:403,1,90,2|0,1:0|0:0,0:0:0:0:
284,134,61956,2,0,L|274:0,1,135,8|0,0:0|0:0,0:0:0:0:
273,0,62319,2,0,L|389:15,1,90,0|2,1:0|0:1,0:0:0:0:
66,105,62683,2,0,L|182:120,1,90,8|2,0:0|0:1,0:0:0:0:
295,229,63047,5,0,1:0:0:0:
385,240,63228,1,0,0:0:0:0:
396,150,63410,1,10,0:1:0:0:
306,139,63592,1,2,0:0:0:0:
306,139,63683,1,2,0:0:0:0:
306,139,63774,2,0,B|293:89|311:27|311:27,1,90,0|2,1:0|0:1,0:0:0:0:
425,7,64137,5,8,0:0:0:0:
507,104,64319,1,2,0:1:0:0:
463,223,64501,2,0,B|476:273|458:335|458:335,1,90,2|0,1:0|0:0,0:0:0:0:
254,382,64865,2,0,B|241:332|259:270|259:270,1,90,10|2,0:1|0:1,0:0:0:0:
39,276,65228,2,0,L|136:284,1,90,0|2,1:0|0:1,0:0:0:0:
140,105,65592,2,0,L|50:97,1,90,10|2,0:1|0:1,0:0:0:0:
275,0,65956,6,0,B|307:104|274:193|274:193,1,180,6|10,1:0|0:1,0:0:0:0:
434,187,66501,1,2,0:1:0:0:
202,48,66683,2,0,B|206:99|196:157|196:157,1,90,0|2,1:0|0:1,0:0:0:0:
233,364,67047,2,0,B|229:313|239:255|239:255,1,90,10|2,0:1|0:1,0:0:0:0:
333,326,67410,2,0,L|436:338,1,90,2|0,1:0|0:0,0:0:0:0:
127,295,67774,2,0,L|24:283,1,90,10|0,0:1|0:0,0:0:0:0:
51,198,68137,1,2,1:0:0:0:
51,198,68501,1,12,0:0:0:0:
211,223,68683,1,0,1:0:0:0:
211,223,68774,1,8,0:0:0:0:
210,222,68865,6,0,L|299:232,1,90,4|0,1:0|0:0,0:0:0:0:
412,377,69228,2,0,B|434:330|433:262|433:262,1,90,10|2,0:1|0:0,0:0:0:0:
291,41,69592,2,0,B|269:88|270:156|270:156,1,90,2|2,1:0|0:0,0:0:0:0:
128,231,69956,2,0,L|38:241,1,90,10|2,0:1|0:0,0:0:0:0:
216,384,70319,2,0,L|226:294,1,90,2|2,1:0|0:0,0:0:0:0:
72,153,70683,1,14,0:1:0:0:
182,134,70865,2,0,L|166:-9,1,135,2|0,0:1|0:0,0:0:0:0:
167,0,71228,1,10,0:1:0:0:
347,87,71410,5,10,0:1:0:0:
343,122,71501,1,8,0:0:0:0:
339,157,71592,1,8,0:0:0:0:
335,192,71683,1,8,0:0:0:0:
331,227,71774,1,12,0:3:0:0:
512,354,72137,2,0,B|460:342|392:354|392:354,1,90,8|2,0:0|0:1,0:0:0:0:
127,349,72501,2,0,B|222:384|309:342|309:342,1,180,0|10,1:0|0:1,0:0:0:0:
359,276,73047,1,2,0:1:0:0:
211,173,73228,6,0,B|184:228|216:292|216:292,1,90,2|0,1:0|0:0,0:0:0:0:
423,322,73592,2,0,B|450:267|418:203|418:203,1,90,8|2,0:0|0:1,0:0:0:0:
211,173,73956,2,0,L|98:183,1,90,0|2,1:0|0:1,0:0:0:0:
423,322,74319,2,0,L|536:332,1,90,8|10,0:0|0:1,0:0:0:0:
218,370,74683,6,0,B|128:347|20:381|20:381,1,180,4|10,1:0|0:1,0:0:0:0:
333,325,75228,1,2,0:0:0:0:
333,325,75319,1,2,0:0:0:0:
333,325,75410,2,0,B|377:336|430:319|430:319,1,90,0|2,1:0|0:1,0:0:0:0:
495,263,75774,1,8,0:0:0:0:
490,143,75956,1,2,0:1:0:0:
312,164,76137,6,0,B|268:153|215:170|215:170,1,90,2|0,1:0|0:0,0:0:0:0:
0,285,76501,2,0,B|44:296|97:279|97:279,1,90,10|0,0:1|0:0,0:0:0:0:
233,369,76865,2,0,B|244:325|227:272|227:272,1,90,0|2,1:0|0:1,0:0:0:0:
112,57,77229,2,0,B|101:101|118:154|118:154,1,90,10|2,0:1|0:1,0:0:0:0:
312,164,77592,6,0,B|418:156|509:182|509:182,1,180,6|10,1:0|0:1,0:0:0:0:
490,256,78137,1,2,0:1:0:0:
214,263,78319,2,0,B|108:255|17:281|17:281,1,180,0|10,1:0|0:1,0:0:0:0:
297,291,78865,1,2,0:1:0:0:
388,295,79047,2,0,L|380:401,1,90,2|0,1:0|0:0,0:0:0:0:
206,134,79410,2,0,L|214:28,1,90,10|2,0:1|0:1,0:0:0:0:
400,166,79774,1,2,1:0:0:0:
335,215,79956,1,2,0:0:0:0:
335,215,80047,1,2,0:0:0:0:
335,215,80137,2,0,L|245:208,1,90,12|2,0:0|0:0,0:0:0:0:
90,215,80501,6,0,L|0:222,1,90,4|0,1:2|0:0,0:0:0:0:
281,57,80865,2,0,L|191:64,1,90,10|2,0:1|0:0,0:0:0:0:
426,172,81228,2,0,B|471:161|471:161|512:174,1,90,2|2,1:1|0:0,0:0:0:0:
336,345,81592,2,0,B|291:334|291:334|249:347,1,90,10|2,0:1|1:2,0:0:0:0:
165,294,81956,6,0,B|49:295|33:172|33:172,1,180,6|10,1:1|0:1,0:0:0:0:
153,0,82501,2,0,B|37:-1|21:122|21:122,1,180,4|8,1:0|3:0,0:0:0:0:
167,142,83047,1,8,0:0:0:0:
253,87,83228,1,8,0:3:0:0:
385,145,83410,6,0,L|499:159,1,90,4|0,1:0|0:0,0:0:0:0:
470,235,83774,1,0,1:0:0:0:
273,259,83956,2,0,L|71:283,1,180,8|0,0:0|1:0,0:0:0:0:
25,225,84501,2,0,B|25:173|67:128|67:128,1,90,8|0,0:0|0:0,0:0:0:0:
233,13,84865,6,0,B|233:65|191:110|191:110,1,90,4|0,1:0|0:0,0:0:0:0:
142,143,85228,1,0,1:0:0:0:
207,194,85410,2,0,B|268:267|272:360|272:360,1,180,8|0,0:0|1:0,0:0:0:0:
24,326,85956,2,0,B|24:274|66:229|66:229,1,90,8|0,0:0|0:0,0:0:0:0:
142,143,86319,5,12,1:0:0:0:
121,36,86501,1,0,3:0:0:0:
321,5,86683,1,0,1:0:0:0:
342,112,86865,2,0,L|332:239,1,90,12|0,1:0|3:0,0:0:0:0:
479,218,87228,1,0,1:0:0:0:
231,277,87410,2,0,L|241:404,1,90,12|0,1:0|0:0,0:0:0:0:
238,366,87683,1,0,0:0:0:0:
238,366,87774,1,12,1:0:0:0:
256,192,87865,12,0,89228,0:0:0:0:
