osu file format v14

[General]
AudioFilename: audio.mp3
AudioLeadIn: 0
PreviewTime: 59137
Countdown: 0
SampleSet: Soft
StackLeniency: 0.8
Mode: 0
LetterboxInBreaks: 0
WidescreenStoryboard: 1

[Editor]
Bookmarks: 3047
DistanceSpacing: 0.3
BeatDivisor: 4
GridSize: 8
TimelineZoom: 2.1

[Metadata]
Title:HARUKAZE (TV Size)
TitleUnicode:HARUKAZE (TV Size)
Artist:SCANDAL
ArtistUnicode:SCANDAL
Creator:synderes
Version:Expert
Source:BLEACH
Tags:スキャンダル ブリーチ opening 15 japanese black kowari -mikan man bazz b bazz_b fixxis black_man anime japanese rock
BeatmapID:2396518
BeatmapSetID:1147585

[Difficulty]
HPDrainRate:6
CircleSize:4
OverallDifficulty:8
ApproachRate:8.7
SliderMultiplier:2
SliderTickRate:1

[Events]
//Background and Video events
0,0,"Kuchiki.Rukia.full.2891817.jpg",0,0
Video,270,"BLEACH OP 15.flv"
//Break Periods
//Storyboard Layer 0 (Background)
//Storyboard Layer 1 (Fail)
//Storyboard Layer 2 (Pass)
//Storyboard Layer 3 (Foreground)
//Storyboard Layer 4 (Overlay)
//Storyboard Sound Samples

[TimingPoints]
-953,363.636363636364,4,2,1,60,1,0
1592,-200,4,2,1,60,0,0
1865,-200,4,1,99,60,0,0
1956,-200,4,2,1,55,0,0
3228,-125,4,2,1,55,0,0
6592,-200,4,1,99,55,0,0
6683,-125,4,2,1,55,0,0
7410,-250,4,2,1,55,0,0
7683,-250,4,2,0,55,0,0
7774,-125,4,2,1,55,0,0
9865,-200,4,1,99,55,0,0
9956,-125,4,2,1,55,0,0
11410,-125,4,2,1,60,0,0
11592,-125,4,2,1,55,0,0
11774,-125,4,2,1,60,0,0
11956,-125,4,2,1,65,0,0
12319,-125,4,2,1,55,0,0
12501,-125,4,2,1,60,0,0
12865,-125,4,2,0,60,0,0
13228,-125,4,2,1,60,0,0
13592,-133.333333333333,4,2,1,55,0,0
17047,-133.333333333333,4,1,99,55,0,0
17228,-133.333333333333,4,2,1,55,0,0
24410,-133.333333333333,4,1,99,55,0,0
24501,-133.333333333333,4,2,1,55,0,0
24592,-133.333333333333,4,1,99,55,0,0
24683,-133.333333333333,4,2,1,55,0,0
28683,-133.333333333333,4,1,99,55,0,0
28865,-133.333333333333,4,2,1,55,0,0
36137,-133.333333333333,4,2,0,55,0,0
36228,-133.333333333333,4,2,1,55,0,0
36501,-400,4,2,0,55,0,0
36865,-125,4,2,1,55,0,0
38137,-125,4,1,99,55,0,0
38319,-125,4,2,1,55,0,0
38865,-125,4,2,0,55,0,0
39047,-125,4,2,1,55,0,0
41047,-125,4,1,99,55,0,0
41228,-125,4,2,1,55,0,0
43956,-125,4,1,99,55,0,0
44137,-125,4,2,1,55,0,0
44683,-125,4,2,0,55,0,0
44865,-125,4,2,1,55,0,0
47047,-125,4,2,1,65,0,0
47592,-125,4,2,1,60,0,0
47956,-125,4,2,1,70,0,0
48501,-117.647058823529,4,2,1,65,0,0
50592,-117.647058823529,4,1,99,65,0,0
50683,-117.647058823529,4,2,1,65,0,0
52683,-117.647058823529,4,1,99,65,0,0
52865,-117.647058823529,4,2,1,65,0,0
55683,-117.647058823529,4,2,0,65,0,0
55774,-117.647058823529,4,2,1,65,0,0
56865,-400,4,2,1,65,0,0
57228,-100,4,2,0,30,0,0
57592,-100,4,2,1,65,0,0
57683,-100,4,1,99,65,0,0
57774,-100,4,2,1,65,0,0
57865,-100,4,1,99,65,0,0
58319,-100,4,2,1,65,0,0
58683,-100,4,2,1,70,0,0
58865,-100,4,2,1,60,0,0
59047,-100,4,2,1,70,0,0
59228,-100,4,2,1,30,0,0
59956,-100,4,2,1,50,0,0
60137,-100,4,2,1,70,0,1
66592,-100,4,1,99,70,0,1
66683,-100,4,2,1,70,0,1
77410,-100,4,1,99,70,0,1
77592,-100,4,2,1,70,0,1
78228,-100,4,1,99,70,0,1
78319,-100,4,2,1,70,0,1
79956,-100,4,1,99,70,0,1
80137,-100,4,2,1,70,0,1
80410,-100,4,1,99,70,0,1
80501,-100,4,2,1,70,0,1
81774,-100,4,1,99,70,0,1
81956,-100,4,2,1,70,0,1
83228,-100,4,2,0,70,0,1
83410,-133.333333333333,4,2,1,65,0,0
84774,-133.333333333333,4,1,99,65,0,0
84865,-133.333333333333,4,2,1,65,0,0
86319,-133.333333333333,4,2,1,75,0,0
89228,-133.333333333333,4,2,1,5,0,0

[Colours]
Combo1 : 39,165,233
Combo2 : 143,222,252

[HitObjects]
102,164,1228,5,8,0:0:0:0:
410,220,1410,1,0,1:0:0:0:
410,220,1774,5,0,1:0:0:0:
410,220,1865,1,0,0:0:0:0:
410,220,1956,2,0,L|297:234,1,100,6|2,0:1|1:0,0:0:0:0:
310,232,2501,1,0,0:0:0:0:
490,381,2683,5,8,0:0:0:0:
511,289,2865,1,0,1:0:0:0:
420,267,3047,1,2,0:0:0:0:
406,67,3228,6,0,P|405:106|410:169,1,80,0|0,1:0|3:0,0:0:0:0:
475,196,3592,5,10,0:1:0:0:
322,140,3774,1,0,0:0:0:0:
490,113,3956,5,2,1:0:0:0:
316,234,4137,2,0,P|253:221|208:135,1,160,10|2,0:1|0:1,0:0:0:0:
232,69,4683,1,0,1:0:0:0:
28,46,4865,5,4,1:0:0:0:
150,14,5047,1,0,0:0:0:0:
51,55,5228,1,0,1:0:0:0:
120,89,5410,1,0,0:0:0:0:
47,284,5592,6,0,L|61:184,1,80,10|0,0:1|1:0,0:0:0:0:
36,364,5956,1,2,0:0:0:0:
269,145,6137,2,0,P|247:203|131:222,1,160,2|10,1:0|0:1,0:0:0:0:
150,229,6592,1,0,0:0:0:0:
142,225,6683,1,0,0:0:0:0:
253,326,6865,1,2,1:0:0:0:
141,333,7047,5,10,0:1:0:0:
267,244,7228,1,0,0:0:0:0:
417,321,7410,6,0,L|421:373,1,40,2|0,0:1|1:0,0:0:0:0:
427,371,7683,1,8,0:3:0:0:
434,382,7774,6,0,L|421:222,1,160,4|0,0:0|1:0,0:0:0:0:
417,144,8319,1,0,0:0:0:0:
331,10,8501,2,0,B|371:21|371:21|409:15,1,80,8|0,0:0|1:0,0:0:0:0:
466,66,8865,1,2,0:0:0:0:
248,61,9047,2,0,P|200:72|155:171,1,160,2|8,1:0|0:1,0:0:0:0:
60,229,9592,1,2,0:1:0:0:
70,313,9774,5,0,1:0:0:0:
70,313,9865,1,0,0:0:0:0:
70,313,9956,2,0,P|134:311|213:313,1,120,10|0,0:1|0:0,0:0:0:0:
219,315,10319,1,2,0:1:0:0:
361,306,10501,5,0,3:0:0:0:
361,306,10592,1,8,0:0:0:0:
361,306,10683,2,0,B|437:340|437:340|513:306,1,160,4|0,1:0|1:0,0:0:0:0:
454,256,11228,1,0,0:0:0:0:
503,100,11410,5,8,0:0:0:0:
350,51,11592,1,0,1:0:0:0:
497,80,11774,1,8,0:0:0:0:
235,177,11956,6,0,L|250:0,1,160,4|0,1:0|1:0,0:0:0:0:
248,17,12410,1,0,1:0:0:0:
248,17,12501,2,0,L|149:31,1,80,12|0,0:0|0:0,0:0:0:0:
58,219,12865,5,8,0:3:0:0:
89,243,12955,1,8,0:3:0:0:
128,250,13046,1,8,0:3:0:0:
165,237,13137,1,8,0:3:0:0:
193,208,13228,2,0,L|181:112,1,80,4|0,0:0|0:0,0:0:0:0:
241,367,13592,6,0,P|298:357|323:266,1,150.000005722046,4|8,0:0|0:0,0:0:0:0:
408,238,14137,2,0,B|417:276|417:276|411:311,1,75.0000028610231
173,279,14501,2,0,L|269:294,1,75.0000028610231,0|8,1:0|0:0,0:0:0:0:
268,216,14865,1,0,1:0:0:0:
262,69,15047,6,0,P|210:78|175:140,1,112.500004291535,2|0,0:0|0:0,0:0:0:0:
200,137,15410,2,0,L|104:152,1,75.0000028610231,10|0,0:0|0:0,0:0:0:0:
44,162,15774,5,2,1:2:0:0:
156,249,15956,1,0,1:0:0:0:
285,179,16137,1,8,0:0:0:0:
178,238,16319,1,0,0:0:0:0:
288,363,16501,6,0,B|353:331|353:331|428:374,1,150.000005722046,0|8,1:0|0:0,0:0:0:0:
490,343,17228,1,0,1:0:0:0:
378,261,17410,1,0,1:0:0:0:
412,188,17592,5,8,0:0:0:0:
240,75,17774,2,0,P|255:133|348:177,1,150.000005722046,0|0,1:0|1:0,0:0:0:0:
512,317,18319,2,0,B|476:308|476:308|438:314,1,75.0000028610231,8|2,0:0|0:0,0:0:0:0:
370,367,18683,5,0,1:0:0:0:
405,223,18865,1,0,1:0:0:0:
261,188,19047,1,8,0:0:0:0:
226,332,19228,2,0,L|130:347,1,75.0000028610231,2|0,0:3|1:0,0:0:0:0:
142,270,19774,6,0,P|86:252|75:160,1,150.000005722046,8|0,0:0|1:0,0:0:0:0:
14,113,20319,1,0,1:0:0:0:
169,71,20501,1,8,0:0:0:0:
91,5,20683,6,0,B|82:43|82:43|90:91,1,75.0000028610231,0|0,1:0|0:0,0:0:0:0:
179,165,21047,1,0,1:0:0:0:
110,270,21228,1,8,0:0:0:0:
73,192,21410,2,0,P|134:192|197:266,1,150.000005722046,0|0,0:0|1:0,0:0:0:0:
299,215,21956,5,8,0:0:0:0:
280,366,22137,1,2,0:3:0:0:
316,240,22319,1,0,1:0:0:0:
272,12,22683,5,8,0:0:0:0:
272,12,23047,5,0,1:0:0:0:
368,30,23228,1,0,1:0:0:0:
464,48,23410,1,8,0:0:0:0:
454,127,23592,6,0,P|396:140|369:230,1,150.000005722046,0|0,1:0|1:0,0:0:0:0:
400,371,24137,1,8,0:0:0:0:
225,284,24319,5,0,1:0:0:0:
225,284,24410,1,0,0:0:0:0:
261,290,24500,1,2,0:0:0:0:
298,296,24591,1,0,0:0:0:0:
335,302,24682,1,0,1:0:0:0:
181,208,24865,6,0,B|173:172|173:172|187:123,1,75.0000028610231,8|8,0:0|0:0,0:0:0:0:
183,135,25137,1,8,0:0:0:0:
183,135,25228,6,0,P|139:136|80:226,1,150.000005722046,4|8,0:0|0:0,0:0:0:0:
80,375,25774,2,0,P|84:329|82:294,1,75.0000028610231,0|0,0:0|1:0,0:0:0:0:
14,101,26137,2,0,P|10:147|12:182,1,75.0000028610231,0|8,1:0|0:0,0:0:0:0:
16,257,26501,1,0,1:0:0:0:
164,208,26683,5,2,0:0:0:0:
143,120,26865,1,0,1:0:0:0:
310,46,27047,2,0,P|289:91|230:116,1,112.500004291535,10|0,0:0|0:0,0:0:0:0:
233,115,27410,2,0,L|244:211,1,75.0000028610231,2|0,1:2|1:0,0:0:0:0:
219,35,27774,5,8,0:0:0:0:
366,122,27956,1,0,0:0:0:0:
495,16,28137,6,0,P|501:96|494:180,1,150.000005722046,0|8,1:0|0:0,0:0:0:0:
453,226,28865,1,0,1:0:0:0:
403,323,29047,1,0,1:0:0:0:
500,373,29228,1,8,0:0:0:0:
341,258,29410,6,0,L|267:270,1,75.0000028610231,0|0,1:0|0:0,0:0:0:0:
280,346,29774,1,0,1:0:0:0:
165,262,29956,5,8,0:0:0:0:
121,322,30137,2,0,P|60:324|35:227,1,150.000005722046,0|0,3:0|1:0,0:0:0:0:
61,178,30683,2,0,P|62:139|55:87,1,75.0000028610231,8|2,0:0|0:3,0:0:0:0:
50,16,31047,5,0,1:0:0:0:
50,16,31410,1,8,0:0:0:0:
191,74,31592,1,0,0:0:0:0:
268,62,31774,2,0,L|263:136,1,75.0000028610231,0|0,1:0|1:0,0:0:0:0:
204,238,32137,1,8,0:0:0:0:
271,341,32319,5,0,1:0:0:0:
176,163,32501,2,0,P|130:165|66:260,1,150.000005722046,0|8,0:0|0:0,0:0:0:0:
314,255,33047,2,0,P|376:293|390:364,1,150.000005722046,0|0,0:0|1:0,0:0:0:0:
198,376,33592,1,8,0:0:0:0:
309,344,33774,1,2,0:3:0:0:
222,379,33956,5,0,1:0:0:0:
459,322,34319,1,8,0:0:0:0:
459,322,34683,5,0,1:0:0:0:
346,212,34865,1,0,1:0:0:0:
471,295,35047,1,8,0:0:0:0:
290,288,35228,6,0,P|220:301|197:371,1,150.000005722046,4|0,1:0|1:0,0:0:0:0:
2,221,35774,2,0,L|104:214,1,75.0000028610231,12|0,0:0|0:0,0:0:0:0:
164,212,36137,1,8,0:3:0:0:
164,212,36228,1,8,0:0:0:0:
164,212,36319,1,0,1:0:0:0:
175,41,36501,6,0,L|180:2,1,37.5,8|0,0:3|0:0,0:0:0:0:
180,4,36865,6,0,P|192:42|321:76,1,160,4|8,0:0|0:0,0:0:0:0:
357,49,37410,1,2,0:0:0:0:
512,84,37592,2,0,P|502:113|403:139,1,120,0|0,1:0|0:0,0:0:0:0:
401,142,37956,1,8,0:0:0:0:
454,355,38137,1,0,0:0:0:0:
454,355,38228,1,0,0:0:0:0:
454,355,38319,1,0,1:0:0:0:
489,274,38501,1,0,0:0:0:0:
408,239,38683,1,8,0:0:0:0:
271,273,38865,5,2,0:0:0:0:
271,273,38956,1,8,0:3:0:0:
271,273,39047,1,0,1:0:0:0:
190,238,39229,1,0,1:0:0:0:
225,157,39411,1,8,0:0:0:0:
201,0,39592,5,2,0:0:0:0:
61,65,39774,2,0,P|133:70|259:84,1,160,0|8,1:0|0:0,0:0:0:0:
405,99,40319,1,2,0:0:0:0:
476,77,40501,2,0,P|478:138|472:213,1,120,0|0,1:0|0:0,0:0:0:0:
463,224,40865,1,8,0:0:0:0:
345,327,41047,1,0,0:0:0:0:
345,327,41137,1,0,0:0:0:0:
345,327,41228,1,0,1:0:0:0:
456,356,41410,5,0,0:0:0:0:
365,231,41592,1,8,0:0:0:0:
241,324,41774,1,2,0:0:0:0:
241,324,41865,1,2,0:0:0:0:
241,324,41956,5,0,1:0:0:0:
263,250,42137,1,0,1:0:0:0:
294,126,42319,5,8,0:0:0:0:
272,52,42500,1,0,3:0:0:0:
510,22,42683,6,0,P|458:25|414:127,1,160,4|8,0:0|0:0,0:0:0:0:
438,190,43228,1,2,0:0:0:0:
438,190,43319,1,0,1:0:0:0:
438,190,43410,2,0,L|331:204,1,80,0|2,1:0|0:0,0:0:0:0:
193,222,43774,1,8,0:0:0:0:
120,237,43956,1,0,0:0:0:0:
120,237,44047,1,0,0:0:0:0:
120,237,44137,6,0,B|113:278|113:278|124:326,1,80,0|0,1:0|1:0,0:0:0:0:
261,381,44501,2,0,L|275:238,1,120,8|8,0:0|0:3,0:0:0:0:
287,261,44865,2,0,L|276:149,1,80,0|0,1:0|1:0,0:0:0:0:
268,40,45228,1,8,0:0:0:0:
73,6,45410,5,0,1:0:0:0:
73,6,45501,1,0,1:0:0:0:
73,6,45592,2,0,P|99:52|206:66,1,160,0|8,1:0|0:0,0:0:0:0:
268,40,46137,1,2,0:0:0:0:
500,53,46319,2,0,P|478:90|390:102,1,120,0|0,1:0|0:0,0:0:0:0:
388,99,46683,1,8,0:0:0:0:
423,284,46865,1,0,0:0:0:0:
509,260,47047,5,12,0:0:0:0:
361,209,47228,1,8,1:3:0:0:
259,313,47410,5,8,1:0:0:0:
111,364,47591,1,12,0:0:0:0:
111,364,47956,5,8,1:0:0:0:
137,188,48137,1,12,0:0:0:0:
163,12,48319,1,8,0:0:0:0:
163,12,48410,1,8,0:0:0:0:
163,12,48501,5,4,1:0:0:0:
178,90,48683,1,0,0:0:0:0:
0,142,48865,2,0,P|35:98|109:89,1,127.50000243187,8|0,0:0|0:0,0:0:0:0:
102,87,49228,2,0,L|89:179,1,85.0000016212464,0|0,1:0|1:0,0:0:0:0:
200,283,49592,5,8,0:0:0:0:
118,365,49774,1,0,0:0:0:0:
5,337,49956,1,0,1:0:0:0:
87,254,50137,1,2,1:2:0:0:
229,365,50319,6,0,L|332:378,1,85.0000016212464,8|2,0:0|0:0,0:0:0:0:
313,375,50592,1,0,0:0:0:0:
313,375,50683,1,0,1:0:0:0:
459,341,50865,1,2,1:2:0:0:
425,195,51047,1,8,0:0:0:0:
361,286,51228,5,0,1:0:0:0:
496,263,51410,5,0,1:0:0:0:
342,193,51592,1,0,0:0:0:0:
501,248,51774,1,8,0:0:0:0:
347,178,51956,1,0,0:0:0:0:
492,150,52137,6,0,L|480:5,1,127.50000243187,0|0,1:0|0:0,0:0:0:0:
493,11,52501,2,0,L|385:30,1,85.0000016212464,8|0,0:0|0:0,0:0:0:0:
152,99,52865,6,0,L|260:118,1,85.0000016212464,0|0,1:0|0:0,0:0:0:0:
345,187,53228,2,0,L|323:13,1,170.000003242493,8|2,0:0|1:2,0:0:0:0:
78,49,53774,1,0,1:0:0:0:
78,49,53865,1,2,0:0:0:0:
78,49,53956,2,0,B|65:92|65:92|74:143,1,85.0000016212464,8|2,0:0|0:0,0:0:0:0:
22,334,54319,6,0,P|75:325|112:224,1,170.000003242493,4|8,0:0|0:0,0:0:0:0:
154,160,54865,1,2,0:0:0:0:
270,199,55047,1,0,1:0:0:0:
248,267,55228,1,0,1:0:0:0:
218,364,55410,5,8,0:0:0:0:
352,318,55592,1,0,0:0:0:0:
174,281,55774,6,0,L|33:298,1,127.50000243187,0|0,1:0|0:0,0:0:0:0:
62,311,56137,1,8,0:0:0:0:
337,238,56319,2,0,P|386:246|424:361,1,170.000003242493,0|2,0:0|0:0,0:0:0:0:
231,97,56865,6,0,L|238:50,1,37.5,4|0,0:0|0:0,0:0:0:0:
237,60,57228,5,8,0:3:0:0:
241,89,57319,1,8,0:3:0:0:
245,119,57410,1,8,0:3:0:0:
250,149,57501,1,8,0:3:0:0:
226,174,57592,5,8,0:0:0:0:
269,199,57682,1,0,0:0:0:0:
318,192,57773,1,0,1:0:0:0:
353,158,57864,1,0,0:0:0:0:
362,109,57956,1,0,0:0:0:0:
371,60,58047,1,0,0:0:0:0:
406,26,58138,1,0,0:0:0:0:
455,19,58229,1,0,0:0:0:0:
499,4,58319,5,8,0:0:0:0:
492,59,58410,1,8,0:0:0:0:
485,114,58501,1,8,0:0:0:0:
478,169,58592,1,8,0:0:0:0:
471,224,58683,5,14,0:1:0:0:
256,214,58865,5,2,1:1:0:0:
41,224,59047,5,10,0:1:0:0:
41,224,59956,5,8,0:0:0:0:
41,224,60047,1,8,0:0:0:0:
40,224,60137,2,0,L|54:24,1,200,12|8,0:3|0:0,0:0:0:0:
131,40,60683,1,2,0:1:0:0:
269,184,60865,5,0,1:0:0:0:
340,156,61047,1,2,0:1:0:0:
451,189,61228,2,0,B|461:236|461:236|450:286,1,100,10|2,0:1|0:1,0:0:0:0:
201,358,61592,5,2,1:0:0:0:
332,310,61774,1,0,0:0:0:0:
251,283,61956,5,8,0:0:0:0:
110,231,62138,1,2,0:1:0:0:
226,179,62319,5,0,1:0:0:0:
102,319,62501,1,2,0:1:0:0:
314,352,62683,2,0,L|421:364,1,100,8|2,0:0|0:1,0:0:0:0:
122,134,63047,6,0,P|51:152|15:269,1,200,0|10,1:0|0:1,0:0:0:0:
102,319,63592,1,2,0:0:0:0:
102,319,63683,1,2,0:0:0:0:
102,319,63774,2,0,B|150:311|150:311|229:325,1,100,0|2,1:0|0:1,0:0:0:0:
361,260,64137,5,8,0:0:0:0:
413,100,64319,1,2,0:1:0:0:
253,48,64501,5,2,1:0:0:0:
327,27,64683,1,0,0:0:0:0:
39,109,64865,5,10,0:1:0:0:
182,144,65047,1,2,0:1:0:0:
421,183,65228,5,0,1:0:0:0:
332,208,65410,1,2,0:1:0:0:
123,255,65592,5,10,0:1:0:0:
387,369,65774,1,2,0:1:0:0:
387,369,65865,1,2,0:0:0:0:
387,369,65956,6,0,P|465:365|511:258,1,200,6|10,1:0|0:1,0:0:0:0:
264,354,66501,1,2,0:1:0:0:
264,354,66592,1,0,0:0:0:0:
264,354,66683,2,0,L|145:371,1,100,0|2,1:0|0:1,0:0:0:0:
145,294,67047,1,10,0:1:0:0:
279,165,67228,1,2,0:1:0:0:
75,28,67410,6,0,B|62:82|62:82|77:147,1,100,2|0,1:0|0:0,0:0:0:0:
28,209,67774,2,0,L|222:188,1,150,10|2,0:1|0:0,0:0:0:0:
204,188,68137,1,2,1:0:0:0:
204,188,68501,1,12,0:0:0:0:
506,187,68683,1,0,1:0:0:0:
506,187,68774,1,8,0:0:0:0:
506,187,68865,6,0,B|416:143|411:247|320:230,1,200,4|10,1:0|0:1,0:0:0:0:
492,93,69410,1,2,0:0:0:0:
492,93,69501,1,2,0:0:0:0:
492,93,69592,1,2,1:0:0:0:
240,33,69774,1,2,0:0:0:0:
393,62,69956,5,10,0:1:0:0:
319,84,70137,1,2,0:0:0:0:
73,139,70319,5,2,1:0:0:0:
2,273,70501,1,2,0:0:0:0:
136,344,70683,1,14,0:1:0:0:
314,244,70865,6,0,L|440:223,1,100,2|0,0:1|1:0,0:0:0:0:
493,207,71228,1,10,0:1:0:0:
266,4,71410,5,10,0:1:0:0:
261,53,71500,1,8,0:0:0:0:
256,103,71591,1,8,0:0:0:0:
251,153,71682,1,8,0:0:0:0:
246,202,71774,6,0,P|168:190|161:54,1,200,12|8,0:3|0:0,0:0:0:0:
86,32,72319,1,2,0:1:0:0:
75,225,72501,1,0,1:0:0:0:
53,53,72683,1,2,0:1:0:0:
6,161,72865,5,10,0:1:0:0:
164,224,73046,1,2,0:1:0:0:
30,329,73228,2,0,B|80:317|80:317|151:339,1,100,2|0,1:0|0:0,0:0:0:0:
363,192,73592,2,0,B|313:180|313:180|242:202,1,100,8|2,0:0|0:1,0:0:0:0:
141,129,73956,2,0,L|153:3,1,100,0|2,1:0|0:1,0:0:0:0:
344,280,74319,2,0,L|335:380,1,100,8|10,0:0|0:1,0:0:0:0:
347,373,74592,1,8,0:0:0:0:
358,365,74683,6,0,L|341:166,1,200,4|10,1:0|0:1,0:0:0:0:
340,89,75228,1,2,0:0:0:0:
340,89,75319,1,2,0:0:0:0:
340,89,75410,1,0,1:0:0:0:
469,206,75592,1,2,0:1:0:0:
340,89,75774,1,8,0:0:0:0:
223,218,75956,1,2,0:1:0:0:
223,134,76137,6,0,L|123:142,1,100,2|0,1:0|0:0,0:0:0:0:
107,263,76501,2,0,P|37:285|27:366,1,150,10|0,0:1|0:0,0:0:0:0:
41,370,76865,2,0,B|91:357|91:357|167:374,1,100,0|2,1:0|0:1,0:0:0:0:
357,323,77228,1,10,0:1:0:0:
289,361,77410,5,2,0:1:0:0:
289,361,77501,1,0,0:0:0:0:
289,361,77592,2,0,B|260:254|330:263|290:138,1,200,6|10,1:0|0:1,0:0:0:0:
278,25,78137,1,2,0:1:0:0:
278,25,78228,1,0,0:0:0:0:
278,25,78319,1,0,1:0:0:0:
401,59,78501,1,2,0:1:0:0:
185,112,78683,5,10,0:1:0:0:
62,146,78865,1,2,0:1:0:0:
327,177,79047,6,0,L|449:192,1,100,2|0,1:0|0:0,0:0:0:0:
250,332,79410,2,0,B|243:284|243:284|259:223,1,100,10|2,0:1|0:1,0:0:0:0:
512,140,79774,2,0,B|519:188|519:188|503:249,1,100,2|2,1:0|0:0,0:0:0:0:
505,237,80047,1,2,0:0:0:0:
505,237,80137,1,12,0:0:0:0:
331,84,80319,1,2,0:0:0:0:
331,84,80410,1,0,0:0:0:0:
331,84,80501,6,0,L|139:107,1,150,4|0,1:2|0:0,0:0:0:0:
151,110,80865,1,10,0:1:0:0:
284,200,81047,1,2,0:0:0:0:
284,200,81137,1,2,0:0:0:0:
284,200,81228,1,2,1:1:0:0:
139,270,81410,1,2,0:0:0:0:
5,179,81592,2,0,L|105:167,1,100,10|2,0:1|1:2,0:0:0:0:
11,361,81956,6,0,L|159:378,1,150,6|0,1:1|0:0,0:0:0:0:
187,358,82319,1,10,0:1:0:0:
460,283,82501,2,0,L|312:300,1,150,4|0,1:0|0:0,0:0:0:0:
284,280,82864,1,8,3:0:0:0:
145,156,83047,1,8,0:0:0:0:
320,97,83228,1,8,0:3:0:0:
249,177,83410,6,0,P|322:184|415:196,1,150.000005722046,4|0,1:0|1:0,0:0:0:0:
471,234,83956,2,0,B|481:195|481:195|472:145,1,75.0000028610231,8|0,0:0|0:0,0:0:0:0:
442,98,84319,1,0,1:0:0:0:
289,259,84501,2,0,B|279:298|279:298|288:348,1,75.0000028610231,8|0,0:0|0:0,0:0:0:0:
285,332,84774,1,0,0:0:0:0:
285,332,84865,6,0,P|211:315|210:229,1,150.000005722046,4|0,1:0|1:0,0:0:0:0:
125,169,85410,2,0,L|285:183,1,150.000005722046,8|0,0:0|1:0,0:0:0:0:
324,126,85956,1,8,0:0:0:0:
382,172,86137,1,0,0:0:0:0:
483,71,86319,5,12,1:0:0:0:
376,19,86501,1,0,3:0:0:0:
324,126,86683,1,0,1:0:0:0:
264,286,86865,5,12,1:0:0:0:
123,372,87047,1,0,3:0:0:0:
258,273,87228,1,0,1:0:0:0:
85,236,87410,5,12,1:0:0:0:
275,374,87592,1,0,0:0:0:0:
482,262,87774,1,12,1:0:0:0:
256,192,87865,12,0,89228,0:0:0:0:
