osu file format v14

[General]
AudioFilename: EX-Termination.mp3
AudioLeadIn: 0
PreviewTime: 161982
Countdown: 0
SampleSet: None
StackLeniency: 0.7
Mode: 0
LetterboxInBreaks: 0
WidescreenStoryboard: 1

[Editor]
Bookmarks: 131806
DistanceSpacing: 1.4
BeatDivisor: 4
GridSize: 8
TimelineZoom: 4.099998

[Metadata]
Title:EX-Termination
TitleUnicode:EX-Termination
Artist:SAVE THE QUEEN
ArtistUnicode:SAVE THE QUEEN
Creator:ShiraKai
Version:EX-Plosion
Source:Touhou
Tags:hakurei reimu metal arrangement Somnium armpit Barrage Ring A/side Maiden's Capriccio Dream Battle Shrine Maiden Miko Dress
BeatmapID:934351
BeatmapSetID:433476

[Difficulty]
HPDrainRate:6.6
CircleSize:3.6
OverallDifficulty:7.6
ApproachRate:9.6
SliderMultiplier:1.7
SliderTickRate:1

[Events]
//Background and Video events
0,0,"BG.jpg",0,0
//Break Periods
2,23844,25713
2,27594,29463
2,78218,80087
2,81968,83837
2,118178,124032
2,162041,164461
//Storyboard Layer 0 (Background)
//Storyboard Layer 1 (Fail)
//Storyboard Layer 2 (Pass)
//Storyboard Layer 3 (Foreground)
//Storyboard Sound Samples

[TimingPoints]
793,234.375,4,3,3,60,1,0
2199,-100,4,3,0,60,0,0
2316,-100,4,3,3,60,0,0
2433,-100,4,3,0,60,0,0
2668,-100,4,3,3,60,0,0
5011,-100,4,3,0,60,0,0
5128,-100,4,3,3,60,0,0
5187,-100,4,3,0,60,0,0
5480,-100,4,3,3,60,0,0
5597,-100,4,3,4,100,0,0
5714,-100,4,3,3,60,0,0
5832,-100,4,3,4,70,0,0
5949,-100,4,3,3,60,0,0
6428,234.375,4,3,3,60,1,0
7013,-100,4,3,0,60,0,0
7131,-100,4,3,3,60,0,0
7599,-100,4,3,20,80,0,0
7717,-100,4,3,21,80,0,0
7834,-100,4,3,22,80,0,0
7951,-100,4,3,3,60,0,0
8303,-100,4,3,3,60,0,0
8654,-100,4,3,9,60,0,0
9240,-100,4,3,3,60,0,0
9592,-100,4,3,7,60,0,0
9709,-100,4,3,3,60,0,0
10060,-100,4,3,7,60,0,0
10178,-100,4,3,3,60,0,0
10529,-100,4,3,5,60,0,0
10646,-100,4,3,3,60,0,0
10763,-100,4,3,5,60,0,0
10881,-100,4,3,3,60,0,0
10998,-100,4,3,5,60,0,0
11115,-100,4,3,3,60,0,0
11232,-100,4,2,20,60,0,0
11349,-100,4,3,3,60,0,0
11467,-100,4,3,5,80,0,0
11584,-100,4,3,3,60,0,0
11701,-100,4,3,5,60,0,0
11818,-100,4,3,3,60,0,0
11935,-100,4,3,5,60,0,0
12053,-100,4,3,3,60,0,0
12404,-100,4,3,9,60,0,0
12990,-100,4,3,3,60,0,0
13342,-100,4,3,7,60,0,0
13459,-100,4,3,3,60,0,0
13810,-100,4,3,7,60,0,0
13928,-100,4,3,3,60,0,0
14279,-100,4,3,5,60,0,0
14396,-100,4,3,3,60,0,0
14513,-100,4,3,5,60,0,0
14631,-100,4,3,3,60,0,0
14748,-100,4,3,5,60,0,0
14865,-100,4,3,3,60,0,0
14982,-100,4,3,0,60,0,0
15217,-100,4,3,3,70,0,0
15334,-100,4,3,0,70,0,0
15451,-100,4,3,3,80,0,0
15803,-100,4,3,3,60,0,0
16154,-100,4,3,9,60,0,0
17092,-100,4,3,7,60,0,0
17209,-100,4,3,3,60,0,0
17326,-100,4,3,7,60,0,0
17443,-100,4,3,3,60,0,0
17560,-100,4,3,7,60,0,0
17678,-100,4,3,3,60,0,0
18029,-100,4,3,5,60,0,0
18146,-100,4,3,3,60,0,0
18263,-100,4,3,5,60,0,0
18381,-100,4,3,3,60,0,0
18498,-100,4,3,5,60,0,0
18615,-100,4,3,3,60,0,0
18732,-100,4,2,20,60,0,0
18849,-100,4,3,3,90,0,0
18967,-100,4,3,5,60,0,0
19084,-100,4,3,3,60,0,0
19201,-100,4,3,5,60,0,0
19318,-100,4,3,3,60,0,0
19435,-100,4,3,5,60,0,0
19553,-100,4,3,9,60,0,0
21428,-100,4,3,3,60,0,0
21779,-100,4,3,0,60,0,0
22131,-100,4,1,3,60,0,0
23410,234.375,4,2,0,80,1,0
23410,-125,4,1,4,80,0,0
26222,-125,4,3,3,80,0,0
27160,-125,4,1,4,80,0,0
29972,-125,4,3,6,80,0,0
30910,-125,4,3,6,60,0,0
34367,-125,4,3,6,20,0,0
34425,-125,4,3,6,60,0,0
37706,-125,4,3,0,60,0,0
37824,-125,4,3,6,60,0,0
38292,234.375,4,3,6,70,1,1
42393,-100,4,3,8,70,0,1
42510,-100,4,3,6,70,0,1
42627,-100,4,3,8,70,0,1
42745,-100,4,3,6,70,0,1
42862,-100,4,3,8,70,0,1
42979,-100,4,3,6,70,0,1
43096,-100,4,3,8,70,0,1
43213,-100,4,3,6,70,0,1
43331,-100,4,3,8,70,0,1
43448,-100,4,3,6,70,0,1
43565,-100,4,3,8,70,0,1
43682,-100,4,3,6,70,0,1
43799,-100,4,3,8,70,0,1
43917,-100,4,3,6,70,0,1
44268,-100,4,3,8,70,0,1
44385,-100,4,3,6,70,0,1
44502,-100,4,3,8,70,0,1
44620,-100,4,3,6,70,0,1
44737,-100,4,3,8,70,0,1
44854,-100,4,3,6,70,0,1
45147,-100,4,3,6,5,0,1
45206,-100,4,3,6,70,0,1
45323,-100,4,3,0,70,0,1
45674,-100,4,3,6,70,0,1
47432,-100,4,3,0,70,0,1
47549,-100,4,3,6,70,0,1
48252,-100,4,3,23,90,0,1
48604,-100,4,3,23,90,0,0
49190,-100,4,3,6,90,0,0
49542,-100,4,3,3,90,0,1
49893,-100,4,3,7,90,0,1
50010,-100,4,3,3,90,0,1
50362,-100,4,3,7,90,0,1
50479,-100,4,3,3,90,0,1
50831,-100,4,3,7,90,0,1
50948,-100,4,3,3,90,0,1
51299,-100,4,3,7,90,0,1
51417,-100,4,3,3,90,0,1
51768,-100,4,3,5,90,0,1
51885,-100,4,3,3,90,0,1
52002,-100,4,3,5,90,0,1
52237,-100,4,3,5,90,0,1
52354,-100,4,3,3,90,0,1
52471,-100,4,2,20,70,0,1
52588,-100,4,3,3,90,0,1
52706,-100,4,3,5,90,0,1
52823,-100,4,3,3,90,0,1
52940,-100,4,3,5,90,0,1
53057,-100,4,3,3,90,0,1
53174,-100,4,3,5,90,0,1
53292,-100,4,3,3,90,0,1
53643,-100,4,3,7,90,0,1
53760,-100,4,3,3,90,0,1
53877,-100,4,3,7,90,0,1
53995,-100,4,3,3,90,0,1
54112,-100,4,3,7,90,0,1
54229,-100,4,3,3,90,0,1
54581,-100,4,3,7,90,0,1
54698,-100,4,3,3,90,0,1
54815,-100,4,3,7,90,0,1
54932,-100,4,3,3,90,0,1
55049,-100,4,3,3,90,0,1
55635,-100,4,3,21,90,0,1
55752,-100,4,3,3,90,0,1
55870,-100,4,3,23,90,0,1
55987,-100,4,3,3,90,0,1
56104,-100,4,3,30,90,0,1
56221,-100,4,3,22,90,0,1
56338,-100,4,3,21,90,0,1
56456,-100,4,3,20,90,0,1
56573,-100,4,1,0,90,0,1
56690,-100,4,3,3,90,0,1
57393,-100,4,3,7,90,0,1
57510,-100,4,3,3,90,0,1
57862,-100,4,3,7,90,0,1
57979,-100,4,3,3,90,0,1
58331,-100,4,3,7,90,0,1
58448,-100,4,3,3,90,0,1
58799,-100,4,3,7,90,0,1
58917,-100,4,3,3,90,0,1
59268,-100,4,3,5,90,0,1
59385,-100,4,3,3,90,0,1
59502,-100,4,3,5,90,0,1
59620,-100,4,3,3,90,0,1
59737,-100,4,3,5,90,0,1
59854,-100,4,3,3,90,0,1
59971,-100,4,2,20,70,0,1
60088,-100,4,3,3,90,0,1
60206,-100,4,3,5,90,0,1
60323,-100,4,3,3,90,0,1
60440,-100,4,3,5,90,0,1
60557,-100,4,3,3,90,0,1
60674,-100,4,3,5,90,0,1
60792,-100,4,3,3,90,0,1
62198,-100,4,3,0,90,0,1
62315,-100,4,3,21,90,0,1
62432,-100,4,3,22,90,0,1
62549,-100,4,3,0,90,0,1
62667,-125,4,3,3,60,0,0
63252,-125,4,1,0,60,0,0
63370,-125,4,3,3,60,0,0
64073,-125,4,3,0,60,0,0
64190,-125,4,3,3,60,0,0
64307,-125,4,3,0,60,0,0
64542,-125,4,3,3,60,0,0
64893,-125,4,3,0,60,0,0
65010,-125,4,3,3,60,0,0
65127,-125,4,1,0,60,0,0
65245,-125,4,3,3,60,0,0
65596,-125,4,3,31,50,0,0
65713,-125,4,3,3,60,0,0
66065,-125,4,3,20,60,0,0
66182,-125,4,3,21,60,0,0
66299,-125,4,3,22,60,0,0
66417,-125,4,3,3,60,0,0
66885,-125,4,3,0,60,0,0
67002,-125,4,1,0,60,0,0
67120,-125,4,3,3,60,0,0
67940,-125,4,3,0,60,0,0
68292,-111.111111111111,4,3,3,70,0,0
68995,-111.111111111111,4,3,21,70,0,0
69112,-111.111111111111,4,3,22,70,0,0
69229,-111.111111111111,4,3,3,70,0,0
69932,-111.111111111111,4,3,24,70,0,0
70167,-100,4,3,3,90,0,0
73448,-100,4,3,0,90,0,0
73565,-100,4,3,3,90,0,0
73799,-100,4,3,24,60,0,0
73917,-100,4,3,3,60,0,0
76729,-100,4,3,22,60,0,0
77081,-100,4,3,20,60,0,0
77198,-100,4,3,21,60,0,0
77315,-100,4,3,3,60,0,0
77784,234.375,4,1,4,60,1,0
80596,-125,4,3,3,60,0,0
81534,-125,4,1,4,60,0,0
84346,-125,4,3,6,60,0,0
88682,-125,4,3,0,60,0,0
88799,-125,4,3,6,60,0,0
88916,-125,4,3,0,60,0,0
89034,-125,4,3,6,60,0,0
92198,-125,4,3,24,60,0,0
92315,-125,4,3,6,80,0,0
92666,234.375,4,3,6,70,1,1
93720,-100,4,3,33,70,0,1
93749,-100,4,3,6,70,0,1
95244,-100,4,3,33,70,0,1
95273,-100,4,3,6,70,0,1
95595,-100,4,3,33,70,0,1
95624,-100,4,3,6,70,0,1
96767,-100,4,3,8,70,0,1
96884,-100,4,3,6,70,0,1
97001,-100,4,3,8,70,0,1
97119,-100,4,3,6,70,0,1
97236,-100,4,3,8,70,0,1
97353,-100,4,3,6,70,0,1
97470,-100,4,3,8,70,0,1
97587,-100,4,3,6,70,0,1
97705,-100,4,3,8,70,0,1
97822,-100,4,3,6,70,0,1
97939,-100,4,3,40,50,0,1
98056,-100,4,3,6,70,0,1
98173,-100,4,3,8,70,0,1
98291,-100,4,3,6,70,0,1
98642,-100,4,3,8,70,0,1
98759,-100,4,3,6,70,0,1
98876,-100,4,3,8,70,0,1
98994,-100,4,3,6,70,0,1
99111,-100,4,3,8,70,0,1
99228,-100,4,3,6,70,0,1
99521,-100,4,3,6,70,0,1
99580,-100,4,3,6,70,0,1
99814,-100,4,3,0,70,0,1
100048,-100,4,3,6,70,0,1
101220,-100,4,3,33,70,0,1
101249,-100,4,3,6,70,0,1
101572,-100,4,3,0,70,0,1
101689,-100,4,3,6,70,0,1
101806,-100,4,3,0,70,0,1
101923,-100,4,3,6,70,0,1
102626,-100,4,3,23,90,0,1
102978,-100,4,3,23,90,0,0
103564,-100,4,3,6,90,0,0
103916,-100,4,3,3,90,0,1
104267,-100,4,3,7,90,0,1
104384,-100,4,3,3,90,0,1
104736,-100,4,3,7,90,0,1
104853,-100,4,3,3,90,0,1
105205,-100,4,3,7,90,0,1
105322,-100,4,3,3,90,0,1
105673,-100,4,3,7,90,0,1
105791,-100,4,3,3,90,0,1
106142,-100,4,3,5,90,0,1
106259,-100,4,3,3,90,0,1
106376,-100,4,3,5,90,0,1
106728,-100,4,3,3,90,0,1
106845,-100,4,2,20,70,0,1
106962,-100,4,3,3,90,0,1
107080,-100,4,3,5,90,0,1
107197,-100,4,3,3,90,0,1
107314,-100,4,3,5,90,0,1
107431,-100,4,3,3,90,0,1
107548,-100,4,3,5,90,0,1
107666,-100,4,3,3,90,0,1
108017,-100,4,3,7,90,0,1
108134,-100,4,3,3,90,0,1
108251,-100,4,3,7,90,0,1
108369,-100,4,3,3,90,0,1
108486,-100,4,3,7,90,0,1
108603,-100,4,3,3,90,0,1
108955,-100,4,3,7,90,0,1
109072,-100,4,3,3,90,0,1
109189,-100,4,3,7,90,0,1
109306,-100,4,3,3,90,0,1
109423,-100,4,3,7,90,0,1
109541,-100,4,3,3,90,0,1
110244,-100,4,3,23,90,0,1
110361,-100,4,3,3,90,0,1
110478,-100,4,3,22,90,0,1
110595,-100,4,3,3,90,0,1
110712,-100,4,3,21,90,0,1
110830,-100,4,3,22,90,0,1
110947,-100,4,3,20,90,0,1
111064,-100,4,3,3,90,0,1
111416,-100,4,3,3,90,0,1
111767,-100,4,3,7,90,0,1
111884,-100,4,3,3,90,0,1
112001,-100,4,3,7,90,0,1
112119,-100,4,3,3,90,0,1
112236,-100,4,3,7,90,0,1
112353,-100,4,3,3,90,0,1
112470,-100,4,3,7,90,0,1
112587,-100,4,3,3,90,0,1
112705,-100,4,3,7,90,0,1
112822,-100,4,3,3,90,0,1
112939,-100,4,3,7,90,0,1
113056,-100,4,3,3,90,0,1
113173,-100,4,3,7,90,0,1
113291,-100,4,3,3,90,0,1
113642,-100,4,3,5,90,0,1
113759,-100,4,3,3,90,0,1
113876,-100,4,3,5,90,0,1
113994,-100,4,3,3,90,0,1
114111,-100,4,3,5,90,0,1
114228,-100,4,3,3,90,0,1
114345,-100,4,2,20,70,0,1
114462,-100,4,3,3,70,0,1
114580,-100,4,3,5,90,0,1
114697,-100,4,3,3,90,0,1
114814,-100,4,3,5,90,0,1
114931,-100,4,3,3,90,0,1
115048,-100,4,3,5,90,0,1
115166,-100,4,3,3,90,0,1
116572,-100,4,3,0,90,0,1
116923,-100,4,3,3,70,0,1
117041,-100,4,3,3,90,0,0
117978,-100,4,3,0,5,0,0
124541,-125,4,3,6,70,0,0
126884,-125,4,3,0,70,0,0
127001,-125,4,3,6,70,0,0
127119,-125,4,3,0,70,0,0
127236,-125,4,3,6,70,0,0
130634,-125,4,3,24,50,0,0
130869,-125,4,3,23,90,0,0
131689,-125,4,3,0,90,0,0
131806,-125,4,3,20,90,0,0
131923,-125,4,3,21,90,0,0
132041,-100,4,3,6,90,0,0
135439,-100,4,3,24,60,0,0
135556,-100,4,3,6,90,0,0
135908,-100,4,3,6,70,0,0
136142,-100,4,1,0,70,0,0
136201,-100,4,3,6,70,0,0
136611,-100,4,1,0,70,0,0
136845,-100,4,3,6,70,0,0
137080,-100,4,1,0,70,0,0
137138,-100,4,3,6,70,0,0
137548,-100,4,1,0,70,0,0
137607,-100,4,3,6,70,0,0
139306,-100,4,3,32,70,0,0
139423,-100,4,3,6,70,0,0
139892,-100,4,1,0,70,0,0
139951,-100,4,3,6,70,0,0
140361,-100,4,1,0,70,0,0
140419,-100,4,3,6,70,0,0
140830,-100,4,1,0,70,0,0
140888,-100,4,3,6,70,0,0
140947,-100,4,1,0,70,0,0
141005,-100,4,3,6,70,0,0
141298,-100,4,1,0,70,0,0
141357,-100,4,3,6,70,0,0
141767,-100,4,1,0,70,0,0
141826,-100,4,3,6,70,0,0
141884,-100,4,1,0,70,0,0
141943,-100,4,3,6,70,0,0
142236,-100,4,1,0,70,0,0
142294,-100,4,3,6,70,0,0
142939,-100,4,3,24,50,0,0
142998,-100,4,3,6,70,0,0
143056,-100,4,3,33,70,0,0
143115,-100,4,3,6,5,0,0
143173,-100,4,3,6,70,0,0
143642,-100,4,1,0,70,0,0
143701,-100,4,3,6,70,0,0
144111,-100,4,1,0,70,0,0
144169,-100,4,3,6,70,0,0
144345,-100,4,3,0,70,0,0
144462,-100,4,3,6,70,0,0
144873,-100,4,1,0,70,0,0
144931,-100,4,3,6,70,0,0
144990,-100,4,3,0,70,0,0
145048,-100,4,3,6,70,0,0
145322,-100,4,1,0,70,0,0
145400,-100,4,3,33,70,0,0
145429,-100,4,3,3,5,0,0
145517,-100,4,3,32,70,0,0
145634,-100,4,1,0,70,0,0
145751,-100,4,3,6,70,0,0
145986,-100,4,1,0,70,0,0
146044,-100,4,3,6,70,0,0
146455,-100,4,1,0,70,0,0
146513,-100,4,3,6,70,0,0
146572,-100,4,1,0,70,0,0
146630,-100,4,3,6,70,0,0
147158,-100,4,3,50,90,0,0
147236,-100,4,3,51,90,0,0
147314,-100,4,3,52,90,0,0
147392,-100,4,3,51,90,0,0
147470,-100,4,3,80,90,0,0
147548,-100,4,3,52,90,0,0
147626,-100,4,3,50,90,0,0
147705,-100,4,3,51,90,0,0
147783,-100,4,3,52,90,0,0
147861,-100,4,3,80,90,0,0
147939,-100,4,3,52,90,0,0
148017,-100,4,3,81,90,0,0
148173,-100,4,3,51,90,0,0
148251,-100,4,3,52,90,0,0
148330,-100,4,3,50,90,0,0
148408,-100,4,3,52,90,0,0
148486,-100,4,3,81,90,0,0
148564,-100,4,3,50,90,0,0
148642,-100,4,3,51,90,0,0
148720,-100,4,3,52,90,0,0
148798,-100,4,3,51,90,0,0
148876,-100,4,3,80,90,0,0
148955,-100,4,3,52,90,0,0
149033,-100,4,3,81,90,0,0
149111,-100,4,3,51,90,0,0
149189,-100,4,3,52,90,0,0
149267,-100,4,3,81,90,0,0
149345,-100,4,3,51,90,0,0
149423,-100,4,3,52,90,0,0
149501,-100,4,3,80,90,0,0
149580,-100,4,3,50,90,0,0
149658,-100,4,3,51,90,0,0
149736,-100,4,3,81,90,0,0
149814,-100,4,3,51,90,0,0
149892,-100,4,3,52,90,0,0
149970,-100,4,3,3,90,0,0
150146,-100,4,3,3,5,0,0
150205,-100,4,3,3,90,0,0
150380,-100,4,3,3,5,0,0
150439,-200,4,3,6,90,0,0
150556,-200,4,3,24,70,0,0
150791,-100,4,3,3,70,0,1
151494,-100,4,3,33,70,0,1
151523,-100,4,3,6,70,0,1
151845,-100,4,3,33,70,0,1
151874,-100,4,3,6,70,0,1
153369,-100,4,3,33,70,0,1
153398,-100,4,3,6,70,0,1
154892,-100,4,3,5,70,0,1
155009,-100,4,3,6,70,0,1
155126,-100,4,3,5,70,0,1
155244,-100,4,3,6,70,0,1
155361,-100,4,3,5,70,0,1
155478,-100,4,3,6,70,0,1
155595,-100,4,3,5,70,0,1
155712,-100,4,3,6,70,0,1
155830,-100,4,3,5,70,0,1
155947,-100,4,3,6,70,0,1
156064,-100,4,3,40,70,0,1
156181,-100,4,3,6,70,0,1
156298,-100,4,3,5,70,0,1
156416,-100,4,3,6,70,0,1
156767,-100,4,3,5,70,0,1
156884,-100,4,3,6,70,0,1
157001,-100,4,3,5,70,0,1
157119,-100,4,3,6,70,0,1
157236,-100,4,3,5,70,0,1
157353,-100,4,3,6,70,0,1
157646,-100,4,3,6,30,0,1
157705,-100,4,3,6,70,0,1
157822,-100,4,3,0,70,0,1
158173,-100,4,3,6,70,0,1
160751,-100,4,3,23,80,0,0
164970,-200,4,3,10,100,0,1
165146,-200,4,3,10,20,0,0
165205,-200,4,3,10,100,0,1
165380,-200,4,3,10,5,0,0
165439,-100,4,3,6,90,0,0
165791,-100,4,3,3,90,0,1
166142,-100,4,3,7,90,0,1
166259,-100,4,3,3,90,0,1
166611,-100,4,3,7,90,0,1
166728,-100,4,3,3,90,0,1
167080,-100,4,3,7,90,0,1
167197,-100,4,3,3,90,0,1
167431,-100,4,3,33,90,0,1
167460,-100,4,3,3,90,0,1
167548,-100,4,3,7,90,0,1
167666,-100,4,3,3,90,0,1
168017,-100,4,3,5,90,0,1
168134,-100,4,3,3,90,0,1
168251,-100,4,3,5,90,0,1
168369,-100,4,3,3,90,0,1
168486,-100,4,3,5,90,0,1
168603,-100,4,3,3,90,0,1
168720,-100,4,3,40,70,0,1
168837,-100,4,3,3,90,0,1
168955,-100,4,3,5,90,0,1
169072,-100,4,3,0,90,0,1
169189,-100,4,3,3,90,0,1
169306,-100,4,3,0,90,0,1
169423,-100,4,3,3,90,0,1
169892,-100,4,3,7,90,0,1
170009,-100,4,3,3,90,0,1
170126,-100,4,3,7,90,0,1
170244,-100,4,3,3,90,0,1
170361,-100,4,3,7,90,0,1
170478,-100,4,3,3,90,0,1
170830,-100,4,3,7,90,0,1
170947,-100,4,3,3,90,0,1
171064,-100,4,3,7,90,0,1
171181,-100,4,3,3,90,0,1
171298,-100,4,3,7,90,0,1
171416,-100,4,3,3,90,0,1
172001,-100,4,3,23,90,0,1
172236,-100,4,3,3,90,0,1
172353,-100,4,3,22,90,0,1
172470,-100,4,3,0,90,0,1
172587,-100,4,3,22,90,0,1
172705,-100,4,3,0,90,0,1
172822,-100,4,3,22,90,0,1
172939,-100,4,3,3,90,0,1
173642,-100,4,3,7,90,0,1
173759,-100,4,3,3,90,0,1
173876,-100,4,3,7,90,0,1
173994,-100,4,3,3,90,0,1
174111,-100,4,3,7,90,0,1
174228,-100,4,3,3,90,0,1
174345,-100,4,3,7,90,0,1
174462,-100,4,3,3,90,0,1
174580,-100,4,3,7,90,0,1
174697,-100,4,3,3,90,0,1
174814,-100,4,3,7,90,0,1
174931,-100,4,3,3,90,0,1
175048,-100,4,3,7,90,0,1
175166,-100,4,3,3,90,0,1
175517,-100,4,3,5,90,0,1
175634,-100,4,3,0,90,0,1
175751,-100,4,3,5,90,0,1
175869,-100,4,3,3,90,0,1
175986,-100,4,3,5,90,0,1
176103,-100,4,3,3,90,0,1
176220,-100,4,3,40,70,0,1
176337,-100,4,3,3,90,0,1
176455,-100,4,3,5,90,0,1
176572,-100,4,3,3,90,0,1
176689,-100,4,3,5,90,0,1
176806,-100,4,3,3,90,0,1
176923,-100,4,3,5,90,0,1
177041,-100,4,3,3,90,0,1
178798,-100,4,3,24,90,0,1
178916,-100,4,3,3,100,0,0
178974,-100,4,3,3,5,0,0

[HitObjects]
99,195,793,6,0,B|143:204|189:191|189:191|179:235|181:269,1,170,2|2,0:0|0:0,0:0:0:0:
273,314,1144,2,0,L|268:229,1,85,12|0,0:0|0:0,0:0:0:0:
222,98,1378,1,2,0:0:0:0:
222,98,1437,1,0,0:0:0:0:
222,98,1496,2,0,P|181:104|142:122,1,85,0|0,0:0|0:0,0:0:0:0:
285,206,1730,6,0,B|335:192|396:205|396:205|367:180|361:159,1,170,2|2,0:0|0:0,0:0:0:0:
443,51,2082,2,0,L|438:135,1,85,0|2,0:0|0:0,0:0:0:0:
426,284,2316,1,2,0:0:0:0:
426,284,2375,1,0,0:0:0:0:
426,284,2433,1,8,0:0:0:0:
491,213,2550,1,4,0:0:0:0:
417,298,2668,6,0,B|368:291|336:271|336:271|304:306|270:322,1,170,2|2,0:0|0:0,0:0:0:0:
194,267,3019,2,0,P|151:271|113:288,1,85,12|0,0:0|0:0,0:0:0:0:
179,360,3253,1,2,0:0:0:0:
179,360,3312,1,0,0:0:0:0:
179,360,3371,2,0,P|221:355|259:338,1,85,0|0,0:0|0:0,0:0:0:0:
331,249,3605,6,0,L|311:80,1,170,2|2,0:0|0:0,0:0:0:0:
208,27,3957,2,0,L|192:110,1,85,8|2,0:0|0:0,0:0:0:0:
125,188,4191,1,8,0:0:0:0:
211,126,4308,1,8,0:0:0:0:
93,65,4425,1,8,0:0:0:0:
41,205,4543,6,0,B|85:203|125:188|125:188|131:233|114:270,1,170,2|2,0:0|0:0,0:0:0:0:
178,359,4894,2,0,P|220:366|262:359,1,85,12|2,0:0|0:0,0:0:0:0:
331,249,5128,1,8,0:0:0:0:
331,249,5187,1,8,0:0:0:0:
331,249,5246,1,4,0:0:0:0:
356,336,5363,1,2,0:0:0:0:
244,260,5480,6,0,B|240:209|285:174|285:174|254:155|217:169,1,170,2|2,0:0|0:0,0:0:0:0:
331,249,5832,2,0,P|372:254|413:243,1,85,4|2,0:0|0:0,0:0:0:0:
494,139,6066,1,8,0:0:0:0:
456,232,6183,1,8,0:0:0:0:
369,176,6300,1,8,0:0:0:0:
455,69,6428,6,0,B|461:109|451:144|451:144|460:150|460:150|449:192|457:233,1,170,6|2,0:0|0:0,0:0:0:0:
298,125,6779,2,0,P|333:100|374:92,1,85,8|2,0:0|0:0,0:0:0:0:
259,201,7013,2,0,L|174:191,1,85,8|10,0:0|0:0,0:0:0:0:
85,138,7248,1,8,0:0:0:0:
171,84,7365,6,0,B|190:129|177:170|177:170|167:214|180:250,1,170,6|8,0:0|0:0,0:0:0:0:
251,324,7717,2,0,P|208:326|169:341,1,85,8|8,0:0|0:0,0:0:0:0:
81,373,7951,1,8,0:0:0:0:
12,255,8068,1,8,0:0:0:0:
4,244,8303,6,0,P|88:241|166:273,1,170,6|2,0:0|0:0,0:0:0:0:
251,324,8654,2,0,P|293:322|333:308,1,85,12|0,0:0|0:0,0:0:0:0:
408,253,8888,1,2,0:0:0:0:
339,141,9006,2,0,P|321:179|316:221,1,85,2|12,0:0|0:0,0:0:0:0:
481,322,9240,6,0,P|505:276|443:165,1,170,6|2,0:0|0:0,0:0:0:0:
339,141,9592,1,8,0:0:0:0:
454,80,9709,1,0,0:0:0:0:
352,16,9826,2,0,P|338:63|328:114,1,85,2|0,0:0|0:0,0:0:0:0:
235,150,10060,1,8,0:0:0:0:
138,82,10178,6,0,P|79:90|55:185,1,170,6|2,0:0|0:0,0:0:0:0:
165,247,10529,2,0,L|249:241,1,85,8|0,0:0|0:0,0:0:0:0:
324,186,10763,1,2,0:0:0:0:
342,278,10881,1,2,0:0:0:0:
364,368,10998,1,8,0:0:0:0:
437,273,11115,6,0,L|452:103,1,170,6|2,0:0|0:0,0:0:0:0:
433,12,11467,2,0,P|475:15|511:35,1,85,8|0,0:0|0:0,0:0:0:0:
363,85,11701,1,2,0:0:0:0:
363,84,11818,2,0,P|321:92|279:85,1,85,0|8,0:0|0:0,0:0:0:0:
185,12,12053,6,0,L|169:181,1,170,6|2,0:0|0:0,0:0:0:0:
98,109,12404,2,0,P|177:83|253:115,1,170,12|2,0:0|0:0,0:0:0:0:
324,186,12756,2,0,P|365:193|407:186,1,85,2|12,0:0|0:0,0:0:0:0:
479,102,12990,6,0,L|494:271,1,170,6|2,0:0|0:0,0:0:0:0:
437,345,13342,1,8,0:0:0:0:
357,295,13459,1,0,0:0:0:0:
290,361,13576,2,0,P|249:367|207:363,1,85,2|0,0:0|0:0,0:0:0:0:
130,310,13810,1,8,0:0:0:0:
259,193,13928,6,0,L|290:359,1,170,6|2,0:0|0:0,0:0:0:0:
130,310,14279,2,0,L|145:226,1,85,8|0,0:0|0:0,0:0:0:0:
171,110,14513,1,2,0:0:0:0:
259,193,14631,1,2,0:0:0:0:
145,226,14748,2,0,P|103:231|61:226,1,85,8|0,0:0|0:0,0:0:0:0:
171,110,14982,5,8,0:0:0:0:
259,193,15099,1,4,0:0:0:0:
98,152,15217,1,2,0:0:0:0:
213,35,15334,1,2,0:0:0:0:
218,266,15451,1,8,0:0:0:0:
16,157,15568,1,8,0:0:0:0:
16,157,15803,6,0,B|20:42|20:42|50:47|71:60,1,170,6|2,0:0|0:0,0:0:0:0:
171,110,16154,2,0,P|212:117|254:110,1,85,12|0,0:0|0:0,0:0:0:0:
351,57,16388,2,0,P|358:98|351:140,1,85,2|2,0:0|0:0,0:0:0:0:
301,230,16623,1,12,0:0:0:0:
301,230,16740,6,0,B|337:245|393:224|393:224|394:265|374:296,1,170,6|2,0:0|0:0,0:0:0:0:
484,274,17092,2,0,P|472:314|448:349,1,85,8|2,0:0|0:0,0:0:0:0:
343,380,17326,2,0,L|258:367,1,85,2|2,0:0|0:0,0:0:0:0:
177,292,17560,1,8,0:0:0:0:
94,367,17678,6,0,P|63:290|100:216,1,170,6|2,0:0|0:0,0:0:0:0:
259,287,18029,2,0,P|218:298|176:291,1,85,8|0,0:0|0:0,0:0:0:0:
164,116,18263,2,0,P|194:145|208:185,1,85,2|2,0:0|0:0,0:0:0:0:
100,216,18498,1,8,0:0:0:0:
36,99,18615,6,0,L|204:75,1,170,6|2,0:0|0:0,0:0:0:0:
313,54,18967,1,8,0:0:0:0:
218,110,19084,1,2,0:0:0:0:
297,22,19201,2,8,P|307:63|323:102,1,85,8|10,0:0|0:0,0:0:0:0:
410,181,19435,1,8,0:0:0:0:
410,181,19553,6,0,B|450:177|450:177|458:182|458:182|497:173|497:173|493:221|470:247,1,170,6|2,0:0|0:0,0:0:0:0:
352,264,19904,2,0,P|345:306|351:348,2,85,2|0|12,0:0|0:0|0:0,0:0:0:0:
275,194,20256,2,0,P|252:230|239:271,1,85,0|2,0:0|0:0,0:0:0:0:
166,348,20490,6,0,B|136:346|103:335|103:335|59:348|59:348|29:338|-12:337,1,170,6|2,0:0|0:0,0:0:0:0:
130,169,20842,2,0,P|143:209|145:251,1,85,2|0,0:0|0:0,0:0:0:0:
41,146,21076,2,0,P|97:86|179:93,1,170,12|2,0:0|0:0,0:0:0:0:
442,196,21428,6,0,B|412:194|379:183|379:183|335:196|335:196|305:186|264:185,1,170,6|2,0:0|0:0,0:0:0:0:
269,202,21779,1,10,0:0:0:0:
359,65,21896,1,6,0:0:0:0:
366,50,22131,1,4,0:0:0:0:
456,232,22365,5,4,0:0:0:0:
456,232,23410,5,8,0:0:0:0:
381,288,23527,1,8,0:0:0:0:
467,322,23644,1,8,0:0:0:0:
465,321,26222,6,0,B|356:317|356:317|361:329|375:334,1,136,6|8,0:0|0:0,0:0:0:0:
408,243,26574,2,0,B|298:238|298:238|304:250|317:255,1,136,8|2,0:0|0:0,0:0:0:0:
375,334,26925,1,10,0:0:0:0:
408,243,27042,1,8,0:0:0:0:
465,321,27160,5,8,0:0:0:0:
375,334,27277,1,8,0:0:0:0:
408,243,27394,1,8,0:0:0:0:
391,237,29972,6,0,B|397:134|397:134|391:153|385:165,1,136,6|8,0:0|0:0,0:0:0:0:
287,202,30324,2,0,B|249:106|249:106|251:126|247:140,1,136,2|8,0:0|0:0,0:0:0:0:
178,215,30675,2,0,B|141:178|141:178|141:203,1,68,10|8,0:0|0:0,0:0:0:0:
104,306,30910,5,6,0:0:0:0:
104,306,31027,2,0,B|148:308|148:308|239:302,1,136,2|2,0:0|0:0,0:0:0:0:
392,236,31378,2,0,P|350:187|287:201,1,136,8|2,0:0|0:0,0:0:0:0:
425,315,31730,6,0,B|427:271|427:271|421:179,2,136,2|2|2,0:0|0:0|0:0,0:0:0:0:
501,236,32316,2,0,B|481:196|481:196|429:120,1,136,8|2,0:0|0:0,0:0:0:0:
315,145,32667,1,8,0:0:0:0:
421,179,32785,5,6,0:0:0:0:
365,62,32902,2,0,P|299:51|240:81,1,136,2|2,0:0|0:0,0:0:0:0:
132,183,33253,2,0,P|197:172|256:202,1,136,8|2,0:0|0:0,0:0:0:0:
86,253,33605,6,0,L|98:117,2,136,8|2|2,0:0|0:0|0:0,0:0:0:0:
175,358,34191,2,0,L|194:257,1,102,8|0,0:0|0:0,0:0:0:0:
193,257,34425,2,0,P|226:254|260:258,1,68,8|2,0:0|0:0,0:0:0:0:
375,304,34660,5,6,0:0:0:0:
375,304,34777,2,0,L|362:168,1,136,2|2,0:0|0:0,0:0:0:0:
473,91,35128,2,0,L|485:226,1,136,8|2,0:0|0:0,0:0:0:0:
375,304,35480,6,0,P|342:307|308:303,1,68,8|2,0:0|0:0,0:0:0:0:
194,257,35714,2,0,L|209:121,1,136,2|2,0:0|0:0,0:0:0:0:
329,167,36066,2,0,L|313:31,1,136,8|8,0:0|0:0,0:0:0:0:
214,109,36417,1,2,0:0:0:0:
341,177,36535,5,6,0:0:0:0:
341,177,36652,2,0,B|439:168|439:168|420:157|410:143,1,136,2|2,0:0|0:0,0:0:0:0:
337,7,37003,2,0,L|201:22,1,136,8|2,0:0|0:0,0:0:0:0:
106,76,37355,1,8,0:0:0:0:
203,176,37472,6,0,L|216:102,1,68,14|2,0:0|0:0,0:0:0:0:
95,210,37706,2,0,L|106:276,1,68,2|2,0:0|0:0,0:0:0:0:
212,338,37941,2,0,L|223:271,1,68,8|8,0:0|0:0,0:0:0:0:
229,260,38292,6,0,B|270:243|310:259|310:259|349:274|395:260,1,170,6|2,0:0|0:0,0:0:0:0:
512,302,38643,1,8,0:0:0:0:
451,192,38760,1,0,0:0:0:0:
393,341,38877,2,0,P|351:348|309:341,1,85,2|2,0:0|0:0,0:0:0:0:
229,260,39112,1,8,0:0:0:0:
321,106,39229,6,0,B|339:99|358:79|358:79|375:150|344:199,1,170,2|2,0:0|0:0,0:0:0:0:
194,20,39581,2,0,L|278:23,1,85,8|0,0:0|0:0,0:0:0:0:
208,135,39815,2,0,L|123:138,1,85,2|2,0:0|0:0,0:0:0:0:
44,80,40049,1,8,0:0:0:0:
194,20,40167,6,0,B|212:66|212:66|195:185,1,170,6|2,0:0|0:0,0:0:0:0:
116,263,40518,2,0,P|74:256|32:262,1,85,8|0,0:0|0:0,0:0:0:0:
183,349,40752,2,0,P|224:355|266:349,1,85,2|2,0:0|0:0,0:0:0:0:
392,260,40986,1,8,0:0:0:0:
392,260,41104,6,0,B|409:371|409:371|376:359|363:336,1,170,2|2,0:0|0:0,0:0:0:0:
299,245,41456,2,0,P|315:205|345:175,1,85,8|2,0:0|0:0,0:0:0:0:
337,68,41690,2,0,L|421:77,1,85,2|2,0:0|0:0,0:0:0:0:
442,178,41924,1,8,0:0:0:0:
474,36,42042,6,0,L|304:52,1,170,6|2,0:0|0:0,0:0:0:0:
123,123,42393,2,0,P|117:81|103:42,1,85,8|0,0:0|0:0,0:0:0:0:
228,219,42627,2,0,P|234:177|248:137,1,85,2|2,0:0|0:0,0:0:0:0:
112,236,42862,2,0,P|69:234|29:245,1,85,8|2,0:0|0:0,0:0:0:0:
271,326,43096,6,0,P|228:328|187:318,1,85,0|2,0:0|0:0,0:0:0:0:
356,258,43331,1,8,0:0:0:0:
248,136,43448,2,0,L|227:218,1,85,0|2,0:0|0:0,0:0:0:0:
357,150,43682,2,0,L|336:67,1,85,2|8,0:0|0:0,0:0:0:0:
191,239,43917,6,0,B|281:234|281:234|312:257|355:257,1,170,6|2,0:0|0:0,0:0:0:0:
428,55,44268,2,0,L|343:65,1,85,8|0,0:0|0:0,0:0:0:0:
444,202,44503,2,0,L|511:150,1,85,2|2,0:0|0:0,0:0:0:0:
336,20,44737,2,0,L|302:98,1,85,8|6,0:0|0:0,0:0:0:0:
191,239,44971,6,0,L|318:235,1,127.5,8|0,0:0|0:0,0:0:0:0:
349,220,45206,2,0,P|360:260|357:302,1,85,10|10,0:0|0:0,0:0:0:0:
178,345,45440,1,8,0:0:0:0:
93,285,45557,1,4,0:0:0:0:
102,183,45674,1,10,0:0:0:0:
192,130,45792,6,0,L|361:124,1,170,6|2,0:0|0:0,0:0:0:0:
451,42,46143,2,0,P|476:75|486:116,1,85,8|0,0:0|0:0,0:0:0:0:
349,220,46377,2,0,L|264:213,2,85,2|0|8,0:0|0:0|0:0,0:0:0:0:
476,338,46729,6,0,P|514:314|443:249,1,170,2|2,0:0|0:0,0:0:0:0:
349,310,47081,2,0,L|264:316,1,85,8|2,0:0|0:0,0:0:0:0:
61,280,47315,1,2,0:0:0:0:
163,228,47432,1,2,0:0:0:0:
70,371,47549,1,10,0:0:0:0:
0,199,47667,6,0,P|11:124|77:162,1,170,6|2,0:0|0:0,0:0:0:0:
163,228,48018,2,0,P|205:230|246:223,1,85,8|2,0:0|0:0,0:0:0:0:
333,154,48252,1,12,0:0:0:0:
349,310,48370,1,12,0:0:0:0:
351,326,48604,5,12,0:0:0:0:
62,193,49190,1,8,0:0:0:0:
140,141,49307,1,8,0:0:0:0:
54,103,49424,1,8,0:0:0:0:
33,224,49542,6,0,L|202:210,1,170,6|2,0:0|0:0,0:0:0:0:
392,111,49893,2,0,P|403:155|405:201,1,85,8|0,0:0|0:0,0:0:0:0:
292,277,50127,2,0,B|281:257|276:237|276:237|283:203|275:178|275:178|271:137|279:103,1,170,2|8,0:0|0:0,0:0:0:0:
433,23,50479,6,0,B|474:56|474:56|491:124|490:184,1,170,2|2,0:0|0:0,0:0:0:0:
374,295,50831,2,0,P|339:283|287:276,1,85,8|8,0:0|0:0,0:0:0:0:
161,164,51065,1,2,0:0:0:0:
89,248,51182,1,2,0:0:0:0:
140,345,51299,1,8,0:0:0:0:
226,221,51417,6,0,B|164:162|164:162|68:156,1,170,2|2,0:0|0:0,0:0:0:0:
140,345,51768,2,0,P|182:339|222:326,1,85,8|2,0:0|0:0,0:0:0:0:
410,215,52002,2,0,P|469:204|497:306,1,170,2|8,0:0|0:0,0:0:0:0:
322,376,52354,6,0,B|323:326|323:326|319:297|319:297|325:280|325:280|321:245|321:245|321:189,1,170,2|2,0:0|0:0,0:0:0:0:
387,99,52706,2,0,P|395:49|396:11,1,85,8|2,0:0|0:0,0:0:0:0:
333,223,52940,1,10,0:0:0:0:
249,125,53057,2,0,P|241:75|240:37,1,85,0|8,0:0|0:0,0:0:0:0:
94,4,53292,6,0,P|45:53|73:160,1,170,6|2,0:0|0:0,0:0:0:0:
161,229,53643,2,0,L|255:204,1,85,8|0,0:0|0:0,0:0:0:0:
386,133,53877,2,0,P|424:178|438:215,1,85,2|2,0:0|0:0,0:0:0:0:
471,301,54112,1,8,0:0:0:0:
318,370,54229,6,0,L|331:196,1,170,2|2,0:0|0:0,0:0:0:0:
240,41,54581,2,0,P|241:83|249:125,1,85,8|0,0:0|0:0,0:0:0:0:
161,229,54815,2,0,P|159:271|151:313,1,85,2|2,0:0|0:0,0:0:0:0:
45,363,55049,1,8,0:0:0:0:
0,229,55167,6,0,P|23:174|150:158,1,170,6|2,0:0|0:0,0:0:0:0:
6,50,55518,2,0,P|2:104|9:158,1,85,8|12,0:0|0:0,0:0:0:0:
117,310,55752,2,0,P|124:268|126:225,1,85,2|12,0:0|0:0,0:0:0:0:
237,55,55987,6,0,B|265:148|225:140|256:228,1,170,8|10,0:0|0:0,0:0:0:0:
291,360,56338,1,8,0:0:0:0:
291,360,56456,2,0,P|334:359|374:347,1,85,10|0,0:0|0:0,0:0:0:0:
448,249,56690,1,10,0:0:0:0:
428,369,56807,1,8,0:0:0:0:
334,271,56924,1,10,0:0:0:0:
454,166,57042,6,0,L|479:334,1,170,6|2,0:0|0:0,0:0:0:0:
334,271,57393,2,0,L|346:186,1,85,8|0,0:0|0:0,0:0:0:0:
382,81,57627,2,0,P|424:77|464:63,1,85,2|0,0:0|0:0,0:0:0:0:
286,18,57862,2,0,P|268:56|264:98,1,85,8|2,0:0|0:0,0:0:0:0:
195,185,58096,5,0,0:0:0:0:
95,138,58213,1,2,0:0:0:0:
196,208,58331,2,0,L|277:185,1,85,8|8,0:0|0:0,0:0:0:0:
177,87,58565,1,2,0:0:0:0:
114,235,58682,1,2,0:0:0:0:
7,161,58799,1,8,0:0:0:0:
1,314,58917,6,0,B|32:315|58:303|58:303|106:337|163:309,1,170,2|2,0:0|0:0,0:0:0:0:
292,358,59268,2,0,P|283:316|269:277,1,85,8|0,0:0|0:0,0:0:0:0:
397,207,59502,2,0,P|382:246|373:288,1,85,2|10,0:0|0:0,0:0:0:0:
277,185,59737,1,8,0:0:0:0:
386,72,59854,6,0,B|405:110|410:153|410:153|436:183|453:226,1,170,2|2,0:0|0:0,0:0:0:0:
310,350,60206,2,0,P|286:314|268:276,1,85,8|2,0:0|0:0,0:0:0:0:
320,63,60440,2,0,P|343:98|361:136,1,85,8|2,0:0|0:0,0:0:0:0:
271,266,60674,1,8,0:0:0:0:
179,159,60792,6,0,B|129:146|81:166|81:166|65:195|69:233,1,170,6|0,0:0|0:0,0:0:0:0:
126,344,61143,2,0,L|210:339,1,85,2|0,0:0|0:0,0:0:0:0:
356,278,61377,2,0,L|440:283,1,85,12|0,0:0|0:0,0:0:0:0:
381,161,61612,1,2,0:0:0:0:
271,266,61729,1,2,0:0:0:0:
179,159,61846,6,0,L|196:75,1,85,4|2,0:0|0:0,0:0:0:0:
330,0,62081,2,0,L|347:83,1,85,10|10,0:0|0:0,0:0:0:0:
430,225,62315,2,0,P|473:220|511:204,2,85,8|8|6,0:0|0:0|0:0,0:0:0:0:
269,276,62667,6,0,P|208:253|138:246,1,136,6|2,0:0|0:0,0:0:0:0:
75,184,63018,2,0,L|57:249,1,68,8|2,0:0|0:0,0:0:0:0:
178,158,63252,1,0,0:0:0:0:
178,158,63311,1,0,0:0:0:0:
178,158,63370,2,0,L|161:93,1,68,2|0,0:0|0:0,0:0:0:0:
83,50,63604,6,0,P|135:10|201:16,1,136,2|2,0:0|0:0,0:0:0:0:
264,80,63956,2,0,L|331:73,1,68,2|2,0:0|0:0,0:0:0:0:
415,99,64190,2,0,P|418:66|411:33,2,68,8|8|4,0:0|0:0|0:0,0:0:0:0:
348,160,64542,6,0,P|338:226|351:293,1,136,2|2,0:0|0:0,0:0:0:0:
407,361,64893,2,0,P|440:361|473:352,1,68,2|2,0:0|0:0,0:0:0:0:
351,293,65127,1,0,0:0:0:0:
351,293,65186,1,0,0:0:0:0:
351,293,65245,2,0,P|317:292|284:301,1,68,2|8,0:0|0:0,0:0:0:0:
220,361,65479,6,0,L|84:356,1,136,2|2,0:0|0:0,0:0:0:0:
67,268,65831,2,0,L|0:275,1,68,8|2,0:0|0:0,0:0:0:0:
100,186,66065,1,8,0:0:0:0:
100,186,66182,1,8,0:0:0:0:
100,186,66299,1,8,0:0:0:0:
100,186,66417,6,0,L|235:181,1,136,6|2,0:0|0:0,0:0:0:0:
264,97,66768,2,0,L|331:104,1,68,8|8,0:0|0:0,0:0:0:0:
236,12,67002,1,0,0:0:0:0:
236,12,67061,1,0,0:0:0:0:
236,12,67120,2,0,L|169:19,1,68,2|2,0:0|0:0,0:0:0:0:
128,102,67354,6,0,L|263:97,1,136,2|2,0:0|0:0,0:0:0:0:
325,32,67706,2,0,P|345:59|357:90,1,68,8|8,0:0|0:0,0:0:0:0:
349,178,67940,2,0,L|282:185,2,68,2|8|4,0:0|0:0|0:0,0:0:0:0:
456,138,68292,6,0,B|465:123|474:103|474:103|465:167|469:216,1,152.999995330811,6|2,0:0|0:0,0:0:0:0:
452,314,68643,1,8,0:0:0:0:
357,286,68760,1,8,0:0:0:0:
272,338,68877,2,0,P|235:343|197:337,1,76.4999976654053,8|8,0:0|0:0,0:0:0:0:
72,260,69112,1,8,0:0:0:0:
138,378,69229,6,0,B|148:346|148:346|145:322|145:322|164:297|169:259|159:231,1,152.999995330811,6|2,0:0|0:0,0:0:0:0:
72,169,69581,2,0,P|34:175|1:194,1,76.4999976654053,12|0,0:0|0:0,0:0:0:0:
72,260,69815,1,12,0:0:0:0:
213,165,69932,1,4,0:0:0:0:
229,159,70167,6,0,B|235:38|235:38|215:56|208:78,1,170,6|2,0:0|0:0,0:0:0:0:
314,133,70518,2,0,P|356:137|398:134,1,85,2|0,0:0|0:0,0:0:0:0:
506,85,70752,2,0,B|499:62|479:44|479:44|485:165,1,170,12|2,0:0|0:0,0:0:0:0:
463,274,71104,6,0,B|439:269|417:255|417:255|378:271|344:249|300:276,1,170,2|2,0:0|0:0,0:0:0:0:
211,356,71456,2,0,P|191:318|181:277,1,85,2|0,0:0|0:0,0:0:0:0:
49,376,71690,2,0,P|56:291|88:213,1,170,12|2,0:0|0:0,0:0:0:0:
170,87,72042,6,0,B|175:117|157:161|157:161|136:138|103:127|70:133,1,170,2|0,0:0|0:0,0:0:0:0:
148,6,72393,2,0,P|190:6|228:23,1,85,2|2,0:0|0:0,0:0:0:0:
318,82,72627,2,0,B|374:81|445:71|445:71|426:84|415:101,1,170,12|2,0:0|0:0,0:0:0:0:
361,198,72979,6,0,B|417:197|488:187|488:187|469:200|458:217,1,170,2|2,0:0|0:0,0:0:0:0:
395,309,73331,2,0,P|352:309|310:302,1,85,8|4,0:0|0:0,0:0:0:0:
221,237,73565,2,0,B|181:232|145:243|145:243|149:336,1,170,12|4,0:0|0:0,0:0:0:0:
41,301,73917,6,0,L|56:131,1,170,6|2,0:0|0:0,0:0:0:0:
80,24,74268,2,0,P|37:22|0:39,1,85,2|0,0:0|0:0,0:0:0:0:
158,109,74502,2,0,P|242:118|317:81,1,170,12|2,0:0|0:0,0:0:0:0:
402,9,74854,6,0,L|417:179,1,170,0|2,0:0|0:0,0:0:0:0:
471,279,75206,2,0,P|429:284|394:308,1,85,2|0,0:0|0:0,0:0:0:0:
296,359,75440,2,0,L|194:354,1,85,12|2,0:0|0:0,0:0:0:0:
142,266,75674,1,8,0:0:0:0:
312,275,75792,6,0,L|142:266,1,170,6|2,0:0|0:0,0:0:0:0:
34,302,76143,2,0,P|28:261|35:219,1,85,8|2,0:0|0:0,0:0:0:0:
133,91,76377,2,0,P|139:132|133:174,1,85,8|2,0:0|0:0,0:0:0:0:
22,121,76612,1,8,0:0:0:0:
100,17,76729,6,0,L|268:42,1,170,8|8,0:0|0:0,0:0:0:0:
433,97,77081,2,0,L|348:109,1,85,8|8,0:0|0:0,0:0:0:0:
183,168,77315,2,0,L|267:180,1,85,10|8,0:0|0:0,0:0:0:0:
396,262,77549,2,0,L|312:274,1,85,10|8,0:0|0:0,0:0:0:0:
174,351,77784,5,8,0:0:0:0:
215,359,77901,1,8,0:0:0:0:
257,364,78018,1,8,0:0:0:0:
257,364,80596,6,0,L|121:371,1,136,6|8,0:0|0:0,0:0:0:0:
142,266,80948,2,0,L|6:273,1,136,8|2,0:0|0:0,0:0:0:0:
76,163,81299,2,0,L|8:166,1,68,10|8,0:0|0:0,0:0:0:0:
142,266,81534,5,8,0:0:0:0:
165,180,81651,1,8,0:0:0:0:
193,96,81768,1,8,0:0:0:0:
193,96,84346,6,0,P|258:87|302:36,1,136,6|8,0:0|0:0,0:0:0:0:
304,155,84698,2,0,P|365:180|428:158,1,136,2|8,0:0|0:0,0:0:0:0:
467,278,85049,2,0,P|435:268|402:262,1,68,8|8,0:0|0:0,0:0:0:0:
327,332,85284,5,6,0:0:0:0:
327,332,85401,2,0,B|296:321|258:322|258:322|226:335|192:331,1,136,2|2,0:0|0:0,0:0:0:0:
199,243,85752,2,0,B|150:224|150:224|110:239|67:234,1,136,8|2,0:0|0:0,0:0:0:0:
20,159,86104,6,0,L|3:294,2,136,2|2|2,0:0|0:0|0:0,0:0:0:0:
199,243,86690,2,0,L|182:107,1,136,8|8,0:0|0:0,0:0:0:0:
101,184,87041,1,2,0:0:0:0:
22,71,87159,5,6,0:0:0:0:
22,71,87276,2,0,P|89:66|146:30,1,136,2|2,0:0|0:0,0:0:0:0:
207,113,87627,2,0,P|274:121|341:112,1,136,8|8,0:0|0:0,0:0:0:0:
442,131,87979,6,0,B|443:95|430:60|430:60|462:41|477:17,2,136,2|2|2,0:0|0:0|0:0,0:0:0:0:
377,210,88565,2,0,L|386:277,1,68,8|2,0:0|0:0,0:0:0:0:
468,338,88799,2,0,L|477:270,1,68,8|2,0:0|0:0,0:0:0:0:
327,175,89034,5,6,0:0:0:0:
327,175,89151,2,0,B|342:260|342:260|317:257|292:263,1,136,2|2,0:0|0:0,0:0:0:0:
186,356,89502,2,0,L|321:344,1,136,8|8,0:0|0:0,0:0:0:0:
211,216,89854,6,0,P|191:243|166:266,1,68,2|0,0:0|0:0,0:0:0:0:
74,292,90088,2,0,P|139:306|185:355,1,136,2|2,0:0|0:0,0:0:0:0:
29,354,90440,2,0,P|45:288|46:220,1,136,8|2,0:0|0:0,0:0:0:0:
11,139,90791,1,8,0:0:0:0:
130,191,90909,5,6,0:0:0:0:
130,191,91026,2,0,P|113:125|112:57,1,136,2|2,0:0|0:0,0:0:0:0:
244,8,91377,2,0,P|260:73|261:141,1,136,8|10,0:0|0:0,0:0:0:0:
211,216,91729,1,8,0:0:0:0:
277,272,91846,6,0,P|311:267|344:258,1,68,6|8,0:0|0:0,0:0:0:0:
444,204,92080,2,0,P|431:235|422:268,1,68,8|4,0:0|0:0,0:0:0:0:
421,384,92314,2,0,P|400:357|375:333,1,68,10|10,0:0|0:0,0:0:0:0:
375,299,92666,6,0,B|316:300|316:300|261:318|261:318|208:322,1,170,6|2,0:0|0:0,0:0:0:0:
108,266,93017,2,0,P|66:267|25:277,1,85,8|0,0:0|0:0,0:0:0:0:
183,130,93251,2,0,P|197:169|204:211,2,85,2|2|8,0:0|0:0|0:0,0:0:0:0:
83,98,93603,6,0,P|164:99|213:33,1,170,0|2,0:0|0:0,0:0:0:0:
297,137,93955,2,0,P|339:138|381:141,1,85,8|0,0:0|0:0,0:0:0:0:
441,63,94189,1,2,0:0:0:0:
512,217,94306,2,0,P|469:217|427:221,1,85,2|8,0:0|0:0,0:0:0:0:
304,275,94541,6,0,P|385:297|450:351,1,170,6|2,0:0|0:0,0:0:0:0:
276,379,94892,2,0,P|233:378|191:374,1,85,8|2,0:0|0:0,0:0:0:0:
312,265,95126,2,0,P|393:287|458:341,1,170,2|8,0:0|0:0,0:0:0:0:
210,215,95478,6,0,P|127:234|45:216,1,170,2|2,0:0|0:0,0:0:0:0:
83,97,95830,2,0,P|124:91|166:96,1,85,8|8,0:0|0:0,0:0:0:0:
280,157,96064,2,0,P|321:163|363:158,2,85,2|2|8,0:0|0:0|0:0,0:0:0:0:
197,60,96416,6,0,L|176:235,1,170,6|2,0:0|0:0,0:0:0:0:
184,383,96767,2,0,P|226:381|268:373,1,85,8|0,0:0|0:0,0:0:0:0:
105,306,97001,2,0,P|63:297|20:296,1,85,2|2,0:0|0:0,0:0:0:0:
176,228,97236,2,0,P|217:236|260:237,1,85,8|0,0:0|0:0,0:0:0:0:
386,187,97470,5,2,0:0:0:0:
337,95,97587,2,0,P|303:121|279:156,1,85,2|8,0:0|0:0,0:0:0:0:
302,302,97822,2,0,B|324:293|344:282|344:282|385:302|436:293|457:263,1,170,2|2,0:0|0:0,0:0:0:0:
386,187,98173,1,8,0:0:0:0:
386,187,98291,6,0,L|413:354,1,170,6|2,0:0|0:0,0:0:0:0:
512,188,98642,2,0,L|501:272,1,85,8|0,0:0|0:0,0:0:0:0:
372,103,98876,2,0,L|385:186,1,85,2|2,0:0|0:0,0:0:0:0:
512,65,99111,2,0,L|501:149,1,85,8|0,0:0|0:0,0:0:0:0:
322,0,99345,6,0,L|338:126,1,127.5,12|0,0:0|0:0,0:0:0:0:
313,150,99580,2,0,P|271:158|229:154,1,85,8|2,0:0|0:0,0:0:0:0:
140,63,99814,1,8,0:0:0:0:
117,170,99931,1,4,0:0:0:0:
33,97,100048,1,10,0:0:0:0:
19,217,100166,6,0,B|56:215|86:202|86:202|118:242|162:267,1,170,6|2,0:0|0:0,0:0:0:0:
248,203,100517,2,0,P|263:243|272:285,1,85,8|0,0:0|0:0,0:0:0:0:
191,364,100751,2,0,P|148:363|107:355,2,85,2|8|2,0:0|0:0|0:0,0:0:0:0:
355,367,101103,6,0,P|380:286|388:201,1,170,8|8,0:0|0:0,0:0:0:0:
375,61,101455,1,2,0:0:0:0:
313,150,101572,1,2,0:0:0:0:
423,202,101689,2,0,L|522:192,1,85,2|2,0:0|0:0,0:0:0:0:
375,61,101923,1,8,0:0:0:0:
313,150,102041,6,0,L|143:132,1,170,6|2,0:0|0:0,0:0:0:0:
31,124,102392,2,0,P|45:84|71:50,1,85,8|10,0:0|0:0,0:0:0:0:
38,234,102626,1,12,0:0:0:0:
178,214,102744,1,12,0:0:0:0:
194,210,102978,5,12,0:0:0:0:
11,329,103564,5,8,0:0:0:0:
110,307,103681,1,8,0:0:0:0:
38,234,103799,1,8,0:0:0:0:
0,355,103916,6,0,P|83:339|168:331,1,170,6|2,0:0|0:0,0:0:0:0:
288,217,104267,2,0,P|272:256|249:292,1,85,8|2,0:0|0:0,0:0:0:0:
245,377,104501,2,0,B|250:336|240:289|240:289|252:248|273:215,1,170,2|8,0:0|0:0,0:0:0:0:
366,143,104853,6,0,P|413:195|435:127,1,170,2|2,0:0|0:0,0:0:0:0:
411,274,105205,2,0,P|452:264|487:242,1,85,8|0,0:0|0:0,0:0:0:0:
480,65,105439,2,0,B|437:76|395:63|395:63|354:52|312:70,1,170,2|8,0:0|0:0,0:0:0:0:
218,136,105791,6,0,B|233:80|217:16|217:16|203:38|195:59,1,170,2|2,0:0|0:0,0:0:0:0:
115,130,106142,2,0,P|72:131|32:145,1,85,8|8,0:0|0:0,0:0:0:0:
150,223,106376,2,0,P|91:166|11:180,1,170,2|8,0:0|0:0,0:0:0:0:
78,319,106728,6,0,P|141:267|221:286,1,170,2|2,0:0|0:0,0:0:0:0:
290,366,107080,2,0,P|330:352|372:341,1,85,8|2,0:0|0:0,0:0:0:0:
392,153,107314,1,10,0:0:0:0:
423,249,107431,1,8,0:0:0:0:
512,162,107548,1,2,0:0:0:0:
448,270,107666,6,0,L|410:104,1,170,6|2,0:0|0:0,0:0:0:0:
305,191,108017,1,8,0:0:0:0:
240,108,108134,1,0,0:0:0:0:
325,12,108251,2,0,P|331:60|321:109,1,85,2|2,0:0|0:0,0:0:0:0:
298,197,108486,1,8,0:0:0:0:
82,148,108603,6,0,B|128:112|128:112|245:107,1,170,2|2,0:0|0:0,0:0:0:0:
313,294,108955,2,0,P|268:291|222:267,1,85,8|0,0:0|0:0,0:0:0:0:
78,278,109189,1,2,0:0:0:0:
165,201,109306,2,0,P|189:246|195:287,1,85,0|8,0:0|0:0,0:0:0:0:
301,374,109541,6,0,P|315:283|346:192,1,170,2|2,0:0|0:0,0:0:0:0:
403,104,109892,2,0,P|396:62|379:23,1,85,10|0,0:0|0:0,0:0:0:0:
428,218,110126,1,2,0:0:0:0:
504,162,110244,1,12,0:0:0:0:
372,118,110361,2,0,P|331:109|274:115,1,85,8|6,0:0|0:0,0:0:0:0:
195,170,110595,6,0,P|187:128|170:89,1,85,6|8,0:0|0:0,0:0:0:0:
7,150,110830,2,0,P|48:159|105:153,1,85,10|10,0:0|0:0,0:0:0:0:
253,232,111064,1,10,0:0:0:0:
140,233,111181,1,8,0:0:0:0:
267,263,111298,1,10,0:0:0:0:
114,292,111416,6,0,B|54:287|-15:275|-15:275|14:290|40:293,1,170,6|2,0:0|0:0,0:0:0:0:
185,384,111767,2,0,P|195:341|203:272,1,85,8|0,0:0|0:0,0:0:0:0:
330,197,112001,2,0,P|336:239|346:280,1,85,2|2,0:0|0:0,0:0:0:0:
482,351,112236,2,0,P|492:309|498:267,1,85,8|2,0:0|0:0,0:0:0:0:
512,107,112470,6,0,P|459:130|433:148,1,85,0|2,0:0|0:0,0:0:0:0:
330,197,112705,2,0,P|294:174|254:158,1,85,8|8,0:0|0:0,0:0:0:0:
147,89,112939,2,0,P|94:115|59:124,2,85,2|0|8,0:0|0:0|0:0,0:0:0:0:
212,7,113291,6,0,L|197:194,1,170,2|2,0:0|0:0,0:0:0:0:
94,266,113642,2,0,L|116:347,1,85,8|2,0:0|0:0,0:0:0:0:
348,250,113876,2,0,L|244:221,1,85,0|2,0:0|0:0,0:0:0:0:
204,306,114111,1,8,0:0:0:0:
359,356,114228,6,0,P|358:271|335:189,1,170,2|2,0:0|0:0,0:0:0:0:
464,275,114580,2,0,P|474:233|479:191,1,85,8|2,0:0|0:0,0:0:0:0:
496,48,114814,1,8,0:0:0:0:
401,86,114931,1,2,0:0:0:0:
307,59,115048,1,8,0:0:0:0:
264,147,115166,6,0,P|335:152|404:60,1,170,6|2,0:0|0:0,0:0:0:0:
199,59,115517,2,0,P|176:103|149:141,1,85,2|0,0:0|0:0,0:0:0:0:
75,41,115751,2,0,P|57:134|37:214,1,170,12|2,0:0|0:0,0:0:0:0:
222,255,116103,1,2,0:0:0:0:
128,212,116220,6,0,P|133:259|136:327,1,85,12|2,0:0|0:0,0:0:0:0:
250,361,116455,2,0,P|252:318|257:276,1,85,8|2,0:0|0:0,0:0:0:0:
319,106,116689,1,8,0:0:0:0:
354,263,116806,1,4,0:0:0:0:
352,107,116923,1,10,0:0:0:0:
446,224,117041,1,12,0:0:0:0:
256,192,117099,12,0,117978,0:0:0:0:
64,291,124541,6,0,P|108:291|194:338,1,136,6|2,0:0|0:0,0:0:0:0:
273,208,124892,2,0,P|226:217|188:241,1,68,2|0,0:0|0:0,0:0:0:0:
136,138,125126,2,0,P|120:170|103:210,2,68,8|0|2,0:0|0:0|0:0,0:0:0:0:
249,74,125478,6,0,P|254:127|278:226,1,136,2|2,0:0|0:0,0:0:0:0:
347,344,125830,2,0,P|351:303|357:270,1,68,2|0,0:0|0:0,0:0:0:0:
483,181,126064,2,0,P|439:165|348:203,1,136,8|2,0:0|0:0,0:0:0:0:
254,335,126416,6,0,P|210:351|119:313,1,136,2|2,0:0|0:0,0:0:0:0:
41,246,126767,2,0,L|55:166,1,68,2|2,0:0|0:0,0:0:0:0:
146,116,127001,2,0,L|132:36,2,68,8|8|2,0:0|0:0|0:0,0:0:0:0:
237,205,127353,6,0,B|249:186|256:156|256:156|247:53,1,136,2|8,0:0|0:0,0:0:0:0:
147,215,127705,1,2,0:0:0:0:
292,277,127822,2,0,P|321:240|332:216,1,68,2|8,0:0|0:0,0:0:0:0:
400,125,128056,2,0,P|429:162|440:186,1,68,8|8,0:0|0:0,0:0:0:0:
511,292,128291,6,0,B|474:268|474:268|367:294,1,136,6|2,0:0|0:0,0:0:0:0:
247,364,128642,2,0,L|174:342,1,68,2|0,0:0|0:0,0:0:0:0:
31,281,128876,1,8,0:0:0:0:
131,259,128994,2,0,L|204:237,1,68,0|2,0:0|0:0,0:0:0:0:
318,146,129228,6,0,P|268:139|177:138,1,136,2|2,0:0|0:0,0:0:0:0:
284,288,129580,2,0,P|309:249|317:216,1,68,2|0,0:0|0:0,0:0:0:0:
405,77,129814,2,0,P|345:44|280:26,1,136,8|8,0:0|0:0,0:0:0:0:
23,112,130166,6,0,P|63:103|159:53,1,136,2|2,0:0|0:0,0:0:0:0:
147,61,130517,1,12,0:0:0:0:
147,297,130634,5,6,0:0:0:0:
202,139,130869,1,12,0:0:0:0:
66,213,131103,1,12,0:0:0:0:
66,213,131689,5,8,0:0:0:0:
202,139,131806,1,8,0:0:0:0:
147,297,131923,1,8,0:0:0:0:
66,213,132041,6,0,B|103:210|128:223|128:223|174:211|174:211|209:224|240:222,1,170,6|2,0:0|0:0,0:0:0:0:
320,76,132392,2,0,L|330:169,1,85,8|0,0:0|0:0,0:0:0:0:
289,290,132626,1,2,0:0:0:0:
411,195,132744,2,0,L|420:279,1,85,2|8,0:0|0:0,0:0:0:0:
508,209,132978,6,0,P|507:162|390:108,1,170,2|2,0:0|0:0,0:0:0:0:
316,183,133330,1,8,0:0:0:0:
238,61,133447,1,0,0:0:0:0:
162,210,133564,2,0,P|170:261|178:300,1,85,2|2,0:0|0:0,0:0:0:0:
229,146,133798,1,8,0:0:0:0:
126,60,133916,6,0,P|83:78|81:206,1,170,2|2,0:0|0:0,0:0:0:0:
186,305,134267,2,0,P|235:285|277:274,1,85,8|8,0:0|0:0,0:0:0:0:
419,184,134501,1,2,0:0:0:0:
313,118,134619,1,2,0:0:0:0:
294,287,134736,1,8,0:0:0:0:
473,255,134853,6,0,P|511:182|469:113,1,170,2|2,0:0|0:0,0:0:0:0:
384,285,135205,2,0,P|381:327|381:375,1,85,8|0,0:0|0:0,0:0:0:0:
330,205,135439,1,4,0:0:0:0:
248,359,135556,2,0,B|178:317|178:317|152:223,1,170,8|2,0:0|0:0,0:0:0:0:
238,59,135908,6,0,P|230:93|228:124,7,42.5,6|0|0|0|2|0|0|0,0:0|0:0|0:0|0:0|0:0|0:0|0:0|0:0,0:0:0:0:
235,203,136376,2,0,P|248:229|252:253,3,42.5,2|0|2|0,0:0|0:0|0:0|0:0,0:0:0:0:
135,153,136611,2,0,P|85:139|34:137,1,85,0|2,0:0|0:0,0:0:0:0:
0,271,136845,6,0,P|29:259|55:256,7,42.5,6|0|2|0|2|0|2|0,0:0|0:0|0:0|0:0|0:0|0:0|0:0|0:0,0:0:0:0:
61,236,137314,1,0,0:0:0:0:
58,265,137373,1,0,0:0:0:0:
64,293,137431,1,2,0:0:0:0:
74,321,137490,1,0,0:0:0:0:
95,340,137548,2,0,P|112:317|119:298,1,42.5,2|0,0:0|0:0,0:0:0:0:
142,229,137666,6,0,P|145:293|262:317,1,170,6|2,0:0|0:0,0:0:0:0:
363,281,138017,2,0,B|431:269|463:268,1,85,8|0,0:0|0:0,0:0:0:0:
275,232,138251,1,2,0:0:0:0:
393,144,138369,2,0,P|453:166|481:187,1,85,2|8,0:0|0:0,0:0:0:0:
299,63,138603,6,0,L|273:241,1,170,2|2,0:0|0:0,0:0:0:0:
107,109,138955,2,0,P|110:165|121:197,1,85,8|2,0:0|0:0,0:0:0:0:
193,267,139189,2,0,L|198:97,1,170,8|8,0:0|0:0,0:0:0:0:
136,3,139541,6,0,P|101:15|76:21,3,42.5,6|0|0|0,0:0|0:0|0:0|0:0,0:0:0:0:
20,76,139775,2,0,P|5:99|-4:123,3,42.5,2|0|2|0,0:0|0:0|0:0|0:0,0:0:0:0:
82,171,140009,2,0,P|107:188|144:193,3,42.5,0|0|2|0,0:0|0:0|0:0|0:0,0:0:0:0:
42,276,140244,6,0,P|27:299|18:323,5,42.5,2|0|2|0|2|0,0:0|0:0|0:0|0:0|0:0|0:0,0:0:0:0:
11,335,140595,5,2,0:0:0:0:
32,337,140654,1,0,0:0:0:0:
53,336,140712,1,0,0:0:0:0:
74,332,140771,1,0,0:0:0:0:
94,326,140829,1,2,0:0:0:0:
115,326,140888,1,0,0:0:0:0:
135,330,140947,1,2,0:0:0:0:
155,333,141005,1,0,0:0:0:0:
175,338,141064,6,0,P|194:305|199:287,1,42.5,2|0,0:0|0:0,0:0:0:0:
219,233,141181,2,0,P|238:266|243:284,1,42.5,2|0,0:0|0:0,0:0:0:0:
276,322,141298,2,0,P|295:289|300:271,1,42.5,2|0,0:0|0:0,0:0:0:0:
314,249,141415,2,0,P|333:282|338:300,1,42.5,2|0,0:0|0:0,0:0:0:0:
369,312,141533,6,0,P|393:307|422:295,7,42.5,0|0|2|0|2|0|2|0,0:0|0:0|0:0|0:0|0:0|0:0|0:0|0:0,0:0:0:0:
476,226,142001,2,0,P|482:212|491:176,7,42.5,2|0|0|0|2|0|2|0,0:0|0:0|0:0|0:0|0:0|0:0|0:0|0:0,0:0:0:0:
486,164,142470,5,0,0:0:0:0:
482,142,142529,1,0,0:0:0:0:
482,120,142587,1,2,0:0:0:0:
484,98,142646,1,0,0:0:0:0:
489,77,142705,6,0,P|506:102|516:127,1,42.5,8|0,0:0|0:0,0:0:0:0:
394,183,142822,2,0,L|399:128,1,42.5,2|0,0:0|0:0,0:0:0:0:
351,53,142939,2,0,P|305:40|234:81,1,127.5,4|0,0:0|0:0,0:0:0:0:
168,145,143173,2,0,P|123:124|82:111,1,85,8|6,0:0|0:0,0:0:0:0:
74,78,143349,6,0,P|80:44|87:25,8,42.5,0|0|0|2|0|2|0|0|0,0:0|0:0|0:0|0:0|0:0|0:0|0:0|0:0|0:0,0:0:0:0:
167,144,143876,6,0,P|173:164|176:186,3,42.5,2|0|2|0,0:0|0:0|0:0|0:0,0:0:0:0:
31,232,144111,2,0,P|33:210|39:190,3,42.5,2|0|2|0,0:0|0:0|0:0|0:0,0:0:0:0:
52,173,144345,6,0,P|69:241|73:275,1,85,2|2,0:0|0:0,0:0:0:0:
188,384,144580,2,0,P|195:342|207:301,1,85,8|0,0:0|0:0,0:0:0:0:
330,237,144814,5,2,0:0:0:0:
359,234,144873,1,2,0:0:0:0:
388,238,144931,1,10,0:0:0:0:
415,250,144990,1,4,0:0:0:0:
433,273,145048,2,0,P|450:320|454:364,1,85,8|2,0:0|0:0,0:0:0:0:
354,147,145322,6,0,P|350:93|360:32,2,113.333333333333,2|2|2,0:0|0:0|0:0,0:0:0:0:
233,214,145751,6,0,P|204:201|182:188,7,42.5,2|0|2|0|2|0|2|0,0:0|0:0|0:0|0:0|0:0|0:0|0:0|0:0,0:0:0:0:
177,183,146220,5,0,0:0:0:0:
169,203,146279,1,0,0:0:0:0:
168,224,146337,1,2,0:0:0:0:
169,245,146396,1,0,0:0:0:0:
177,264,146455,1,2,0:0:0:0:
182,284,146513,1,0,0:0:0:0:
183,305,146572,1,2,0:0:0:0:
182,326,146630,1,0,0:0:0:0:
176,346,146689,6,0,P|125:340|63:322,2,85,8|10|8,0:0|0:0|0:0,0:0:0:0:
366,303,147158,6,8,P|392:290|433:282,5,56.6666666666667,12|8|8|8|4|8,0:0|0:0|0:0|0:0|0:0|0:0,0:0:0:0:
495,212,147626,2,0,P|502:189|503:139,5,56.6666666666667,12|8|8|8|8|2,0:0|0:0|0:0|0:0|0:0|0:0,0:0:0:0:
409,103,148095,2,0,P|402:80|401:30,5,56.6666666666667,12|8|8|8|8|2,0:0|0:0|0:0|0:0|0:0|0:0,0:0:0:0:
326,189,148564,6,0,B|316:219|316:219|312:252,2,56.6666666666667,12|8|8,0:0|0:0|0:0,0:0:0:0:
234,105,148798,2,0,B|230:80|230:80|220:50,2,56.6666666666667,8|8|8,0:0|0:0|0:0,0:0:0:0:
174,235,149033,6,0,B|164:265|164:265|160:289,5,56.6666666666667,12|8|8|12|8|8,0:0|0:0|0:0|0:0|0:0|0:0,0:0:0:0:
28,223,149501,5,8,0:0:0:0:
28,223,149580,2,0,B|49:206|49:206|76:195,1,56.6666666666667,8|8,0:0|0:0,0:0:0:0:
125,73,149736,1,12,0:0:0:0:
125,73,149814,2,0,B|136:95|136:95|145:125,1,56.6666666666667,8|8,0:0|0:0,0:0:0:0:
255,196,149970,6,0,P|294:149|299:66,1,127.5,12|0,0:0|0:0,0:0:0:0:
174,235,150205,2,0,P|181:298|202:377,1,127.5,12|0,0:0|0:0,0:0:0:0:
320,266,150439,2,0,P|333:243|344:221,1,42.5,10|4,0:0|0:0,0:0:0:0:
346,214,150791,6,0,B|355:249|356:287|356:287|392:324|409:369,1,170,6|2,0:0|0:0,0:0:0:0:
509,212,151142,2,0,P|466:229|435:254,1,85,8|0,0:0|0:0,0:0:0:0:
193,161,151376,2,0,P|242:200|375:205,1,170,2|8,0:0|0:0,0:0:0:0:
512,69,151728,6,0,P|463:108|330:113,1,170,0|2,0:0|0:0,0:0:0:0:
262,7,152080,2,0,L|251:91,1,85,8|0,0:0|0:0,0:0:0:0:
145,204,152314,2,0,L|134:119,1,85,2|2,0:0|0:0,0:0:0:0:
56,60,152548,1,8,0:0:0:0:
2,224,152666,6,0,B|46:205|46:205|192:238,1,170,2|2,0:0|0:0,0:0:0:0:
87,366,153017,2,0,P|57:321|50:284,1,85,8|0,0:0|0:0,0:0:0:0:
229,175,153251,2,0,B|248:219|248:219|215:365,1,170,2|8,0:0|0:0,0:0:0:0:
2,224,153603,6,0,B|46:205|46:205|192:238,1,170,2|2,0:0|0:0,0:0:0:0:
307,331,153955,2,0,P|353:326|395:306,1,85,8|8,0:0|0:0,0:0:0:0:
454,155,154189,1,2,0:0:0:0:
321,211,154306,2,0,P|375:226|420:225,1,85,2|8,0:0|0:0,0:0:0:0:
496,314,154541,6,0,P|459:243|456:143,1,170,6|2,0:0|0:0,0:0:0:0:
485,29,154892,2,0,P|455:58|417:78,1,85,8|0,0:0|0:0,0:0:0:0:
175,93,155126,2,0,P|217:99|256:116,1,85,2|2,0:0|0:0,0:0:0:0:
308,0,155361,2,0,P|323:39|333:80,1,85,8|0,0:0|0:0,0:0:0:0:
453,153,155595,6,0,P|442:195|428:235,1,85,2|2,0:0|0:0,0:0:0:0:
311,269,155830,1,8,0:0:0:0:
256,116,155947,2,0,B|172:92|172:92|72:113,1,170,2|2,0:0|0:0,0:0:0:0:
3,207,156298,1,8,0:0:0:0:
138,362,156416,6,0,P|154:277|168:173,1,170,6|2,0:0|0:0,0:0:0:0:
332,58,156767,2,0,P|347:97|357:138,1,85,8|2,0:0|0:0,0:0:0:0:
512,222,157001,2,0,P|469:227|428:234,1,85,0|2,0:0|0:0,0:0:0:0:
345,317,157236,2,0,P|298:312|245:301,1,85,8|2,0:0|0:0,0:0:0:0:
165,195,157470,6,0,B|211:197|211:197|310:151,1,127.5,12|0,0:0|0:0,0:0:0:0:
317,149,157705,2,0,P|323:100|332:57,1,85,8|2,0:0|0:0,0:0:0:0:
142,12,157939,2,0,P|150:53|155:95,1,85,8|6,0:0|0:0,0:0:0:0:
165,195,158173,1,8,0:0:0:0:
0,170,158291,6,0,P|-5:103|84:139,1,170,6|2,0:0|0:0,0:0:0:0:
165,195,158642,2,0,P|156:236|151:278,1,85,8|2,0:0|0:0,0:0:0:0:
25,336,158876,2,0,P|20:251|0:169,1,170,2|8,0:0|0:0,0:0:0:0:
267,123,159228,6,0,P|246:205|241:289,1,170,2|2,0:0|0:0,0:0:0:0:
113,354,159580,2,0,P|108:311|99:270,1,85,8|2,0:0|0:0,0:0:0:0:
77,107,159814,1,8,0:0:0:0:
165,195,159931,1,2,0:0:0:0:
220,51,160048,1,8,0:0:0:0:
367,140,160166,6,0,P|417:154|497:57,1,170,6|2,0:0|0:0,0:0:0:0:
303,10,160517,2,0,L|299:107,1,85,8|10,0:0|0:0,0:0:0:0:
292,223,160751,1,12,0:0:0:0:
485,251,160869,1,12,0:0:0:0:
501,254,161103,5,12,0:0:0:0:
66,200,164970,6,0,L|57:276,1,63.75,4|0,0:0|2:0,0:0:0:0:
228,263,165205,2,0,L|239:344,1,63.75,4|0,0:0|2:0,0:0:0:0:
147,359,165439,5,8,0:0:0:0:
139,274,165556,1,8,0:0:0:0:
155,190,165673,1,8,0:0:0:0:
130,108,165791,6,0,P|92:59|39:130,1,170,6|2,0:0|0:0,0:0:0:0:
155,190,166142,2,0,L|252:175,1,85,8|2,0:0|0:0,0:0:0:0:
492,142,166376,2,0,L|408:130,1,85,2|0,0:0|0:0,0:0:0:0:
319,34,166611,1,8,0:0:0:0:
319,34,166728,6,0,B|317:95|317:95|328:144|328:144|320:208,1,170,2|2,0:0|0:0,0:0:0:0:
504,281,167080,2,0,P|512:325|509:374,1,85,8|8,0:0|0:0,0:0:0:0:
415,215,167314,2,0,P|409:265|322:347,1,170,2|8,0:0|0:0,0:0:0:0:
87,295,167666,6,0,B|130:263|130:263|277:278,1,170,6|2,0:0|0:0,0:0:0:0:
351,118,168017,2,0,P|313:119|266:127,1,85,8|0,0:0|0:0,0:0:0:0:
95,177,168251,2,0,P|53:168|10:167,1,85,2|2,0:0|0:0,0:0:0:0:
185,52,168486,1,8,0:0:0:0:
185,52,168603,6,0,B|187:113|187:113|176:162|176:162|184:226,1,170,2|2,0:0|0:0,0:0:0:0:
210,351,168955,1,8,0:0:0:0:
87,295,169072,1,10,0:0:0:0:
235,360,169189,2,0,P|280:341|314:318,1,85,8|6,0:0|0:0,0:0:0:0:
372,224,169423,1,8,0:0:0:0:
470,352,169541,6,0,P|485:298|486:177,1,170,6|2,0:0|0:0,0:0:0:0:
275,159,169892,2,0,P|277:204|283:252,1,85,8|0,0:0|0:0,0:0:0:0:
389,356,170126,1,2,0:0:0:0:
372,224,170244,1,2,0:0:0:0:
429,107,170361,1,8,0:0:0:0:
334,25,170478,6,0,P|281:27|188:109,1,170,2|2,0:0|0:0,0:0:0:0:
120,305,170830,2,0,P|127:254|130:209,1,85,8|8,0:0|0:0,0:0:0:0:
101,86,171064,1,2,0:0:0:0:
200,182,171181,1,0,0:0:0:0:
41,264,171298,1,8,0:0:0:0:
194,366,171416,6,0,B|229:343|243:321|277:208,1,170,6|2,0:0|0:0,0:0:0:0:
334,25,171767,2,0,P|346:75|361:116,1,85,8|2,0:0|0:0,0:0:0:0:
494,209,172001,1,12,0:0:0:0:
343,179,172119,1,4,0:0:0:0:
507,92,172236,2,0,P|495:142|480:183,1,85,10|8,0:0|0:0,0:0:0:0:
413,351,172470,6,0,P|406:308|401:266,1,85,10|8,0:0|0:0,0:0:0:0:
240,298,172705,2,0,P|260:251|278:210,1,85,6|8,0:0|0:0,0:0:0:0:
431,68,172939,1,10,0:0:0:0:
400,258,173056,1,8,0:0:0:0:
239,143,173173,1,10,0:0:0:0:
219,321,173291,6,0,P|233:261|238:136,1,170,6|2,0:0|0:0,0:0:0:0:
186,48,173642,1,8,0:0:0:0:
146,220,173759,1,0,0:0:0:0:
71,93,173876,2,0,P|67:43|70:2,1,85,2|2,0:0|0:0,0:0:0:0:
13,257,174111,2,0,P|9:307|12:348,1,85,8|0,0:0|0:0,0:0:0:0:
146,220,174345,6,0,P|148:177|144:135,1,85,2|2,0:0|0:0,0:0:0:0:
301,301,174580,2,0,B|255:315|207:322,1,85,8|8,0:0|0:0,0:0:0:0:
111,346,174814,1,2,0:0:0:0:
249,221,174931,1,8,0:0:0:0:
101,356,175048,1,8,0:0:0:0:
316,384,175166,6,0,P|370:360|379:257,1,170,6|2,0:0|0:0,0:0:0:0:
286,129,175517,2,0,L|195:127,1,85,8|2,0:0|0:0,0:0:0:0:
389,25,175751,2,0,P|401:80|407:126,1,85,2|2,0:0|0:0,0:0:0:0:
506,197,175986,1,8,0:0:0:0:
506,197,176103,6,0,B|449:188|449:188|395:212|395:212|338:195,1,170,6|8,0:0|0:0,0:0:0:0:
254,303,176455,2,0,P|221:275|194:235,1,85,2|8,0:0|0:0,0:0:0:0:
120,69,176689,1,8,0:0:0:0:
26,142,176806,1,2,0:0:0:0:
46,258,176923,1,8,0:0:0:0:
179,153,177041,6,0,P|126:120|13:153,1,170,6|2,0:0|0:0,0:0:0:0:
102,371,177392,2,0,P|115:334|128:286,1,85,2|0,0:0|0:0,0:0:0:0:
265,133,177626,2,0,P|276:174|290:214,1,85,12|0,0:0|0:0,0:0:0:0:
383,304,177861,1,2,0:0:0:0:
218,338,177978,6,0,P|271:316|387:304,1,170,6|2,0:0|0:0,0:0:0:0:
496,155,178330,2,0,P|457:163|399:190,1,85,8|8,0:0|0:0,0:0:0:0:
290,214,178564,1,2,0:0:0:0:
244,37,178681,2,0,P|283:45|341:72,1,85,8|4,0:0|0:0,0:0:0:0:
446,129,178916,5,4,0:0:0:0:
256,192,178974,12,0,180791,0:0:0:0:
