osu file format v14

[General]
AudioFilename: audio.mp3
AudioLeadIn: 0
PreviewTime: 80445
Countdown: 0
SampleSet: Soft
StackLeniency: 0.7
Mode: 0
LetterboxInBreaks: 0
WidescreenStoryboard: 1

[Editor]
DistanceSpacing: 1
BeatDivisor: 2
GridSize: 8
TimelineZoom: 2

[Metadata]
Title:Shifting Clouds
TitleUnicode:Shifting Clouds
Artist:SAMString
ArtistUnicode:SAMString
Creator:Entry
Version:Normal
Source:
Tags:electronic instrumental sakura drum and bass dnb artcore
BeatmapID:3466289
BeatmapSetID:1654451

[Difficulty]
HPDrainRate:4
CircleSize:3
OverallDifficulty:4
ApproachRate:5.5
SliderMultiplier:1
SliderTickRate:1

[Events]
//Background and Video events
0,0,"d.jpg",0,0
//Break Periods
2,28428,32445
//Storyboard Layer 0 (Background)
//Storyboard Layer 1 (Fail)
//Storyboard Layer 2 (Pass)
//Storyboard Layer 3 (Foreground)
//Storyboard Layer 4 (Overlay)
//Storyboard Sound Samples

[TimingPoints]
5201,324.324324324324,4,2,1,50,1,0
12903,-100,4,2,1,5,0,0
12984,-100,4,2,1,50,0,0
15579,-100,4,2,1,70,0,0
15903,-100,4,2,1,65,0,0
16228,-100,4,2,1,60,0,0
16552,-100,4,2,1,55,0,0
16876,-100,4,2,1,50,0,0
17201,-100,4,2,1,45,0,0
17525,-100,4,2,1,40,0,0
18092,-100,4,2,1,5,0,0
18173,324.324324324324,4,2,1,50,1,0
18174,-100,4,2,1,70,0,0
28552,-100,4,2,1,50,0,0
33741,-100,4,2,1,70,0,0
34065,-100,4,2,1,65,0,0
34390,-100,4,2,1,60,0,0
34714,-100,4,2,1,55,0,0
35038,-100,4,2,1,50,0,0
35363,-100,4,2,1,45,0,0
35687,-100,4,2,1,40,0,0
36255,-100,4,2,1,5,0,0
36335,324.324324324324,4,2,1,50,1,0
36336,-100,4,2,1,80,0,0
36579,-100,4,2,1,5,0,0
36660,-100,4,2,1,80,0,0
41525,-100,4,2,1,70,0,0
46714,-100,4,2,1,80,0,0
50200,-100,4,2,1,5,0,0
50282,-100,4,2,1,80,0,0
51498,-100,4,2,1,5,0,0
51579,-100,4,2,1,80,0,0
51903,-100,4,2,1,70,0,0
57011,-100,4,2,1,5,0,0
57092,-100,4,2,1,80,0,0
62282,-100,4,2,1,70,0,0
65119,-100,4,2,1,5,0,0
65200,-100,4,2,1,70,0,0
66417,-100,4,2,1,5,0,0
66498,-100,4,2,1,70,0,0
70957,-100,4,2,1,5,0,0
71038,-100,4,2,1,70,0,0
72660,-100,4,2,1,75,0,0
75255,-100,4,2,1,80,0,0
76552,-100,4,2,1,82,0,0
76876,-100,4,2,1,84,0,0
77201,-100,4,2,1,86,0,0
77525,-100,4,2,1,88,0,0
77849,-100,4,2,1,70,0,0
78173,-100,4,2,1,65,0,0
78498,-100,4,2,1,60,0,0
78822,-100,4,2,1,55,0,0
79146,-100,4,2,1,50,0,0
79471,-100,4,2,1,45,0,0
79795,-100,4,2,1,40,0,0
80363,-100,4,2,1,5,0,0
80443,324.324324324324,4,2,1,50,1,0
80444,-100,4,2,1,80,0,0
85633,-100,4,2,1,70,0,0
90822,-100,4,2,1,80,0,0
95606,-100,4,2,1,5,0,0
95687,-100,4,2,1,80,0,0
101201,-100,4,2,1,50,0,0
105093,-100,4,2,1,30,0,0

[Colours]
Combo1 : 235,194,35
Combo2 : 239,153,75

[HitObjects]
492,265,5201,6,0,L|382:244,1,100,2|0,0:0|0:0,0:0:0:0:
351,155,5849,2,0,L|241:134,1,100,2|0,0:0|0:0,0:0:0:0:
207,131,6336,1,0,0:0:0:0:
207,131,6498,2,0,P|163:159|153:222,1,100,2|0,0:0|0:0,0:0:0:0:
101,290,7146,2,0,L|26:304,2,75,2|0|0,0:0|0:0|0:0,0:0:0:0:
147,308,7795,6,0,B|165:354|165:354|211:373,1,100,2|0,0:0|0:0,0:0:0:0:
310,353,8444,2,0,B|340:313|340:313|332:264,1,100,2|0,0:0|0:0,0:0:0:0:
325,219,8930,1,0,0:0:0:0:
325,219,9092,2,0,P|296:184|249:157,1,100,2|0,0:0|0:0,0:0:0:0:
221,60,9741,2,0,P|260:44|298:17,2,75,2|0|0,0:0|0:0|0:0,0:0:0:0:
175,81,10390,6,0,P|158:116|99:147,1,100,2|0,0:0|0:0,0:0:0:0:
19,97,11038,2,0,B|24:66|24:66|22:55|22:55|27:23,2,75,2|0|0,0:0|0:0|0:0,0:0:0:0:
7,146,11687,2,0,P|12:192|27:260,1,100,2|0,0:0|0:0,0:0:0:0:
120,264,12336,1,2,0:0:0:0:
206,214,12660,2,0,P|234:209|259:203,1,50,2|0,0:0|0:0,0:0:0:0:
304,206,12984,6,0,P|356:197|413:166,1,100,2|0,0:0|0:0,0:0:0:0:
467,104,13633,2,0,P|483:63|483:26,2,75,2|0|0,0:0|0:0|0:0,0:0:0:0:
493,146,14282,2,0,B|510:181|510:181|466:383|466:383|412:358,1,300,2|2,0:0|0:0,0:0:0:0:
256,192,15579,12,2,17525,0:0:0:0:
108,366,18173,6,0,L|126:248,1,100,2|0,1:2|0:0,0:0:0:0:
117,221,18660,1,8,0:0:0:0:
117,221,18822,2,0,P|96:194|66:174,1,50,2|0,0:0|1:0,0:0:0:0:
41,157,19146,1,8,0:0:0:0:
17,59,19471,2,0,P|56:23|113:22,1,100,2|0,1:2|0:0,0:0:0:0:
153,33,19957,1,8,0:0:0:0:
153,33,20119,2,0,P|182:42|224:48,1,50,2|0,0:0|1:0,0:0:0:0:
250,53,20444,1,8,0:0:0:0:
309,133,20768,5,2,1:2:0:0:
263,222,21092,2,0,P|254:257|248:286,1,50,0|8,0:0|0:0,0:0:0:0:
258,320,21417,2,0,P|291:355|354:369,1,100,2|8,0:0|0:0,0:0:0:0:
438,357,22065,2,0,P|451:299|468:254,1,100,2|0,1:2|0:0,0:0:0:0:
488,218,22552,1,10,0:0:0:0:
488,218,22714,2,0,P|475:160|458:115,1,100,2|2,0:0|0:0,0:0:0:0:
449,22,23363,6,0,L|505:1,2,50,2|0|0,1:2|0:0|0:0,0:0:0:0:
404,37,23849,1,8,0:0:0:0:
404,37,24011,2,0,P|355:56|309:105,1,100,2|10,0:0|0:0,0:0:0:0:
276,179,24660,1,2,1:2:0:0:
276,179,24822,2,0,L|169:154,1,100,2|8,0:0|0:0,0:0:0:0:
137,127,25309,2,0,P|83:102|21:113,1,100,2|10,0:0|0:0,0:0:0:0:
5,198,25957,5,2,1:2:0:0:
5,198,26119,2,0,P|8:248|23:311,1,100,2|10,0:0|0:0,0:0:0:0:
50,335,26606,2,0,P|71:348|97:357,1,50,0|2,0:0|1:2,0:0:0:0:
143,367,26930,1,10,0:0:0:0:
232,322,27255,1,2,1:2:0:0:
232,322,27417,2,0,P|285:310|338:302,1,100,2|10,0:0|0:0,0:0:0:0:
379,311,27903,2,0,P|408:304|438:299,1,50,0|2,0:0|1:2,0:0:0:0:
477,295,28228,1,10,0:0:0:0:
256,192,33741,12,2,35687,0:0:0:0:
278,15,36336,6,0,P|293:74|304:146,1,100,6|10,1:2|1:2,0:0:0:0:
324,156,36822,1,8,0:0:0:0:
318,205,36984,2,0,P|333:264|344:336,1,100,2|8,1:2|1:2,0:0:0:0:
418,365,37633,2,0,P|476:340|489:286,1,100,2|10,1:2|1:2,0:0:0:0:
508,262,38119,1,8,0:0:0:0:
492,214,38280,2,0,P|467:171|420:157,1,100,2|8,1:2|1:2,0:0:0:0:
372,69,38930,5,2,1:2:0:0:
272,56,39254,2,0,P|241:66|195:77,1,50,10|8,1:2|0:0,0:0:0:0:
184,100,39578,2,0,P|159:141|107:172,1,100,2|8,1:2|1:2,0:0:0:0:
32,223,40227,2,0,P|40:281|68:324,1,100,2|10,1:2|1:2,0:0:0:0:
98,348,40713,1,8,0:0:0:0:
147,353,40875,2,0,P|159:302|167:244,1,100,2|10,1:2|1:2,0:0:0:0:
235,182,41524,6,0,P|232:160|220:126,1,50,2|0,1:2|0:0,0:0:0:0:
244,88,41849,2,0,P|235:67|215:37,1,50,2|8,0:0|0:0,0:0:0:0:
186,7,42173,2,0,P|150:18|68:34,1,100,2|10,0:0|0:0,0:0:0:0:
41,119,42822,2,0,P|73:124|115:139,1,50,2|2,1:2|0:0,0:0:0:0:
119,169,43146,2,0,P|112:198|106:230,1,50,2|8,0:0|0:0,0:0:0:0:
130,262,43471,2,0,P|189:270|247:286,1,100,2|10,0:0|0:0,0:0:0:0:
329,259,44117,5,2,1:2:0:0:
329,259,44280,2,0,P|348:189|393:143,1,100,2|10,0:0|0:0,0:0:0:0:
406,141,44766,2,0,P|416:166|434:193,1,50,0|2,0:0|1:2,0:0:0:0:
463,220,45090,1,10,0:0:0:0:
492,315,45415,2,0,P|481:340|464:367,1,50,2|2,1:2|0:0,0:0:0:0:
428,384,45739,1,2,0:0:0:0:
428,384,45901,2,0,P|388:368|318:360,1,100,10|2,0:0|1:2,0:0:0:0:
281,360,46388,1,10,0:0:0:0:
219,280,46712,6,0,B|226:247|226:247|235:238|235:238|248:179,1,100,6|10,1:2|1:2,0:0:0:0:
257,137,47198,1,8,0:0:0:0:
244,88,47361,2,0,P|265:26|309:10,1,100,2|10,1:2|1:2,0:0:0:0:
392,11,48009,1,2,1:2:0:0:
480,58,48334,1,10,1:2:0:0:
511,152,48658,1,2,1:2:0:0:
491,249,48982,1,10,1:2:0:0:
412,311,49307,6,0,P|362:278|326:221,1,100,2|10,1:2|1:2,0:0:0:0:
303,210,49793,1,8,0:0:0:0:
296,160,49955,2,0,P|250:147|180:131,1,100,2|8,1:2|1:2,0:0:0:0:
100,149,50604,2,0,P|38:145|19:96,1,100,2|10,1:2|1:2,0:0:0:0:
1,70,51090,1,8,0:0:0:0:
37,35,51253,2,0,P|82:18|122:45,1,100,2|8,1:2|1:2,0:0:0:0:
222,38,51901,6,0,B|310:20|413:10|413:10|412:57|394:117,1,300,2|8,1:2|0:0,0:0:0:0:
367,211,53198,2,0,L|470:237,1,100,2|2,1:2|0:0,0:0:0:0:
493,282,53685,1,8,0:0:0:0:
493,282,53847,2,0,P|463:329|424:357,1,100,2|10,0:0|0:0,0:0:0:0:
329,374,54496,6,0,L|232:349,1,100,2|2,1:2|0:0,0:0:0:0:
199,319,54982,1,8,0:0:0:0:
199,319,55144,2,0,P|133:344|122:381,1,100,2|8,0:0|0:0,0:0:0:0:
34,320,55793,2,0,P|42:270|49:202,1,100,2|2,1:2|0:0,0:0:0:0:
102,136,56442,1,2,0:0:0:0:
24,72,56766,1,10,0:0:0:0:
98,5,57090,6,0,P|155:14|210:45,1,100,6|10,1:2|1:2,0:0:0:0:
236,56,57577,1,8,0:0:0:0:
253,102,57739,2,0,P|286:148|303:209,1,100,2|8,1:2|1:2,0:0:0:0:
372,257,58388,2,0,L|477:233,1,100,2|10,1:2|1:2,0:0:0:0:
496,192,58874,1,8,0:0:0:0:
511,144,59036,2,0,P|498:95|470:43,1,100,2|8,1:2|1:2,0:0:0:0:
386,4,59685,5,2,1:2:0:0:
347,100,60009,1,10,1:2:0:0:
347,100,60171,1,8,0:0:0:0:
347,100,60334,2,0,B|310:171|310:171|318:196,1,100,2|8,1:2|1:2,0:0:0:0:
406,231,60982,2,0,B|443:302|443:302|436:320,1,100,2|10,1:2|1:2,0:0:0:0:
415,366,61469,1,8,0:0:0:0:
367,381,61631,2,0,P|322:370|252:363,1,100,2|8,1:2|1:2,0:0:0:0:
197,292,62280,6,0,P|173:266|143:248,1,50,2|0,1:2|0:0,0:0:0:0:
116,236,62604,2,0,L|42:249,1,50,2|8,0:0|0:0,0:0:0:0:
29,278,62928,2,0,B|19:324|19:324|52:369,1,100,2|8,0:0|0:0,0:0:0:0:
149,380,63577,2,0,P|159:356|184:325,1,50,2|0,1:2|0:0,0:0:0:0:
197,292,63901,2,0,L|214:217,1,50,2|8,0:0|0:0,0:0:0:0:
234,200,64226,2,0,P|221:145|212:64,1,100,2|8,0:0|0:0,0:0:0:0:
149,26,64874,6,0,P|97:27|18:44,1,100,2|2,1:2|0:0,0:0:0:0:
26,81,65361,1,8,0:0:0:0:
26,81,65523,2,0,P|71:105|148:130,1,100,2|10,0:0|0:0,0:0:0:0:
214,101,66172,2,0,P|265:88|329:64,1,100,2|2,1:2|0:0,0:0:0:0:
337,32,66658,1,8,0:0:0:0:
337,32,66820,2,0,B|368:17|404:16|404:16|429:40,1,100,2|10,0:0|0:0,0:0:0:0:
501,102,67469,6,0,L|482:217,1,100,10|10,1:2|1:2,0:0:0:0:
387,222,68117,2,0,L|272:203,1,100,10|10,1:2|1:2,0:0:0:0:
215,138,68766,2,0,L|100:119,1,100,10|10,1:2|1:2,0:0:0:0:
60,205,69415,2,0,L|41:320,1,100,10|10,1:2|1:2,0:0:0:0:
114,374,70063,5,10,1:2:0:0:
182,301,70388,1,10,1:2:0:0:
280,282,70712,1,10,1:2:0:0:
366,331,71036,1,10,1:2:0:0:
456,373,71361,2,0,P|492:324|499:253,1,100,10|10,1:2|1:2,0:0:0:0:
478,189,72009,2,0,P|468:128|423:73,1,100,10|10,1:2|1:2,0:0:0:0:
351,73,72658,6,0,P|333:97|314:117,1,50,10|8,1:2|0:0,0:0:0:0:
291,153,72982,2,0,P|300:181|305:208,1,50,10|10,1:2|0:0,0:0:0:0:
333,241,73307,2,0,P|313:294|293:363,1,100,10|10,1:2|1:2,0:0:0:0:
202,354,73955,2,0,P|179:346|144:337,1,50,10|8,1:2|0:0,0:0:0:0:
114,369,74280,2,0,P|91:361|56:352,1,50,10|10,1:2|0:0,0:0:0:0:
30,318,74604,2,0,B|21:306|21:306|17:259|52:230,1,100,10|10,1:2|1:2,0:0:0:0:
142,188,75253,6,0,B|165:17|165:17|220:3|220:3|227:38|258:60,1,300,10|10,1:2|1:2,0:0:0:0:
238,158,76550,2,0,B|152:139|51:132|51:132|67:9,1,300,10|8,1:2|1:2,0:0:0:0:
256,192,77847,12,2,79793,0:0:0:0:
219,254,80442,6,0,P|238:307|276:377,1,100,6|8,1:2|1:2,0:0:0:0:
293,380,80928,1,10,0:0:0:0:
342,375,81090,2,0,P|371:358|418:344,1,50,2|0,1:2|0:0,0:0:0:0:
436,349,81415,1,8,1:2:0:0:
481,260,81739,2,0,P|445:242|371:220,1,100,2|8,1:2|1:2,0:0:0:0:
338,224,82226,1,10,0:0:0:0:
308,183,82388,2,0,P|263:160|224:128,1,100,2|8,1:2|1:2,0:0:0:0:
129,100,83036,6,0,B|98:110|98:110|90:117|90:117|60:128,2,75,2|2|10,1:2|0:0|0:0,0:0:0:0:
136,50,83685,2,0,B|105:40|105:40|97:33|97:33|67:22,2,75,2|2|2,1:2|0:0|0:0,0:0:0:0:
185,39,84334,2,0,P|230:8|289:5,1,100,2|8,1:2|1:2,0:0:0:0:
323,1,84820,1,10,0:0:0:0:
362,31,84982,2,0,P|420:46|487:60,1,100,2|10,1:2|1:2,0:0:0:0:
494,148,85631,6,0,P|467:154|429:170,1,50,2|2,1:2|0:0,0:0:0:0:
428,209,85955,2,0,P|405:225|375:253,1,50,2|10,1:2|0:0,0:0:0:0:
379,288,86280,2,0,P|341:319|292:346,1,100,2|10,1:2|1:2,0:0:0:0:
203,378,86928,2,0,P|189:352|151:333,1,50,2|2,1:2|0:0,0:0:0:0:
123,333,87253,2,0,P|98:328|77:314,1,50,0|8,1:0|0:0,0:0:0:0:
42,280,87577,2,0,P|41:219|95:182,1,100,2|10,1:2|1:2,0:0:0:0:
153,141,88226,5,2,1:2:0:0:
153,141,88388,2,0,B|170:163|170:163|273:184,1,100,2|10,0:0|0:0,0:0:0:0:
283,202,88874,2,0,P|314:195|341:187,1,50,0|2,1:0|0:0,0:0:0:0:
374,164,89198,1,10,1:2:0:0:
412,71,89523,2,0,P|403:43|381:15,1,50,2|2,1:2|0:0,0:0:0:0:
344,9,89847,1,0,1:0:0:0:
344,9,90009,2,0,B|296:27|296:27|278:83,1,100,10|2,0:0|0:0,0:0:0:0:
268,121,90496,1,10,1:2:0:0:
180,169,90820,6,0,P|129:195|115:250,1,100,2|8,1:2|1:2,0:0:0:0:
88,275,91307,1,10,0:0:0:0:
114,317,91469,2,0,P|142:328|163:339,1,50,2|0,1:2|0:0,0:0:0:0:
209,329,91793,2,0,P|237:340|258:351,1,50,10|0,1:2|0:0,0:0:0:0:
294,379,92117,1,2,1:2:0:0:
335,287,92442,1,10,1:2:0:0:
414,347,92766,1,2,1:2:0:0:
455,255,93091,1,10,1:2:0:0:
496,163,93415,6,0,P|502:90|461:52,1,100,2|8,1:2|1:2,0:0:0:0:
472,23,93901,1,8,0:0:0:0:
423,11,94063,2,0,B|406:1|406:1|348:9|348:9|332:23,1,100,2|8,1:2|1:2,0:0:0:0:
260,93,94712,2,0,P|203:68|178:33,1,100,2|8,1:2|1:2,0:0:0:0:
138,12,95198,1,8,0:0:0:0:
96,40,95361,2,0,P|82:75|50:134,1,100,2|8,1:2|1:2,0:0:0:0:
1,215,96009,5,2,1:2:0:0:
81,292,96334,1,10,1:2:0:0:
81,292,96496,1,10,0:0:0:0:
81,292,96658,2,0,P|95:327|127:386,1,100,2|8,1:2|1:2,0:0:0:0:
211,333,97307,2,0,P|216:290|228:247,2,75,2|2|10,1:2|0:0|0:0,0:0:0:0:
234,377,97955,2,0,P|265:373|302:361,1,50,2|0,1:2|0:0,0:0:0:0:
333,371,98280,1,8,1:2:0:0:
405,301,98604,5,2,1:2:0:0:
372,217,98929,1,8,1:2:0:0:
372,217,99090,1,10,0:0:0:0:
372,217,99253,2,0,P|317:199|248:171,1,100,2|8,1:2|1:2,0:0:0:0:
193,130,99901,2,0,P|159:174|130:194,2,75,2|2|10,1:2|0:0|0:0,0:0:0:0:
211,83,100550,1,2,1:2:0:0:
295,29,100874,2,0,P|341:46|389:61,1,100,10|4,1:2|0:0,0:0:0:0:
256,192,101361,12,2,105090,0:0:0:0:
